#TITLE:Make it Werk;
#SUBTITLE:;
#ARTIST:JAKAZiD;
#TITLETRANSLIT:;
#SUBTITLETRANSLIT:;
#ARTISTTRANSLIT:;
#GENRE:;
#CREDIT:;
#BANNER:Make it Werk.png;
#BACKGROUND:Make it Werk-bg.png;
#LYRICSPATH:;
#CDTITLE:;
#MUSIC:Make it Werk.ogg;
#OFFSET:-0.028000;
#SAMPLESTART:67.792946;
#SAMPLELENGTH:15.000000;
#SELECTABLE:YES;
#BPMS:0.000000=170.000000
;
#STOPS:
;
#BGCHANGES:;
#KEYSOUNDS:;
#ATTACKS:;

//---------------dance-single - ----------------
#NOTES:
     dance-single:
     :
     Hard:
     14:
     0.728424,0.799304,0.320641,0.273718,0.305000,652.000000,611.000000,41.000000,35.000000,0.000000,0.000000,0.728424,0.799304,0.320641,0.273718,0.305000,652.000000,611.000000,41.000000,35.000000,0.000000,0.000000:
// measure 0
0000
0000
0000
0000
,  // measure 1
0000
0000
0000
0000
,  // measure 2
0000
0000
0000
0000
,  // measure 3
0000
0000
0000
0000
,  // measure 4
0000
0000
0000
0000
,  // measure 5
1000
0000
0100
0000
1000
0000
0001
0010
0000
0010
0000
0001
1000
0000
0100
0000
,  // measure 6
1000
0000
0010
0000
0100
0000
0010
1000
0000
1000
0000
0010
0100
0010
0000
0000
,  // measure 7
1000
0000
0001
0000
1000
0000
0010
0100
0000
0100
0000
0001
0100
0000
0001
0000
,  // measure 8
0020
0000
0000
0000
0031
0000
1000
0100
0000
0000
0100
0000
1000
0000
0001
0000
,  // measure 9
0100
0000
0001
0000
0100
0010
0000
0100
1000
0000
0100
0010
0000
0000
0010
0000
,  // measure 10
0100
0001
0100
0001
1000
0100
1000
0000
,  // measure 11
0100
0000
1000
0000
0100
0010
0000
0100
0001
0000
0100
0010
0000
0000
0010
0000
,  // measure 12
0100
1000
0100
0010
0001
0010
0002
0000
,  // measure 13
1003
0000
0100
0000
1000
0001
0000
0000
0001
0000
0000
0101
0000
0000
0100
0000
,  // measure 14
0001
0010
0001
0000
0010
0100
0000
0000
1000
0000
0000
1010
0000
0000
0010
0000
,  // measure 15
1000
0000
0010
0000
0100
0000
0001
0000
1000
0000
0001
0100
0000
0100
0010
0000
,  // measure 16
1000
1000
1000
1000
1000
0001
2000
0000
,  // measure 17
3001
0100
0000
2010
0000
3001
0000
1000
,  // measure 18
0001
0010
0000
2100
0000
3001
0000
0010
,  // measure 19
0001
0100
0000
0102
0000
1003
0000
0100
,  // measure 20
0010
1000
0000
0012
0000
1003
0000
1000
,  // measure 21
0001
1000
0000
1010
0000
0101
0000
0001
,  // measure 22
1000
0100
0000
0011
0000
1100
0000
1000
,  // measure 23
0001
0100
0000
1100
0000
0101
0000
0100
,  // measure 24
0001
0000
0010
0000
0000
0000
1010
0000
0000
0000
0011
0000
0010
0001
0010
0001
,  // measure 25
1000
0010
0100
0001
1000
0100
0010
0001
,  // measure 26
0100
0001
1000
0001
1000
0100
0010
0001
,  // measure 27
1000
0010
0100
0001
1000
0100
0010
0001
,  // measure 28
1000
0000
0010
0000
1000
0000
0001
0000
0010
0000
0001
0000
1000
0100
1000
0100
,  // measure 29
1000
1000
0100
0010
0001
0001
0010
0100
,  // measure 30
1000
0001
0100
1000
0100
0001
1000
0010
,  // measure 31
0100
0100
0001
1000
0100
0100
1000
0001
,  // measure 32
0020
0000
0000
0000
0000
0000
0030
0000
0011
0000
0000
0110
0000
0000
1100
0000
,  // measure 33
2000
0100
3002
0010
,  // measure 34
2003
0100
3002
0100
,  // measure 35
2003
0010
3002
0100
,  // measure 36
2003
0000
0100
0000
3001
0010
0001
1000
,  // measure 37
0002
0100
0023
0100
,  // measure 38
0032
0100
2003
0100
,  // measure 39
3020
1000
0230
0001
,  // measure 40
0320
0000
0100
0000
1030
0001
2000
0000
,  // measure 41
3001
0101
1001
1100
,  // measure 42
1001
0000
0101
0000
0001
0100
1000
0100
,  // measure 43
0001
0011
1001
1010
,  // measure 44
1001
0000
0011
0000
0001
0010
1000
0010
,  // measure 45
0001
0000
0010
0000
0001
0000
0000
0001
0010
0000
0100
0000
1000
0000
0100
0000
,  // measure 46
1000
0000
0010
0000
1000
0000
0000
1000
0010
0000
0100
0000
0001
0000
0100
0000
,  // measure 47
0001
0000
0010
0000
0001
0000
1000
0000
0001
0000
0100
0010
0000
0010
0100
0000
,  // measure 48
0001
0000
0001
0000
0001
0000
1000
0000
0100
0000
0100
0010
0100
0000
0000
0000
,  // measure 49
1000
0000
0001
0000
0010
0000
0000
0010
0001
0000
1000
0000
0100
0000
0000
0100
,  // measure 50
1000
0000
0001
0000
0100
0000
0000
0100
0001
0000
1000
0000
0010
0000
1000
0000
,  // measure 51
0001
0000
0100
0010
0000
0100
0010
0000
1000
0000
0100
0010
0000
0010
0100
0000
,  // measure 52
1000
0000
0010
0100
0000
0010
1000
0000
0001
0000
0100
0000
0010
0000
1000
0000
,  // measure 53
0001
0000
1000
0000
0010
0000
0000
0010
1000
0000
0001
0000
0100
0000
0000
0100
,  // measure 54
0001
0000
1000
0000
0100
0000
0000
0100
1000
0000
0001
0000
0010
0000
0001
0000
,  // measure 55
1000
0000
0000
1100
0000
0000
1000
0000
0001
0000
0000
0011
0000
0000
0001
0000
,  // measure 56
1000
0000
0000
1001
0000
0000
0001
0000
1000
0000
0001
0000
0100
0000
0010
0000
,  // measure 57
1000
0000
0001
0000
1000
0100
0000
0100
1000
0000
1000
0001
0000
0000
1000
0000
,  // measure 58
0001
0000
0001
0000
1000
0010
0000
0010
1000
0000
1000
0100
0000
0000
1000
0000
,  // measure 59
0001
0000
0001
0000
1000
0001
0000
0001
1000
0000
1000
0010
0000
0000
1000
0000
,  // measure 60
0001
0000
0100
0000
0010
0000
0100
0000
1000
0000
0100
0000
0010
0100
0010
0100
,  // measure 61
0001
0000
1000
0000
0001
0100
0000
0100
0001
0000
0001
0010
0000
0000
0001
0000
,  // measure 62
1000
0000
1000
0000
0001
1000
0000
1000
0001
0000
0001
0100
0000
0000
0110
0000
,  // measure 63
1000
0000
0010
0000
0001
0000
0010
0000
1000
0000
0001
0010
0000
0000
0100
0000
,  // measure 64
1000
0000
1000
0000
1000
0000
0001
0000
1000
0100
1000
0000
0001
0100
0001
0000
,  // measure 65
1000
0100
1000
0001
1000
0100
1000
0010
,  // measure 66
0100
0001
0100
0010
0100
1000
0100
0001
,  // measure 67
0010
0200
0000
1300
0010
0200
0000
0301
,  // measure 68
0010
0000
0200
0000
0300
0000
0100
0000
1000
0000
0001
1000
0100
0000
0000
0000
,  // measure 69
0010
0100
0010
0001
0010
1000
0010
0100
,  // measure 70
1000
0001
0100
0001
0010
0001
1000
0001
,  // measure 71
0100
0020
0000
1030
0100
0020
0000
0031
,  // measure 72
0100
0210
0000
0310
1000
1000
0101
0000
,  // measure 73
0001
0100
0010
0100
0001
1000
0010
0100
,  // measure 74
0010
1000
0001
1000
0100
0010
0001
1000
,  // measure 75
0010
2010
0000
3001
0010
0012
0000
1003
,  // measure 76
0010
0000
2010
0000
0000
0000
3001
0000
1000
0000
0100
1000
0000
0100
1000
0000
,  // measure 77
0001
0010
0100
0010
0001
1000
0100
0010
,  // measure 78
0001
1000
0010
1000
0001
0100
0010
1000
,  // measure 79
0001
0201
0000
0301
1000
1200
0000
1300
,  // measure 80
1000
0000
0100
0000
0010
0000
0001
0000
1000
0000
0001
0000
0100
0010
0100
0000
,  // measure 81
0001
0100
0010
1000
0001
0010
0100
1000
,  // measure 82
0010
1000
0001
0010
0001
0010
0100
1000
,  // measure 83
0001
0100
0010
1000
0001
0010
0100
1000
,  // measure 84
0001
0000
0100
0000
0001
0000
1000
0000
0100
0000
1000
0000
0001
0010
0001
0010
,  // measure 85
0001
0001
0100
0010
1000
1000
0010
0100
,  // measure 86
0101
0000
0001
0000
1001
0000
1000
0000
1100
0000
0100
0000
0010
0100
0010
0000
,  // measure 87
0001
0000
0010
0000
0100
1000
0100
0000
1000
0000
0010
0000
0100
0001
0100
0000
,  // measure 88
0002
0000
0000
0003
0001
0100
0010
1000
;

//---------------dance-single - ----------------
#NOTES:
     dance-single:
     :
     Medium:
     10:
     0.504981,0.556038,0.242436,0.414487,0.082115,452.000000,421.000000,31.000000,53.000000,0.000000,0.000000,0.504981,0.556038,0.242436,0.414487,0.082115,452.000000,421.000000,31.000000,53.000000,0.000000,0.000000:
0000
0000
0000
0000
,
0000
0000
0000
0000
,
0000
0000
0000
0000
,
0000
0000
0000
0000
,
0000
0000
0000
0000
,
1000
0000
0100
0000
0010
0001
0010
0000
,
0001
0000
0010
0000
0100
1000
0100
0000
,
0010
0000
0001
0000
1000
0001
1000
0000
,
0001
0100
1000
0010
,
0001
0000
0001
0000
0000
1000
0000
0000
0001
0000
0000
0010
0000
0000
0001
0000
,
2000
3010
0002
0103
,
1000
0000
1000
0000
0000
0001
0000
0000
1000
0000
0000
0100
0000
0000
1000
0000
,
0002
0010
1000
0103
,
0001
0100
0010
0000
1000
0000
0001
0000
,
1000
0100
0010
0000
0001
0000
1000
0000
,
0001
0011
1001
1100
,
0001
1000
0001
1000
0001
1000
0200
0000
,
1300
0002
0000
0023
0000
0230
0000
0310
,
0001
2000
0000
3020
0000
0230
0000
0310
,
1000
0002
0000
0203
0000
0320
0000
1030
,
0001
2000
0000
3200
0000
0320
0000
0031
,
1000
2000
0000
0100
0000
3001
0000
1000
,
0001
0002
0000
0010
0000
1003
0000
0001
,
0010
0020
0000
1000
0000
0031
0000
0010
,
0001
1000
0000
1000
0000
1000
0002
0000
,
1003
0100
1000
0000
0001
0010
0001
0000
,
1000
0001
1000
0001
0010
0001
0010
0000
,
0001
0100
0001
0000
1000
0010
1000
0000
,
0001
1000
0000
0001
1000
0000
0110
0000
,
1000
0000
1000
0000
0001
0010
0100
0000
,
0010
0001
1000
0010
0100
0000
0100
0000
,
1001
0010
1001
0100
,
0220
0000
0000
0000
0330
0000
0000
0000
0001
0000
0000
0001
0000
0000
0001
0000
,
1000
1000
0100
0100
,
0010
0010
0001
0010
,
0200
0300
0020
0030
,
2000
3000
0002
0003
,
0001
0001
0100
0100
,
0010
0010
1000
1000
,
0200
0300
0020
0030
,
0001
0000
1000
0000
0001
1000
0002
0000
,
0023
0130
0002
1003
,
0020
0031
1001
1010
,
0020
0130
2000
3001
,
0020
0130
1001
0011
,
0010
0000
0010
0000
0100
1000
0100
1000
,
0010
0000
0010
0000
0100
0001
0100
0001
,
1000
1000
1000
0000
0001
0001
0001
0000
,
1000
0010
1000
0010
0100
0001
0100
0000
,
0001
0100
0000
0100
0001
1000
0000
1000
,
0100
0010
0000
0010
0100
0000
0100
0000
,
1000
0000
0000
0100
0000
0000
1000
0000
0001
0000
0000
0010
0000
0000
0001
0000
,
0100
0000
0000
0001
0000
0000
0100
0000
0010
0000
1000
0000
0010
0000
0000
0000
,
1000
0100
0000
0100
1000
0001
0000
0001
,
0100
0010
0000
0010
1000
0001
1000
0000
,
0001
0000
0000
0100
0000
0000
0001
0000
1000
0000
0000
0010
0000
0000
1000
0000
,
0100
0000
0000
1000
0000
0000
0100
0000
0110
0000
0000
0000
1001
0000
0000
0000
,
1000
0000
1000
0000
0000
0100
0000
0000
1000
0000
0000
0010
0000
0000
1000
0000
,
0001
0000
0001
0000
0000
0100
0000
0000
0001
0000
0000
0010
0000
0000
0000
0000
,
0001
0000
0001
0000
0000
0100
0000
0000
0010
0000
0000
1000
0000
0000
0000
0000
,
0001
0100
0100
0001
0100
0200
0300
0000
,
1000
0000
0001
0000
0000
1000
0000
0000
0100
0000
0000
0010
0000
0000
0000
0000
,
0001
0000
1000
0000
0001
0000
0000
0100
0000
0000
0010
0000
0000
0000
0010
0000
,
0100
0001
1000
0000
0100
1000
0001
0000
,
0010
0001
0010
0001
2000
3000
2000
3000
,
1000
0002
0000
0100
0000
0010
0000
1000
,
0000
0100
0000
1000
0000
0010
0000
1003
,
1000
0002
0000
0003
0001
2000
0000
3000
,
1000
0002
0000
0003
0010
0100
0010
0000
,
0001
2000
0000
0001
0000
0010
0000
0001
,
0000
0100
0000
0010
0000
0100
0000
3001
,
0001
2000
0000
3000
1000
0002
0000
0003
,
1001
0000
1001
0000
0010
0010
0200
0000
,
0301
0100
0000
0101
0000
0101
0000
1001
,
0000
1001
0000
1100
0000
1100
0000
0100
,
1000
0020
0000
0030
0010
0200
0000
0300
,
0100
0000
0002
0000
0000
0000
0003
0000
1000
0000
0000
1000
0000
0000
1000
0000
,
0001
1000
0000
1010
0000
1010
0000
1001
,
0000
1001
0000
0011
0000
0011
0000
0010
,
0001
0200
0000
0300
1000
0200
0000
0300
,
0001
0100
0001
0100
0010
1000
0010
1000
,
0001
0100
0001
0000
1000
0010
1000
0000
,
0001
1000
0001
1000
0010
1000
0010
0000
,
1000
0100
1000
0000
0001
0010
0001
0000
,
1000
0001
0000
1000
0001
0000
0110
0000
,
0001
0000
0001
0000
1000
0010
0100
0000
,
0010
1000
0001
0010
0100
0000
0100
0000
,
1001
0010
1001
0100
,
0220
0000
0330
0000
0010
0100
0100
0010
;

//---------------dance-single - ----------------
#NOTES:
     dance-single:
     :
     Easy:
     6:
     0.306117,0.312331,0.054744,0.242436,0.000000,274.000000,267.000000,7.000000,31.000000,0.000000,0.000000,0.306117,0.312331,0.054744,0.242436,0.000000,274.000000,267.000000,7.000000,31.000000,0.000000,0.000000:
0000
0000
0000
0000
,
0000
0000
0000
0000
,
0000
0000
0000
0000
,
0000
0000
0000
0000
,
0000
0000
0000
0000
,
1000
1000
0100
1000
,
0001
0001
0010
0001
,
1000
1000
0100
1000
,
0002
0003
2000
3000
,
0001
1000
0001
0000
,
1000
0100
1000
0000
,
1000
0001
1000
0000
,
0001
0100
0001
0000
,
2000
3000
0001
0010
,
0002
0003
1000
0010
,
1000
0010
0100
0001
,
0010
0010
0010
0100
,
0010
0000
1001
0000
,
0010
0000
1001
0000
,
0010
0000
1001
0000
,
0001
1000
0001
1000
,
0100
0000
1001
0000
,
0100
0000
1001
0000
,
0100
0000
1001
0000
,
1000
0001
1000
1000
,
0001
0000
0010
0010
,
0001
0000
0001
0000
,
1000
0000
0010
0010
,
1000
0000
1000
0000
,
0001
0100
0010
0010
,
1000
0100
0010
0010
,
0001
0010
0001
0010
,
0200
0000
0020
0330
,
1000
0100
0000
0100
,
0000
0010
0000
0010
,
0100
0000
1000
0000
,
0001
0000
0100
0100
,
0001
0100
0000
0100
,
0000
0010
0000
0010
,
0100
0000
0001
0000
,
1000
0000
0100
0020
,
0031
0001
1000
1000
,
0001
0001
1000
0001
,
0010
0010
0100
0100
,
0010
0010
0100
0010
,
0001
0001
1000
0001
,
0100
0100
0010
0100
,
0001
0010
0100
1000
,
0100
0100
0100
0010
,
0001
0010
0001
0010
,
0100
1000
0100
1000
,
0002
0003
2000
3000
,
0002
0003
0100
0100
,
0010
1000
0010
1000
,
0001
0100
0001
0100
,
0002
0003
2000
3000
,
0200
0300
0010
0010
,
0001
0010
0100
0010
,
0001
0010
0100
0010
,
0002
0003
2000
3000
,
0002
0003
0100
0001
,
1000
0010
0100
0010
,
1000
0010
0100
0010
,
2000
3000
0002
0003
,
0010
0010
0100
0100
,
1000
0100
1000
0001
,
1000
0010
1000
0001
,
0200
0300
0200
0300
,
0100
0010
0200
0300
,
0001
0100
0001
1000
,
0001
0010
0001
1000
,
0200
0300
0200
0300
,
0100
0010
2002
3003
,
0001
0100
0010
1000
,
0010
0100
0001
0100
,
0020
0030
0020
0030
,
0020
0030
1000
0001
,
1000
0100
0010
0001
,
0010
0100
1000
0100
,
0020
0030
0020
0030
,
0001
1000
1000
0001
,
1000
0000
0010
0010
,
1000
0000
1000
0000
,
0001
0000
0010
0010
,
0001
0000
0001
0000
,
1000
0100
0010
0010
,
0001
0100
0010
0010
,
1000
0010
1000
0010
,
0200
0000
0310
0010
;

//---------------dance-single - ----------------
#NOTES:
     dance-single:
     :
     Beginner:
     3:
     0.155293,0.242240,0.093846,0.000000,0.000000,139.000000,127.000000,12.000000,0.000000,0.000000,0.000000,0.155293,0.242240,0.093846,0.000000,0.000000,139.000000,127.000000,12.000000,0.000000,0.000000,0.000000:
0000
0000
0000
0000
,
0000
0000
0000
0000
,
0000
0000
0000
0000
,
0000
0000
0000
0000
,
0000
0000
0000
0000
,
1000
0000
0000
0000
,
1000
0000
0000
0000
,
0001
0000
0000
0000
,
0001
0000
0000
0000
,
1000
0000
0000
0000
,
0100
0000
0000
0000
,
0001
0000
0000
0000
,
0100
0000
0000
0000
,
1000
0000
0000
0000
,
0010
0000
0000
0000
,
0001
0000
0000
0000
,
1001
0000
0000
0000
,
0001
0000
0001
0000
,
0100
0000
0100
0000
,
0001
0000
0001
0000
,
0100
0000
0100
0000
,
0010
0000
0010
0000
,
1000
0000
1000
0000
,
0010
0000
0010
0000
,
1000
0000
1000
0000
,
0001
0000
0000
0000
,
0010
0000
0000
0000
,
0100
0000
0000
0000
,
1000
0000
0000
0000
,
0001
0000
0000
0000
,
0010
0000
0000
0000
,
0100
0000
0100
0000
,
0100
0000
0000
0000
,
0000
1000
0000
1000
,
0000
0001
0000
0001
,
0001
0000
0100
0000
,
0010
0000
1000
0000
,
0000
0001
0000
0001
,
0000
1000
0000
1000
,
1000
0000
0100
0000
,
0010
0000
0001
0000
,
1001
0000
0000
0000
,
0000
0000
0000
0000
,
1001
0000
0000
0000
,
0000
0000
0000
0000
,
1001
0000
0000
0000
,
0110
0000
0000
0000
,
1001
0000
0000
0000
,
1000
1000
1000
0000
,
0001
0000
0001
0000
,
0010
0000
0010
0000
,
0001
0000
0000
0000
,
1001
0000
0000
0000
,
1000
0000
1000
0000
,
0010
0000
0010
0000
,
1000
0000
0000
0000
,
1001
0000
0000
0000
,
0001
0000
0010
0000
,
0100
0000
0010
0000
,
0001
0000
0000
0000
,
1001
0000
0000
0000
,
1000
0000
0010
0000
,
0100
0000
0010
0000
,
1000
0000
0000
0000
,
1001
0000
0000
0000
,
1000
0000
1000
0000
,
0100
0000
0100
0000
,
0010
0000
0010
0000
,
0001
0000
0000
0000
,
0001
0000
0001
0000
,
0100
0000
0100
0000
,
0010
0000
0010
0000
,
1000
0000
0000
0000
,
1000
0000
1000
0000
,
0010
0000
0010
0000
,
0100
0000
0100
0000
,
0001
0000
0000
0000
,
0001
0000
0001
0000
,
0010
0000
0010
0000
,
0100
0000
0100
0000
,
1000
0000
0000
0000
,
0001
0000
0100
0000
,
0001
0000
0000
0000
,
1000
0000
0100
0000
,
1000
0000
0000
0000
,
0001
0000
1000
0000
,
0001
0000
1000
0000
,
1000
0000
1000
0000
,
1001
0000
1001
0000
;
