#VERSION:0.83;
#TITLE:MORE & MORE;
#SUBTITLE:;
#ARTIST:TWICE;
#TITLETRANSLIT:;
#SUBTITLETRANSLIT:;
#ARTISTTRANSLIT:;
#GENRE:;
#ORIGIN:;
#CREDIT:mf32892 + Telperion;
#BANNER:;
#BACKGROUND:;
#PREVIEWVID:;
#JACKET:;
#CDIMAGE:;
#DISCIMAGE:;
#LYRICSPATH:;
#CDTITLE:;
#MUSIC:MORE & MORE.ogg;
#OFFSET:-0.004000;
#SAMPLESTART:57.750000;
#SAMPLELENGTH:15.000000;
#SELECTABLE:YES;
#BPMS:0.000=107.000;
#STOPS:;
#DELAYS:;
#WARPS:103.000=12.000,
211.000=12.000,
255.000=5.000;
#TIMESIGNATURES:0.000=4=4;
#TICKCOUNTS:0.000=4;
#COMBOS:0.000=1;
#SPEEDS:0.000=0.500=0.000=0,
24.000=0.800=12.000=0,
36.000=1.000=3.000=0,
96.000=1.250=0.500=0,
97.000=1.500=0.500=0,
98.000=1.667=0.500=0,
99.000=2.000=0.500=0,
115.000=10.000=1.000=0,
147.000=7.000=1.000=0,
148.000=10.000=2.000=0,
150.000=7.000=2.000=0,
152.000=10.000=2.000=0,
154.000=7.000=2.000=0,
156.000=10.000=2.000=0,
158.000=7.000=2.000=0,
160.000=10.000=2.000=0,
162.000=7.000=2.000=0,
164.000=10.000=2.000=0,
166.000=7.000=2.000=0,
168.000=10.000=2.000=0,
170.000=7.000=2.000=0,
172.000=10.000=2.000=0,
174.000=7.000=2.000=0,
176.000=10.000=2.000=0,
178.000=7.000=1.000=0,
179.000=10.000=1.000=0,
188.000=14.000=20.000=0,
207.000=10.000=1.000=0,
223.000=100.000=1.000=0,
255.000=1.000=0.000=0;
#SCROLLS:0.000=1.000,
39.000=0.700,
39.250=1.300,
39.500=0.700,
39.750=1.300,
40.000=1.000,
43.500=1.500,
43.750=0.500,
44.000=1.000,
47.500=1.500,
47.750=0.500,
48.000=1.000,
59.500=1.500,
59.750=0.500,
60.000=1.000,
63.500=1.500,
63.750=0.500,
64.000=1.000,
72.000=0.000,
72.250=1.000,
73.000=0.000,
73.250=1.000,
74.000=0.000,
74.250=1.000,
75.000=0.000,
75.250=1.000,
76.000=0.000,
76.250=1.000,
77.000=0.500,
77.500=1.500,
78.000=1.000,
80.000=0.000,
80.250=1.200,
80.500=1.000,
81.000=0.000,
81.250=1.200,
81.500=1.000,
82.000=0.000,
82.250=1.200,
82.500=1.000,
83.000=0.500,
83.500=1.500,
84.000=1.000,
88.000=0.000,
88.250=1.500,
88.500=1.000,
89.000=0.000,
89.250=1.500,
89.500=1.000,
90.000=0.000,
90.250=1.500,
90.500=1.000,
91.000=0.000,
91.250=1.500,
91.500=1.000,
92.000=0.000,
92.250=1.500,
92.500=1.000,
93.000=0.500,
93.500=1.500,
94.000=1.000,
96.000=0.800,
97.000=0.667,
98.000=0.600,
99.000=0.500,
104.000=0.100,
119.250=0.050,
119.625=0.150,
120.000=0.100,
123.250=0.050,
123.625=0.150,
124.000=0.100,
127.250=0.050,
127.625=0.150,
128.000=0.100,
135.250=0.050,
135.625=0.150,
136.000=0.100,
139.250=0.050,
139.625=0.150,
140.000=0.100,
143.250=0.050,
143.625=0.150,
144.000=0.100,
160.000=0.000,
160.125=0.200,
160.250=0.000,
160.375=0.200,
160.500=0.100,
176.000=0.000,
176.125=0.200,
176.250=0.000,
176.375=0.200,
176.500=0.100,
180.000=0.070,
207.000=0.100,
223.000=0.010,
227.250=0.005,
227.625=0.015,
228.000=0.010,
231.250=0.005,
231.625=0.015,
232.000=0.010,
235.250=0.005,
235.625=0.015,
236.000=0.010,
243.250=0.005,
243.625=0.015,
244.000=0.010,
247.250=0.005,
247.625=0.015,
248.000=0.000,
248.250=0.020,
248.500=0.010,
248.750=0.000,
249.000=0.020,
249.250=0.010,
249.500=0.000,
249.750=0.020,
250.000=0.010,
251.250=0.005,
251.625=0.015,
252.000=0.010,
255.000=1.000;
#FAKES:;
#LABELS:0.000=Song Start;
#BGCHANGES:0.000=MORE & MORE.mp4=1.000=0=0=1=====,
99999=-nosongbg-=1.000=0=0=0 // don't automatically add -songbackground-
;
#KEYSOUNDS:;
#ATTACKS:
;

//---------------dance-single - mf32892----------------
#NOTEDATA:;
#CHARTNAME:;
#STEPSTYPE:dance-single;
#DESCRIPTION:mf32892;
#CHARTSTYLE:;
#DIFFICULTY:Hard;
#METER:12;
#RADARVALUES:0.367589,0.523037,0.185919,0.401586,0.275160,346.000000,321.000000,25.000000,54.000000,0.000000,0.000000,0.000000,0.000000,7.000000,0.367589,0.523037,0.185919,0.401586,0.275160,346.000000,321.000000,25.000000,54.000000,0.000000,0.000000,0.000000,0.000000,7.000000;
#CREDIT:mf32892;
#NOTES:
// measure 0
0000
0000
0000
0000
,  // measure 1
0000
0000
0000
0000
,  // measure 2
0000
0000
0000
0000
,  // measure 3
0000
0000
0000
0000
,  // measure 4
0000
0000
0000
0000
,  // measure 5
0000
0000
0000
0000
,  // measure 6
2000
0000
0000
0000
,  // measure 7
3020
0000
0000
0000
,  // measure 8
0230
0000
0000
0000
,  // measure 9
0302
0000
0000
0000
0000
0000
1003
1000
,  // measure 10
0001
0000
0000
0001
0000
0000
1000
0000
0000
1000
0000
0000
0010
0000
0110
0000
,  // measure 11
1000
0000
0000
1000
0000
0000
0100
0000
0000
0100
0000
0000
0010
0000
0110
0000
,  // measure 12
0001
0000
0000
0001
0000
0000
1000
0000
0000
1000
0000
0000
0010
0000
0000
0000
,  // measure 13
0200
0000
0000
0302
1003
0002
1003
0000
,  // measure 14
0100
0000
0100
0000
0100
0000
1000
1100
,  // measure 15
0010
0000
0010
0000
0010
0000
0001
0101
,  // measure 16
0020
0000
0000
0130
,  // measure 17
0000
0010
0010
0000
0010
0000
1002
0000
,  // measure 18
0103
0100
0100
0100
,  // measure 19
0100
0000
0000
0000
0020
0000
0000
0000
1030
0000
0001
0000
0010
0001
0010
0000
,  // measure 20
0100
0100
0100
2000
,  // measure 21
3001
0000
0100
0010
1000
0000
0001
0000
1000
0000
0001
0000
0010
0100
0010
0000
,  // measure 22
0021
0001
0001
0031
,  // measure 23
2001
0000
0000
0000
3002
0000
0000
0000
0103
0000
0010
0000
1000
0001
1000
0000
,  // measure 24
1200
1000
1300
0002
,  // measure 25
0013
0000
0100
0010
0001
1000
0100
0000
0020
0000
0000
0000
0032
0000
0000
0003
,  // measure 26
0011
0000
0000
0000
,  // measure 27
0000
0000
0000
0000
,  // measure 28
0000
0000
0000
0001
,  // measure 29
0011
0000
0000
1000
0100
0000
1000
0000
0001
0100
0001
0000
1000
0002
0000
0000
,  // measure 30
0103
0000
0000
0010
1000
0000
0001
0000
1000
0100
1000
0000
0001
0020
0000
0000
,  // measure 31
0130
0000
0000
1001
0000
0000
0110
0000
1000
0001
1000
0000
0100
0020
0000
0000
,  // measure 32
0031
0000
0000
1000
0001
0000
0100
0000
0110
0000
0000
0000
1001
0000
0000
0000
,  // measure 33
1010
0000
0000
0001
0100
0000
0010
0000
1000
0001
1000
0000
0100
0020
0000
0000
,  // measure 34
0031
0000
0000
1000
0001
0000
0100
0000
0010
1000
0000
1000
0001
0000
0000
0000
,  // measure 35
0010
0000
0000
1001
0000
0000
0110
0000
1000
0100
1000
0100
0010
0002
0000
0000
,  // measure 36
1003
0000
0010
1000
0001
0100
0010
0000
0200
0000
0000
0000
0310
0000
0000
0000
,  // measure 37
1000
0100
2000
0000
0001
0000
0000
0000
3020
0000
0000
0000
0230
0000
0000
0000
,  // measure 38
0301
0000
0000
0001
0000
0000
0002
0000
1000
0000
0003
0000
0110
0000
0000
0000
,  // measure 39
0001
0100
0002
0000
1000
0000
0000
0000
0013
0100
0010
0100
1000
0000
0000
0000
,  // measure 40
0001
0100
0001
0000
1000
0000
0010
0000
0200
0000
0000
0000
0302
0000
0000
0000
,  // measure 41
0013
0100
0020
0000
0001
0000
0000
0000
0230
0000
0000
0000
2300
0000
0000
0000
,  // measure 42
3010
0000
0000
0010
0000
0000
0020
0000
0100
0000
0030
0000
2002
0000
3003
0000
,  // measure 43
1000
0100
0010
0000
0100
0000
1000
0000
0001
0100
0010
0000
1000
0002
0000
0000
,  // measure 44
0013
0001
1000
0000
0001
0000
1000
0000
0020
0000
0000
0000
0000
0000
0030
0000
,  // measure 45
2000
0100
0001
0010
,  // measure 46
3002
0000
0000
0100
0000
0000
0103
0000
0010
0000
0000
0000
0110
0000
0000
0000
,  // measure 47
2000
0010
0001
3100
,  // measure 48
0010
0000
0000
0100
0000
0000
0010
0000
0001
0010
0001
0000
1000
0100
1000
0000
,  // measure 49
0002
0000
0203
0000
0310
0010
2000
0000
,  // measure 50
3100
0100
0010
0010
0001
1000
0002
0000
,  // measure 51
0103
0010
1000
0100
0010
0001
0002
0000
,  // measure 52
0003
0000
0000
0000
0000
0000
0000
0000
0000
0000
0000
0000
0200
0000
0000
0300
,  // measure 53
0110
0000
0000
0000
,  // measure 54
0000
0000
0000
0000
,  // measure 55
0000
0000
0000
0100
,  // measure 56
0110
0000
0000
0001
1000
0000
0100
0000
1000
0001
0010
0000
0100
0020
0000
0000
,  // measure 57
0031
0000
0000
1000
0001
0000
0100
0000
0010
0100
0001
0000
1000
0002
0000
0000
,  // measure 58
0013
0000
0000
1001
0000
0000
0110
0000
0000
0001
0100
0001
1000
0200
0000
0000
,  // measure 59
0310
0000
0001
0100
0010
1000
0001
0000
0020
0000
0000
0000
0130
0000
0000
0000
,  // measure 60
0110
0000
0000
1000
0001
0000
0100
0000
0001
1000
0010
0000
0100
0002
0000
0000
,  // measure 61
1003
0000
0000
0001
0010
0000
0100
0000
0010
0001
1000
0000
0001
0200
0000
0000
,  // measure 62
0310
0000
0000
1001
0000
0000
0110
0000
0000
1000
0100
1000
0010
0200
0000
0000
,  // measure 63
0301
0000
1000
0100
0010
0001
0100
0000
0020
0000
0000
0000
0230
0000
0000
0300
;

//---------------dance-single - mf32892 + Telperion----------------
#NOTEDATA:;
#CHARTNAME:;
#STEPSTYPE:dance-single;
#DESCRIPTION:mf32892 + Telperion;
#CHARTSTYLE:;
#DIFFICULTY:Challenge;
#METER:14;
#RADARVALUES:0.530135,0.737728,0.290034,0.304908,0.661872,499.000000,460.000000,39.000000,41.000000,0.000000,0.000000,4.000000,0.000000,5.000000,0.530135,0.737728,0.290034,0.304908,0.661872,499.000000,460.000000,39.000000,41.000000,0.000000,0.000000,4.000000,0.000000,5.000000;
#CREDIT:mf32892 + Telperion;
#NOTES:
// measure 0
0000
0000
0000
0000
,  // measure 1
0000
0000
0000
0000
,  // measure 2
0000
0000
0000
0000
,  // measure 3
0000
0000
0000
0000
,  // measure 4
0000
0000
0000
0000
,  // measure 5
0000
0000
0000
0000
,  // measure 6
0002
0000
0000
0000
,  // measure 7
2003
0000
0000
0000
,  // measure 8
3200
0000
0000
0000
,  // measure 9
0320
0000
0000
0000
0000
0000
0031
0001
,  // measure 10
1000
0010
0000
0100
0010
0000
1000
0001
0000
0001
0010
0000
0100
0000
0000
0000
,  // measure 11
0010
0001
0000
1000
0001
0000
0010
0100
0000
0100
1000
0000
0010
0000
0000
0000
,  // measure 12
0100
0001
0000
0100
0010
0000
1000
0001
0000
0001
0020
0000
0000
0000
0130
0000
,  // measure 13
1000
0000
0001
0100
0000
0001
0020
0000
0130
0000
0020
0000
0130
1000
0100
1000
,  // measure 14
0001
0100
0000
0010
0100
0000
0001
1000
0000
1000
0100
0000
0010
0000
0000
0000
,  // measure 15
0100
1000
0000
0001
1000
0000
0100
0010
0000
0010
0001
0000
0100
0000
0000
0000
,  // measure 16
0010
1000
0000
0010
0100
0000
0001
0010
0000
0100
0020
0000
0001
0000
0000
0000
,  // measure 17
0030
0000
0100
1000
0100
0000
0010
0001
1000
0000
0020
0000
0130
0001
1000
0000
,  // measure 18
1001
0001
0001
0001
,  // measure 19
0001
0000
0000
0000
0200
0000
0000
0000
0310
0000
1000
0000
0001
0001
0010
0100
,  // measure 20
1000
1000
1000
0002
,  // measure 21
0103
0000
0010
0100
1000
0100
0010
0000
1000
0000
0001
0000
0010
0100
1000
0000
,  // measure 22
0010
1010
1100
0101
,  // measure 23
0011
0000
0000
0000
0210
0000
0000
0000
1300
0000
0001
0000
0100
0010
1000
0001
,  // measure 24
0010
1100
0011
2100
,  // measure 25
3010
0000
0001
0010
1000
0100
0010
0000
0020
0000
0000
0000
0230
0000
0300
0000
,  // measure 26
1000
0000
0000
0000
,  // measure 27
0000
0000
0000
0000
,  // measure 28
0000
0000
0000
0100
,  // measure 29
1000
0100
0010
0100
0010
0100
1000
0001
0100
0010
1000
0010
0100
0002
0000
0000
,  // measure 30
1003
0000
0100
1000
0001
0010
0100
0000
0010
0000
0000
0000
0002
0000
0000
0000
,  // measure 31
1003
0000
0000
0101
0000
0000
1100
0000
0001
0100
0001
1000
0100
0020
0000
0000
,  // measure 32
0130
0000
1000
0001
0100
0010
1000
0000
0010
0100
0000
0100
0001
0000
0000
0000
,  // measure 33
0001
0100
0010
0100
0010
0100
0001
1000
0100
0010
0001
0010
0100
2000
0000
0000
,  // measure 34
3001
0000
0100
0001
1000
0010
0200
0000
0310
0000
0000
0000
2000
0000
0000
0000
,  // measure 35
3010
0000
0000
1001
0000
0000
0110
0000
1000
0010
0100
0010
1000
0200
0000
0000
,  // measure 36
0310
0000
1000
0010
0001
0100
0010
0000
0200
0000
0000
0000
0310
0000
0000
0000
,  // measure 37
1000
0000
1000
0000
0040
0000
0100
0000
0000
0000
1000
0000
0000
0000
0130
0000
0001
0000
0010
0000
0001
0000
0010
0000
0200
0000
0000
0000
1300
0001
1000
0000
,  // measure 38
0100
0000
0000
1100
0000
0000
0011
0000
1000
0010
0001
0010
0110
0000
0000
0000
,  // measure 39
0001
0000
0001
0000
0400
0000
0010
0000
0000
0000
1000
0000
0000
0000
0310
0000
1000
0000
0100
0000
1000
0000
0100
0000
0010
0000
0001
0100
0001
0000
0000
0000
,  // measure 40
0010
0000
0010
0000
0100
0000
0000
0000
1002
0000
0000
0000
0103
0000
0000
0000
0001
0010
0001
0010
0001
0000
0000
0000
1000
0100
1000
0100
1000
0000
0000
0000
,  // measure 41
0010
0010
0400
1000
0000
0010
0000
0301
1000
0100
0010
0001
1000
0000
0010
0000
,  // measure 42
0100
0000
0000
1010
0000
0000
0101
0000
1000
0100
0001
0100
0110
0000
0001
0000
,  // measure 43
1000
0100
0040
0001
0000
0100
0000
1030
0010
0001
0010
0001
1000
0020
0000
0000
,  // measure 44
0130
0100
0010
0100
0102
0000
0000
0000
2003
0000
0000
0000
0000
0000
3000
0000
,  // measure 45
1001
0000
0000
0000
1100
0000
0000
0000
0001
1000
0100
1000
0010
0200
0000
0000
,  // measure 46
0301
0000
0000
0000
0000
0000
0000
0000
0000
0000
0000
0000
0000
0000
0000
0000
0000
0000
0000
0000
0000
0000
0000
0000
0000
0000
0000
0000
0000
0000
0000
0000
0000
0000
0000
0000
1001
0000
0000
0000
0000
0000
0000
0000
0000
0000
0000
0000
0000
0000
0000
0000
0000
0000
0000
0000
0000
0000
0000
0000
0000
0000
0000
0000
0000
0000
0000
0000
0000
0000
0000
0000
0101
0000
0000
0000
0000
0000
0000
0000
0000
0000
0000
0000
0000
0000
0000
0000
0000
0000
0000
0000
0000
0000
0000
0000
1000
0000
0000
0000
0000
0000
0000
0000
0000
0000
0000
0000
0000
0000
0001
0000
0000
0000
0000
0000
0000
0000
0000
0000
0000
0000
0000
0000
0000
0000
0000
0000
0000
0000
0000
0000
0000
0000
0001
0000
0000
0000
0000
0000
0000
0000
0000
0000
0100
0000
0000
0000
0000
0000
0000
0000
0000
0000
0000
0000
0000
0000
0000
0000
0000
0000
0000
0000
0000
0000
0000
0000
0100
0000
0000
0000
0000
0000
0000
0000
0000
0000
0000
0000
0000
0000
0000
0000
0000
0000
0000
0000
0000
0000
0000
0000
,  // measure 47
1010
0000
0000
0000
0101
0000
0000
0000
1000
0001
0100
0001
0010
0200
0000
0000
,  // measure 48
1300
0000
0000
1001
0000
0000
1100
0000
0001
0100
0020
0000
0001
0000
0130
0000
,  // measure 49
0101
0000
0000
0000
0000
0000
1100
0000
0000
0000
0000
0000
0001
0000
1000
0100
0000
0010
0002
0000
0000
0000
0000
0000
,  // measure 50
1003
0000
0010
0100
0000
0100
0001
0000
0001
0010
0000
0100
1000
0000
1000
0001
0000
0001
2000
0000
0000
0000
0000
0000
,  // measure 51
3010
0000
0100
0001
0000
0001
0010
0000
0100
1000
0000
1000
0001
0000
0000
1100
0000
0000
2002
0000
0000
0000
0000
0000
,  // measure 52
3003
0000
0000
0000
0000
0000
0000
0000
0000
0000
0000
0000
0000
0000
0000
0000
0000
0000
0000
0000
0000
0000
0000
0000
0001
0000
0000
0000
0000
0000
0000
0000
0000
0000
0000
0000
0000
0000
0000
0000
0000
0000
0000
0000
0000
0000
0000
0000
0100
0000
0000
0000
0000
0000
0000
0000
0000
0000
0000
0000
0000
0000
0000
0000
0000
0000
0000
0000
0000
0000
0000
0000
0010
0000
0000
0000
0000
0000
0000
0000
0000
0000
0000
0000
0000
0000
0000
0000
0000
0000
0000
0000
0000
0000
0000
0000
0020
0000
0000
0000
0000
0000
0000
0000
0000
0000
0000
0000
0000
0000
0000
0000
0000
0000
1030
0000
0000
0000
0000
0000
0001
0000
0000
0000
0000
0000
0000
0000
1000
0000
0000
0000
0000
0000
0000
0000
0001
0000
0000
0000
0000
0000
0000
0000
2000
0000
0000
0000
0000
0000
0000
0000
0000
0000
0000
0000
0000
0000
0000
0000
0000
0000
0000
0000
0000
0000
0000
0000
3000
0000
0000
0000
0000
0000
0000
0000
0000
0000
0000
0000
0000
0000
0000
0000
0000
0000
0000
0000
0000
0000
0000
0000
,  // measure 53
1000
0000
0000
0000
,  // measure 54
0000
0000
0000
0000
,  // measure 55
0000
0000
0000
0000
,  // measure 56
1000
0001
0100
0010
1000
0010
0100
1000
0100
0001
1000
0001
0010
0200
0000
0000
,  // measure 57
1300
0000
0010
0100
0001
1000
0100
0000
0010
0100
1000
0000
0001
0100
0000
0000
,  // measure 58
0110
0000
0000
1001
0000
0000
0110
0000
1000
0001
0010
0100
1000
0020
0000
0000
,  // measure 59
0130
0000
1000
0100
0001
0010
0100
0000
0200
0000
0301
0100
1000
0010
0100
0000
,  // measure 60
0001
1000
0100
0010
0001
0010
0100
0001
0100
1000
0001
1000
0010
0200
0000
0000
,  // measure 61
0301
0000
0010
0100
1000
0001
0100
0000
0010
0100
0001
0000
1000
0100
0000
0000
,  // measure 62
0011
0000
0000
1100
0000
0000
1001
0000
1000
0100
0010
0100
1000
0020
0000
0000
,  // measure 63
0130
0000
1000
0100
0001
0010
0100
0000
0200
0000
0000
0000
0320
0000
0000
0000
,  // measure 64
0030
0000
0000
0000
;

//---------------dance-single - Telperion----------------
#NOTEDATA:;
#CHARTNAME:;
#STEPSTYPE:dance-single;
#DESCRIPTION:Telperion;
#CHARTSTYLE:;
#DIFFICULTY:Medium;
#METER:9;
#RADARVALUES:0.296408,0.402980,0.037184,0.193356,0.171046,279.000000,274.000000,5.000000,26.000000,0.000000,0.000000,0.000000,0.000000,5.000000,0.296408,0.402980,0.037184,0.193356,0.171046,279.000000,274.000000,5.000000,26.000000,0.000000,0.000000,0.000000,0.000000,5.000000;
#CREDIT:;
#NOTES:
// measure 0
0000
0000
0000
0000
,  // measure 1
0000
0000
0000
0000
,  // measure 2
0000
0000
0000
0000
,  // measure 3
0000
0000
0000
0000
,  // measure 4
0000
0000
0000
0000
,  // measure 5
0000
0000
0000
0000
,  // measure 6
0002
0000
0000
0000
,  // measure 7
0203
0000
0000
0000
,  // measure 8
0320
0000
0000
0000
,  // measure 9
2030
0000
0000
3000
,  // measure 10
0001
0000
0000
1000
0000
0000
0100
0000
0000
1000
0000
0000
0010
0000
0000
0000
,  // measure 11
0100
0000
0000
0001
0000
0000
0010
0000
0000
0001
0000
0000
1000
0000
0000
0000
,  // measure 12
0010
0000
0000
0100
0000
0000
0010
0000
0000
1000
0000
0000
0001
0000
0000
0000
,  // measure 13
0010
0000
0100
0000
0000
0100
0000
0000
0100
0000
0000
0000
0020
0000
0000
0000
,  // measure 14
0031
0000
1000
0000
0010
0000
0100
0010
,  // measure 15
1000
0000
0001
0000
0010
0000
0100
1000
,  // measure 16
0020
0000
0000
0130
,  // measure 17
0000
1000
1000
0000
0200
0000
0310
0000
,  // measure 18
0001
0001
0001
0001
,  // measure 19
0001
0000
0200
0000
0310
0000
1000
0100
,  // measure 20
0010
0010
0010
0200
,  // measure 21
1300
0000
0001
0010
0001
0000
0100
0010
,  // measure 22
1000
1000
1000
1000
,  // measure 23
1000
0000
0200
0000
0310
0000
0001
1000
,  // measure 24
0010
0010
0010
0200
,  // measure 25
0301
0000
0000
1001
,  // measure 26
1000
0000
0000
0000
,  // measure 27
0000
0000
0000
0000
,  // measure 28
0000
0000
0000
1001
,  // measure 29
1000
0000
0000
1000
0100
0000
0010
0000
0000
0010
0001
0000
1000
0000
0000
0000
,  // measure 30
0010
0000
0000
0010
0100
0000
0001
0000
0000
0001
1000
0000
0100
0000
0000
0000
,  // measure 31
0010
0000
0000
0010
0000
0000
0010
0000
0000
0010
0001
0000
1000
0000
0000
0000
,  // measure 32
0010
1000
0100
0100
0010
0000
0010
0000
,  // measure 33
0001
0000
0000
0001
0100
0000
0010
0000
0000
0010
1000
0000
0001
0000
0000
0000
,  // measure 34
0010
0000
0000
0010
0100
0000
1000
0000
0000
1000
0001
0000
0100
0000
0000
0000
,  // measure 35
0010
0000
0000
0010
0000
0000
0010
0000
1000
0000
0001
0000
1000
0000
0001
0000
,  // measure 36
0000
0001
0010
0100
2000
0000
3000
0000
,  // measure 37
0001
0100
0002
0000
0000
0000
0000
0000
1003
0000
0001
0100
0001
0000
0000
0000
,  // measure 38
0010
0000
0000
0100
0000
0000
0010
0000
1001
0000
0000
0000
0110
0000
0000
0000
,  // measure 39
0001
0100
0002
0000
0000
0000
0000
0000
1003
0000
0001
0100
0000
0100
0010
0000
,  // measure 40
1000
0010
1000
0000
0001
0000
0000
0000
0020
0000
0030
0000
0002
0000
0003
0000
,  // measure 41
1000
0100
2000
0000
0000
0000
0000
0000
3001
0000
1000
0100
1000
0000
0000
0000
,  // measure 42
0010
0000
0000
0100
0000
0000
0010
0000
1001
0000
0000
0000
0110
0000
0000
0000
,  // measure 43
1000
0100
2000
0000
0000
0000
0000
0000
3001
0000
1000
0000
0100
0000
0010
0000
,  // measure 44
0001
1000
0001
1000
0001
0000
0000
0000
0200
0000
0000
0000
0000
0000
0000
0000
,  // measure 45
0310
0000
0010
0000
1000
0001
0010
0000
,  // measure 46
0100
0000
0000
0100
0000
0000
0100
0000
1000
0000
0000
0000
0001
0000
0100
0000
,  // measure 47
0010
0000
0010
0000
1000
0001
0010
0000
,  // measure 48
0100
0000
0000
0100
0000
0000
0100
0000
2000
0000
3000
0000
0002
0000
0003
0000
,  // measure 49
0100
0010
1000
0100
0001
0010
2000
0000
,  // measure 50
3100
0000
0000
0100
0000
0000
0100
0000
0010
0000
0001
0000
0020
0000
0000
0000
,  // measure 51
0130
0010
0001
0100
1000
0010
0002
0000
,  // measure 52
0003
0100
0010
1000
2000
0000
3001
0000
,  // measure 53
1000
0000
0000
0000
,  // measure 54
0000
0000
0000
0000
,  // measure 55
0000
0000
0000
0001
,  // measure 56
1000
0000
0000
1000
0010
0000
0100
0000
0000
0100
0001
0000
1000
0000
0000
0000
,  // measure 57
0100
0000
0000
0100
0010
0000
0001
0000
0000
0001
1000
0000
0010
0000
0000
0000
,  // measure 58
0100
0000
0000
0100
0000
0000
0100
0000
0000
0100
0001
0000
1000
0000
0000
0000
,  // measure 59
0100
1000
0100
0010
0001
0100
0010
1000
,  // measure 60
0001
0000
0000
0001
0010
0000
0100
0000
0000
0100
1000
0000
0001
0000
0000
0000
,  // measure 61
0100
0000
0000
0100
0010
0000
1000
0000
0000
1000
0001
0000
0010
0000
0000
0000
,  // measure 62
0100
0000
0000
0100
0000
0000
0100
0000
0000
0000
0010
0000
0000
0010
0000
0000
,  // measure 63
0010
0100
1000
0001
0200
0000
0300
0000
;

//---------------dance-single - mf32892----------------
#NOTEDATA:;
#CHARTNAME:;
#STEPSTYPE:dance-single;
#DESCRIPTION:mf32892;
#CHARTSTYLE:;
#DIFFICULTY:Beginner;
#METER:3;
#RADARVALUES:0.149798,0.188894,0.000000,0.126425,0.000000,141.000000,141.000000,0.000000,17.000000,0.000000,0.000000,0.000000,0.000000,12.000000,0.149798,0.188894,0.000000,0.126425,0.000000,141.000000,141.000000,0.000000,17.000000,0.000000,0.000000,0.000000,0.000000,12.000000;
#CREDIT:mf32892;
#NOTES:
// measure 0
0000
0000
0000
0000
,  // measure 1
0000
0000
0000
0000
,  // measure 2
0000
0000
0000
0000
,  // measure 3
0000
0000
0000
0000
,  // measure 4
0000
0000
0000
0000
,  // measure 5
0000
0000
0000
0000
,  // measure 6
0002
0000
0003
0000
,  // measure 7
2000
0000
3000
0000
,  // measure 8
0020
0000
0030
0000
,  // measure 9
0200
0000
0300
0000
,  // measure 10
0001
1000
0001
0000
,  // measure 11
1000
0100
0010
0000
,  // measure 12
0001
1000
0001
0000
,  // measure 13
2000
0000
3000
0000
,  // measure 14
0010
0010
0010
0000
,  // measure 15
0100
0100
0100
0000
,  // measure 16
0001
0000
0000
1000
,  // measure 17
0000
0010
0010
0000
,  // measure 18
1000
1000
1000
1000
,  // measure 19
1000
0001
1000
0000
,  // measure 20
0001
0001
0001
1000
,  // measure 21
0001
0000
0000
0000
,  // measure 22
0100
0100
0100
0100
,  // measure 23
0100
0020
0130
0000
,  // measure 24
0010
0010
0010
0200
,  // measure 25
0310
0000
0000
0000
,  // measure 26
1000
0010
1000
0000
,  // measure 27
0001
0100
0001
0000
,  // measure 28
0000
0000
0000
0000
,  // measure 29
1000
0010
1000
0000
,  // measure 30
0001
0100
0001
0000
,  // measure 31
0010
0000
0010
0100
,  // measure 32
1000
0001
1000
0000
,  // measure 33
0001
0100
0001
0000
,  // measure 34
1000
0100
1000
0000
,  // measure 35
0010
0000
0010
0100
,  // measure 36
0010
0000
0100
0010
,  // measure 37
2000
3000
0002
0003
,  // measure 38
0010
0010
0001
1000
,  // measure 39
0002
0003
0200
0300
,  // measure 40
0010
0010
2000
3000
,  // measure 41
0001
1000
0002
0003
,  // measure 42
0001
0001
1000
1000
,  // measure 43
0200
0300
0020
0030
,  // measure 44
0001
1000
0020
0030
,  // measure 45
0100
0100
0100
0000
,  // measure 46
0010
0010
0010
0000
,  // measure 47
1000
1000
1000
0000
,  // measure 48
0001
0001
0001
0000
,  // measure 49
0010
0100
0010
0000
,  // measure 50
0100
1000
0100
0000
,  // measure 51
1000
0001
1000
0000
,  // measure 52
0002
0000
0000
0003
,  // measure 53
0001
0100
0001
0000
,  // measure 54
1000
0100
1000
0000
,  // measure 55
0000
0000
0000
0000
,  // measure 56
0001
0100
0001
0000
,  // measure 57
1000
0100
1000
0000
,  // measure 58
0010
0000
0010
0010
,  // measure 59
0100
0001
1000
0000
,  // measure 60
0001
1000
0100
0000
,  // measure 61
0100
0100
0100
0000
,  // measure 62
0010
0000
0010
0010
,  // measure 63
0001
1000
0001
0000
;

//---------------dance-single - Telperion----------------
#NOTEDATA:;
#CHARTNAME:;
#STEPSTYPE:dance-single;
#DESCRIPTION:Telperion;
#CHARTSTYLE:;
#DIFFICULTY:Easy;
#METER:6;
#RADARVALUES:0.212479,0.284456,0.000000,0.148735,0.026029,200.000000,200.000000,0.000000,20.000000,0.000000,0.000000,0.000000,0.000000,2.000000,0.212479,0.284456,0.000000,0.148735,0.026029,200.000000,200.000000,0.000000,20.000000,0.000000,0.000000,0.000000,0.000000,2.000000;
#CREDIT:;
#NOTES:
// measure 0
0000
0000
0000
0000
,  // measure 1
0000
0000
0000
0000
,  // measure 2
0000
0000
0000
0000
,  // measure 3
0000
0000
0000
0000
,  // measure 4
0000
0000
0000
0000
,  // measure 5
0000
0000
0000
0000
,  // measure 6
2000
0000
0000
0000
,  // measure 7
3020
0000
0000
0000
,  // measure 8
0230
0000
0000
0000
,  // measure 9
0302
0000
0000
0003
,  // measure 10
1000
0000
0000
1000
0000
0000
1000
0000
,  // measure 11
0001
0000
0000
0001
0000
0000
0001
0000
,  // measure 12
0100
0000
0000
0100
0000
0000
0100
0000
,  // measure 13
0010
0000
0100
0010
,  // measure 14
1000
0100
0001
0000
,  // measure 15
1000
0010
0001
0000
,  // measure 16
2000
0000
0000
3000
,  // measure 17
0000
0010
0010
0000
0100
0000
0001
0000
,  // measure 18
1000
1000
1000
1000
,  // measure 19
1000
0200
0310
0000
,  // measure 20
1000
1000
1000
0200
,  // measure 21
0310
0000
0000
0000
0000
0010
0100
1000
,  // measure 22
0001
0001
0001
0001
,  // measure 23
0001
0200
0310
0000
,  // measure 24
0001
0001
0001
0200
,  // measure 25
0310
0000
0000
0000
,  // measure 26
0010
0000
0000
0000
,  // measure 27
0000
0000
0000
0000
,  // measure 28
0000
0000
0000
0000
,  // measure 29
0010
0000
0100
0010
0001
1000
0010
0000
,  // measure 30
0100
0000
0001
0100
0001
0000
1000
0000
,  // measure 31
0010
0000
0000
0010
0000
0000
0010
0000
0000
0000
0000
0000
0100
0000
0000
0000
,  // measure 32
0001
0000
1000
0100
1000
0000
1000
0000
,  // measure 33
0100
0000
0010
0100
1000
0001
0100
0000
,  // measure 34
0010
0000
1000
0010
1000
0000
0001
0000
,  // measure 35
0100
0000
0000
0100
0000
0000
0100
0000
0000
0000
0000
0000
0010
0000
0000
0000
,  // measure 36
1000
0000
0001
0010
0001
0000
0000
0000
,  // measure 37
1000
2000
0000
0000
3001
0000
1000
0000
,  // measure 38
0010
0000
0000
0010
0000
0000
0010
0000
0100
0000
0000
0000
0100
0000
0000
0000
,  // measure 39
0001
0002
0000
0000
1003
0000
0001
0000
,  // measure 40
0010
0010
0100
0000
0020
0030
0200
0300
,  // measure 41
1000
2000
0000
0000
3001
0000
1000
0000
,  // measure 42
0010
0000
0000
0010
0000
0000
0010
0000
0100
0000
0000
0000
0100
0000
0000
0000
,  // measure 43
0001
0002
0000
0000
1003
0000
0001
0000
,  // measure 44
0010
0010
0100
0000
0020
0000
0000
0000
,  // measure 45
0031
0001
0100
1000
,  // measure 46
0010
0000
0010
0000
1000
0000
0100
0001
,  // measure 47
1000
1000
0100
0001
,  // measure 48
0010
0000
0000
0010
0000
0000
0010
0000
0200
0000
0300
0000
0020
0000
0030
0000
,  // measure 49
0001
0000
0100
0000
1000
0010
0001
0000
,  // measure 50
1000
0000
0100
0000
0001
0010
1000
0000
,  // measure 51
0001
0000
0100
0000
0010
1000
2000
0000
,  // measure 52
3000
0000
0000
0000
,  // measure 53
0010
0000
0000
0000
,  // measure 54
0000
0000
0000
0000
,  // measure 55
0000
0000
0000
0000
,  // measure 56
0010
0000
0100
0010
1000
0001
0010
0000
,  // measure 57
0100
0000
1000
0100
1000
0000
0001
0000
,  // measure 58
0010
0000
0000
0010
0000
0000
0010
0000
0000
0000
0000
0000
0100
0000
0000
0000
,  // measure 59
1000
0000
0001
0100
0001
0000
0001
0000
,  // measure 60
0100
0000
0010
0100
0001
1000
0100
0000
,  // measure 61
0010
0000
0001
0010
0001
0000
1000
0000
,  // measure 62
0100
0000
0000
0100
0000
0000
0100
0000
0000
0000
0000
0000
0010
0000
0000
0000
,  // measure 63
0001
0000
1000
0010
0200
0000
0300
0000
;
