#TITLE:Lucky Strike;
#SUBTITLE:(Dreamcatcher Cover);
#ARTIST:Maroon 5;
#TITLETRANSLIT:;
#SUBTITLETRANSLIT:;
#ARTISTTRANSLIT:;
#GENRE:;
#CREDIT:;
#BANNER:Lucky Strike (Dreamcatcher Cover).png;
#BACKGROUND:Lucky Strike (Dreamcatcher Cover)-bg.png;
#LYRICSPATH:;
#CDTITLE:cdtitle.png;
#MUSIC:Lucky Strike (Dreamcatcher Cover).ogg;
#OFFSET:0.939000;
#SAMPLESTART:34.049000;
#SAMPLELENGTH:15.000000;
#SELECTABLE:YES;
#DISPLAYBPM:72.000000:144.000000;
#BPMS:0.000000=144.000000
,140.000000=72.000000
,156.000000=144.000000
,186.000000=72.000000
,186.250000=144.000000
,186.500000=288.000000
,187.000000=144.000000
;
#STOPS:80.000000=1.250000,
109.000000=1.250000,
139.000000=0.833000,
184.000000=0.833000,
214.000000=1.250000,
244.000000=0.625000
;
#BGCHANGES:2.375=Lucky Strike (Dreamcatcher Cover).avi=1.000=0=0=0=StretchNoLoop====,
99999=-nosongbg-=1.000=0=0=0 // don't automatically add -songbackground-
;
#KEYSOUNDS:;
#ATTACKS:;

//---------------dance-single - ----------------
#NOTES:
     dance-single:
     9646_CSP:
     Challenge:
     11:
     0.474774,0.519549,0.348491,0.390990,0.021249,391.000000,350.000000,41.000000,46.000000,40.000000,0.000000,0.474774,0.519549,0.348491,0.390990,0.021249,391.000000,350.000000,41.000000,46.000000,40.000000,0.000000:
0000
0000
0000
0000
,
0000
0000
0000
0000
,
0000
0000
0000
0000
,
0000
0000
0000
0000
,
0000
0000
0000
0000
,
1000
0100
1000
0100
1000
0010
1000
0010
,
0100
0001
0100
0001
0010
0100
2000
3000
,
0001
0010
0001
0010
0001
0100
0010
0000
,
1200
0310
1200
0301
,
0100
0010
0100
0010
0100
0001
0100
0001
,
0010
0100
0010
0100
1000
0100
0020
0030
,
0001
0100
0001
0100
0010
1000
0001
0000
,
1200
0310
2100
3001
,
0120
0130
0021
0031
,
1020
0000
1030
0001
0100
0010
1000
0100
,
0210
0310
0201
0301
,
1200
0000
1300
0001
0010
0100
1000
0010
,
0100
0010
0100
0010
0100
0001
0100
0001
,
0010
0100
0010
0100
1000
0100
0020
0030
,
0001
0100
0001
0100
0010
1000
0001
0010
,
0110
0000
1100
0000
0011
0000
1000
0010
,
0100
0020
1000
1030
0100
0010
0001
0000
,
1100
0000
MMMM
0001
0010
0001
MMMM
0001
,
0010
0001
MMMM
0001
0010
0001
MMMM
0001
,
0200
0300
1010
0000
0101
0000
1000
0100
,
0010
0200
1000
1300
0001
0100
0010
0000
,
1001
0000
0001
0010
0100
0010
0001
0001
,
1000
0000
0110
0000
1000
0100
0001
0100
,
2000
0000
3001
0010
2000
0000
3001
0100
,
1000
1000
0010
0000
1000
0010
0001
0010
,
2000
0000
3001
0100
2000
0000
3001
0010
,
1000
1000
0100
0000
0010
0001
1000
0001
,
0010
0010
0100
1000
0010
0010
0001
0010
,
1000
0001
0020
0030
0100
1000
0001
1000
,
0010
0010
0100
0010
1001
1001
1001
0000
,
0220
0000
0000
0000
0330
0000
0000
0000
1000
0100
1000
0100
0010
0000
0001
0000
,
2002
0000
0000
0000
3003
0000
0000
0000
0010
0100
0010
0100
0001
0000
1000
0000
,
2200
3000
0020
0030
0002
0003
2000
3300
,
0022
0003
2000
3000
0200
0300
0032
0103
,
2010
0100
0100
0100
,
3001
0100
1000
0100
0001
0000
0010
0000
,
0021
1000
1000
1000
,
0130
1000
0001
0100
0010
0000
1000
0000
,
1100
0010
0101
0010
,
1010
0100
0011
0100
,
1000
0010
1000
0010
0100
0001
0010
0100
,
0110
0000
0000
0100
0010
0000
0100
0000
MMMM
0000
0000
0000
0012
0000
0000
0000
,
1003
0010
0100
0020
1000
1030
0100
0010
,
0001
0000
1100
0000
MMMM
0001
0010
0001
,
MMMM
0001
0010
0001
MMMM
0001
0010
0001
,
MMMM
0001
0200
0300
1010
0000
0101
0000
,
1000
0100
0010
0200
1000
1300
0001
0100
,
0010
0000
1001
0000
0001
0010
0100
0010
,
0001
0001
1000
0000
0110
0000
1000
0100
,
0001
0100
2000
0000
3001
0010
2000
0000
,
3001
0100
1000
1000
0010
0000
1000
0010
,
0001
0010
2000
0000
3001
0100
2000
0000
,
3001
0010
1000
1000
0100
0000
0010
0001
,
1000
0001
0010
0010
0100
1000
0010
0010
,
0001
0010
1000
0001
0020
0030
0100
1000
,
0001
1000
0010
0010
0100
0010
1001
1001
,
1001
MMMM
0000
0000
0000
0000
0000
0000
;

//---------------dance-single - ----------------
#NOTES:
     dance-single:
     9646_ESP:
     Hard:
     11:
     0.485702,0.467595,0.280493,0.356991,0.017000,400.000000,367.000000,33.000000,42.000000,0.000000,0.000000,0.485702,0.467595,0.280493,0.356991,0.017000,400.000000,367.000000,33.000000,42.000000,0.000000,0.000000:
0000
0000
0000
0000
,
0000
0000
0000
0000
,
0000
0000
0000
0000
,
0000
0000
0000
0000
,
0000
0000
0000
0000
,
1000
0010
1000
0010
0100
0010
0100
0010
,
1000
0100
1000
0001
0100
0010
2000
3000
,
0001
1000
0010
0100
0001
0010
0100
0000
,
0012
0103
2010
3100
,
0010
0001
0010
0001
0100
0010
0100
0010
,
1000
0001
0010
0100
1000
0001
0020
0030
,
0100
0001
0100
1000
0001
0100
0010
0000
,
0102
0013
2100
3010
,
0100
1000
0100
1000
0100
0001
0100
0001
,
0010
1000
0010
1000
0010
0001
0100
0010
,
1000
0001
1000
0001
0010
0100
0010
0100
,
1000
0001
1000
0001
0100
0010
1000
0001
,
1000
0100
1000
0100
0010
0100
0010
0100
,
1000
0010
1000
0001
0010
0100
2000
3000
,
0001
1000
0100
0010
0001
0100
0010
1000
,
1001
0000
0110
0000
1001
0000
0001
0010
,
0100
2000
0010
3010
0001
0010
1000
0000
,
0012
0000
1003
0001
0100
0100
1000
0001
,
0010
0010
1000
0001
0100
0100
1000
0001
,
0010
0000
1010
0000
0011
0000
1000
0100
,
0001
0200
0010
0310
0001
1000
0001
0000
,
0110
0000
1000
0001
0010
0001
0100
0010
,
1000
0000
1001
0000
1000
0100
0010
0001
,
0200
0000
0310
1000
0200
0000
0301
0100
,
1000
0001
1001
0000
0001
0010
0100
1000
,
0020
0000
0130
0001
0020
0000
1030
0010
,
0001
1000
1001
0000
1000
0010
0100
0010
,
1000
0100
1000
0001
0010
0100
0010
0001
,
0100
0010
2000
3000
0001
0010
0100
1000
,
0010
0100
0010
1000
0100
0100
0110
0000
,
2002
0000
0000
0000
3003
0000
0000
0000
0001
0100
0010
1000
0001
0000
0010
0000
,
0220
0000
0000
0000
0330
0000
0000
0000
1000
0100
0010
0001
1000
0000
0010
0000
,
0220
0330
0020
0030
2000
3000
0002
0003
,
0020
0030
2000
3000
0200
0300
0002
1003
,
1200
0010
0310
0010
,
0100
1000
0001
1000
0010
0000
0001
0000
,
1020
0100
0130
0100
,
0010
1000
0001
1000
0100
0000
0001
0000
,
0110
0001
0110
1000
,
1001
0010
1001
0100
,
0001
0010
0001
0010
1000
0010
0001
0100
,
0010
2000
3100
0120
,
0031
0010
0100
2000
0010
3010
0001
0010
,
1000
0000
0012
0000
1003
0001
0100
0100
,
1000
0001
0010
0010
1000
0001
0100
0100
,
1000
0001
0010
0000
1010
0000
0011
0000
,
1000
0100
0001
0200
0010
0310
0001
1000
,
0001
0000
0110
0000
1000
0001
0010
0001
,
0100
0010
1000
0000
1001
0000
1000
0100
,
0010
0001
0200
0000
0310
1000
0200
0000
,
0301
0100
1000
0001
1001
0000
0001
0010
,
0100
1000
0020
0000
0130
0001
0020
0000
,
1030
0010
0001
1000
1001
0000
1000
0010
,
0100
0010
1000
0100
1000
0001
0010
0100
,
0010
0001
0100
0010
2000
3000
0001
0010
,
0100
1000
0010
0100
0010
1000
0100
0100
,
0220
0330
0000
0000
0000
0000
0000
0000
;

//---------------dance-single - ----------------
#NOTES:
     dance-single:
     9646_DSP:
     Medium:
     8:
     0.356991,0.389662,0.186995,0.339992,0.000000,294.000000,272.000000,22.000000,40.000000,0.000000,0.000000,0.356991,0.389662,0.186995,0.339992,0.000000,294.000000,272.000000,22.000000,40.000000,0.000000,0.000000:
0000
0000
0000
0000
,
0000
0000
0000
0000
,
0000
0000
0000
0000
,
0000
0000
0000
0000
,
0000
0000
0000
0000
,
0001
0010
0001
0000
0100
0000
0100
0000
,
0010
0000
0010
0000
1000
0001
0020
0030
,
0010
0100
1000
0000
0010
0000
0010
0000
,
0200
1300
0200
0301
,
1000
0010
1000
0000
0100
0010
0100
0000
,
0010
0000
0010
0000
0001
1000
0020
0030
,
0010
0100
0001
0000
0010
0000
0010
0000
,
0200
0301
0200
1300
,
0002
0013
0020
1030
,
2000
3100
0100
0001
,
2000
3100
0200
0301
,
0002
0013
0010
1000
,
0001
0010
0001
0000
0100
0000
0100
0000
,
0010
0000
0010
0000
1000
0001
0020
0030
,
0010
0100
1000
0000
0010
0000
0100
0000
,
1001
0000
0010
0000
0110
0000
1000
0100
,
0001
2000
3020
0031
,
1001
0000
0010
0000
0001
0010
1000
0000
,
1000
0100
0001
0000
0001
0100
1000
0000
,
0001
0000
0100
0000
0110
0000
0001
0010
,
1000
0002
0203
1300
,
1001
0000
0010
0100
0010
0000
0100
0000
,
0010
0000
1001
0000
0001
0010
0001
0000
,
0020
1030
2000
3001
,
0001
0100
1000
0000
1000
0010
1000
0000
,
0020
0031
0002
1003
,
1000
0100
0001
0000
0100
0001
0010
0000
,
1000
0011
0001
1010
,
1000
0100
0010
0000
0100
0010
0001
0000
,
0100
0000
1001
0000
0100
0100
0100
0000
,
0020
0000
0030
0000
0001
0100
0020
1030
,
0002
0000
0003
0000
1000
0100
0020
0031
,
0001
0100
1000
0001
,
0010
0000
1000
0000
0001
0000
0020
0130
,
2000
0001
3001
0001
,
0100
0010
1000
0000
0002
0000
0013
0000
,
0002
1000
1003
1000
,
0010
0100
0001
0000
2000
0000
3100
0000
,
0010
1100
0001
0110
,
1000
0101
0010
1001
,
0010
0100
0010
0100
0010
0100
0010
0000
,
1001
0200
0310
0110
,
1000
0100
0001
0000
2000
0000
3020
0000
,
0031
0000
1001
0000
0010
0000
0001
0010
,
1000
0000
1000
0100
0001
0000
0001
0100
,
1000
0001
0100
0110
,
0001
0010
1000
0000
0002
0000
0203
0000
,
1300
0000
1001
0000
0010
0100
0010
0000
,
0100
0000
0010
0000
1001
0000
0001
0001
,
0010
0020
1030
2000
,
3001
0000
0001
0100
1000
0000
1000
1000
,
0010
0020
0031
0002
,
1003
0000
1000
0100
0001
0000
0100
0001
,
0010
1000
0011
0001
,
1010
0000
1000
0100
0010
0000
0100
0010
,
0001
0000
0100
0000
1001
0000
0100
0100
,
0200
0310
0000
0000
0000
0000
0000
0000
;

//---------------dance-single - ----------------
#NOTES:
     dance-single:
     9646_BSP:
     Easy:
     6:
     0.291421,0.337017,0.297493,0.195495,0.000000,240.000000,205.000000,35.000000,23.000000,0.000000,0.000000,0.291421,0.337017,0.297493,0.195495,0.000000,240.000000,205.000000,35.000000,23.000000,0.000000,0.000000:
// measure 0
0000
0000
0000
0000
,  // measure 1
0000
0000
0000
0000
,  // measure 2
0000
0000
0000
0000
,  // measure 3
0000
0000
0000
0000
,  // measure 4
0000
0000
0000
0000
,  // measure 5
1000
1000
0001
0001
,  // measure 6
0100
0010
1000
1001
,  // measure 7
0001
0001
0010
1000
,  // measure 8
0002
0103
2000
3100
,  // measure 9
1000
1000
0001
0001
,  // measure 10
0010
0100
1000
1001
,  // measure 11
0001
0001
0100
1000
,  // measure 12
0002
0013
2000
3010
,  // measure 13
2000
3000
0200
0300
,  // measure 14
0020
0030
0001
0100
,  // measure 15
0002
0003
0020
0030
,  // measure 16
0200
0300
1000
0010
,  // measure 17
1000
1000
0001
0001
,  // measure 18
0100
0010
1000
1001
,  // measure 19
0001
0001
0010
1000
,  // measure 20
0110
0100
1001
1000
,  // measure 21
0010
0002
0013
0010
,  // measure 22
0110
0000
0101
0000
,  // measure 23
1010
0000
0011
0000
,  // measure 24
1100
0010
1001
0001
,  // measure 25
0100
2000
3100
0100
,  // measure 26
0110
0000
1000
0001
,  // measure 27
0010
0110
1000
0100
,  // measure 28
1000
1000
0010
0010
,  // measure 29
0100
1010
0001
0010
,  // measure 30
0001
0001
0100
0100
,  // measure 31
0010
0101
1000
0001
,  // measure 32
0010
0010
0100
0100
,  // measure 33
1000
1001
0001
0100
,  // measure 34
0010
0010
1000
1001
,  // measure 35
0020
0000
0030
0000
0100
0010
0100
0000
,  // measure 36
2000
0000
3000
0000
0001
1000
0001
0000
,  // measure 37
1000
0010
0100
0001
,  // measure 38
0001
0010
0100
1000
,  // measure 39
0002
0010
0010
0010
,  // measure 40
0013
0100
1000
0110
,  // measure 41
2000
0010
0010
0010
,  // measure 42
3010
0100
0001
0010
,  // measure 43
0100
0110
0001
1001
,  // measure 44
0010
0110
1000
1001
,  // measure 45
0001
0010
1000
0100
,  // measure 46
0001
0020
0130
1001
,  // measure 47
1000
0010
0002
0013
,  // measure 48
0010
0110
0000
0101
,  // measure 49
0000
1010
0000
0011
,  // measure 50
0000
1100
0010
1001
,  // measure 51
0001
0100
2000
3100
,  // measure 52
0100
0110
0000
1000
,  // measure 53
0001
0010
0110
1000
,  // measure 54
0100
2000
3000
0020
,  // measure 55
0030
0100
1010
0001
,  // measure 56
0010
0002
0003
0200
,  // measure 57
0300
0010
0101
1000
,  // measure 58
0001
0010
0010
0100
,  // measure 59
0100
1000
1001
0001
,  // measure 60
0100
0010
0010
1000
,  // measure 61
1001
0000
0000
0000
;

//---------------dance-single - ----------------
#NOTES:
     dance-single:
     9646_BEG:
     Beginner:
     3:
     0.131140,0.181470,0.025499,0.093498,0.000000,108.000000,105.000000,3.000000,11.000000,0.000000,0.000000,0.131140,0.181470,0.025499,0.093498,0.000000,108.000000,105.000000,3.000000,11.000000,0.000000,0.000000:
0000
0000
0000
0000
,
0000
0000
0000
0000
,
0000
0000
0000
0000
,
0000
0000
0000
0000
,
0000
0000
0000
0000
,
1000
0000
0000
0000
,
1000
0000
0000
0000
,
0001
0000
0000
0000
,
0001
0000
1000
0000
,
0001
0000
0000
0000
,
0001
0000
0000
0000
,
1000
0000
0000
0000
,
1000
0000
0001
0000
,
0010
0000
0000
0000
,
0010
0000
0000
0000
,
0100
0000
0000
0000
,
0100
0000
0000
0000
,
1000
0000
0000
0000
,
1000
0000
0000
0000
,
0001
0000
1000
0000
,
0001
1001
0000
0100
,
0000
0010
0000
0100
,
0100
0000
1000
0000
,
0001
0000
1000
0000
,
0001
0000
0000
1000
,
0000
0100
0000
0010
,
0010
0000
0100
0100
,
0000
1001
0001
0000
,
0100
0000
0010
0000
,
1000
1000
1000
0000
,
0100
0000
0010
0000
,
0001
0001
0001
0000
,
1000
0000
0001
0000
,
0001
0000
0100
0000
,
0010
0000
0100
0100
,
0020
0030
1000
0001
,
2000
3000
0100
0010
,
0200
0300
2000
3000
,
0020
0030
0002
0003
,
2000
0000
3000
0000
,
0100
0000
0100
0000
,
0200
0000
0300
0000
,
0001
0000
0001
0000
,
0002
0000
0003
0000
,
0020
0000
0030
0000
,
2000
0000
0000
0000
,
3000
0000
0000
0010
,
0010
0000
0100
0000
,
0010
0010
0000
0001
,
0000
1000
0000
0001
,
0000
1000
0000
0000
,
0001
0000
0010
0000
,
0100
0100
0000
0010
,
0010
0000
1001
1000
,
0000
0010
0000
0100
,
0000
0001
0000
0001
,
0000
0010
0000
0100
,
0000
1000
0000
1000
,
0000
0001
0000
1000
,
1000
1000
0000
0010
,
0000
0100
0000
0010
,
0010
0000
0000
0000
;
