#TITLE:Lovesick;
#SUBTITLE:(w/ maisou);
#ARTIST:Moe Shop;
#TITLETRANSLIT:;
#SUBTITLETRANSLIT:;
#ARTISTTRANSLIT:;
#GENRE:;
#CREDIT:;
#BANNER:Lovesick (with maisou).png;
#BACKGROUND:Lovesick (with maisou)-bg.png;
#LYRICSPATH:;
#CDTITLE:cdtitle.png;
#MUSIC:Lovesick (with maisou).ogg;
#OFFSET:1.467000;
#SAMPLESTART:8.528000;
#SAMPLELENGTH:15.000000;
#LASTBEATHINT:0.934000;
#SELECTABLE:YES;
#BPMS:0.000000=120.000000
;
#STOPS:
;
#BGCHANGES:;
#KEYSOUNDS:;
#ATTACKS:;

//---------------dance-single - ----------------
#NOTES:
     dance-single:
     9646_ESP:
     Hard:
     10:
     0.394778,0.390567,0.138172,0.082903,0.023029,300.000000,285.000000,15.000000,9.000000,0.000000,0.000000,0.394778,0.390567,0.138172,0.082903,0.023029,300.000000,285.000000,15.000000,9.000000,0.000000,0.000000:
0000
0000
0000
0000
,
0000
0000
0000
0000
,
0000
0000
0000
0000
,
0000
0000
0000
0000
,
0000
0000
0000
0000
,
1000
0100
0001
0000
1000
0100
0001
0000
,
1000
0100
0001
0100
1000
0001
0010
0000
,
0001
0100
0010
0000
0001
0100
0010
0000
,
0001
0100
0010
0001
0010
1000
0100
0000
,
1000
0001
0010
0000
1000
0001
0010
0000
,
1000
0001
0010
1000
0001
1000
0010
0000
,
0001
0100
1000
0000
0001
0100
1000
0000
,
0001
0100
1000
0010
0001
0000
2100
0000
,
3010
0001
0010
1000
0100
0001
0100
0000
,
0010
0001
1000
0010
0001
0000
0110
0000
,
1000
0100
0100
0000
0001
0010
0010
0000
,
1000
0100
0010
0100
1000
0000
1001
0000
,
0001
0100
0010
0100
0001
1000
0001
0000
,
0010
0100
1000
0100
0010
0001
0000
0001
,
0100
0010
1000
0000
1000
0100
0010
0000
,
0001
0000
0000
0001
0000
0000
0001
0000
0000
0001
0000
0000
0001
0000
0000
0000
,
2000
0100
0000
0100
,
3020
0100
0000
0100
,
2030
0100
0000
0100
,
3002
0010
0000
0010
,
1003
0000
0010
0000
0000
0010
0000
0000
0010
0000
0000
0000
0110
0000
0000
0000
,
0001
0000
1000
0000
0000
1000
0000
0000
1000
0000
0000
0000
1100
0000
0000
0000
,
0010
0000
0001
0000
0000
0001
0000
0000
0001
0000
0000
0000
0110
0000
0000
0000
,
1000
0001
0010
0000
0100
1000
0001
0000
,
1000
0010
0001
0000
1000
0010
0001
0010
,
1000
0100
0001
0100
1000
1000
1000
0000
,
0100
1000
0010
0000
0100
0010
1000
0000
,
0001
0010
1000
0010
0001
0000
0110
0000
,
1000
0010
0100
0000
0010
1000
0100
0000
,
0010
0100
1000
0001
0100
0010
1000
0000
,
0001
0010
1000
0000
1000
0010
0001
0000
,
1000
1000
1000
1000
0001
0000
0120
0000
,
1030
1000
0100
0000
0001
0001
0100
0000
,
1000
0001
0010
0100
0010
0000
0101
0000
,
0010
1000
0001
0000
0100
1000
0001
0000
,
0010
1000
0001
1000
0100
0000
0011
0000
,
0100
0010
0001
0010
0100
1000
0001
0000
,
0100
0100
0100
0010
1000
0001
0010
0000
,
0100
1000
0010
0000
0100
0001
1000
0000
,
0100
0100
0100
0100
0010
0000
2001
0000
,
3100
1000
0010
1000
0001
0100
0010
0000
,
0100
0001
0010
0100
0001
0000
1100
0000
,
1000
0010
0100
0000
1000
0100
0010
0000
,
1000
0100
0010
0100
1000
0000
0011
0000
,
0001
0100
0010
0100
0001
0001
0001
0000
,
0010
0100
1000
0000
1000
0100
0010
0000
,
0001
1000
0100
1000
0010
0000
1001
0000
,
0010
0010
0010
0010
0100
0000
2002
0000
,
3003
0000
0000
0000
;

//---------------dance-single - ----------------
#NOTES:
     dance-single:
     9646_DSP:
     Medium:
     8:
     0.338193,0.390567,0.184230,0.128961,0.000000,257.000000,237.000000,20.000000,14.000000,0.000000,0.000000,0.338193,0.390567,0.184230,0.128961,0.000000,257.000000,237.000000,20.000000,14.000000,0.000000,0.000000:
// measure 0
0000
0000
0000
0000
,  // measure 1
0000
0000
0000
0000
,  // measure 2
0000
0000
0000
0000
,  // measure 3
0000
0000
0000
0000
,  // measure 4
0000
0000
0000
0000
,  // measure 5
1000
1000
0100
0000
0001
0001
0100
0000
,  // measure 6
1000
0001
0010
0000
0010
0000
1100
0000
,  // measure 7
0001
0001
0100
0000
1000
1000
0100
0000
,  // measure 8
0001
1000
0100
0000
0100
0000
1001
0000
,  // measure 9
1000
1000
0010
0000
0001
0001
0010
0000
,  // measure 10
1000
0001
0100
0000
0100
0000
1010
0000
,  // measure 11
0001
0001
0010
0000
1000
1000
0010
0000
,  // measure 12
0100
0100
0100
0012
,  // measure 13
1003
0100
1000
0000
0001
0000
0110
0000
,  // measure 14
1000
0100
0010
0000
0001
0001
0001
0000
,  // measure 15
0100
0010
1000
0000
0001
0100
0010
0000
,  // measure 16
0100
0000
1001
0000
1000
0010
1000
0000
,  // measure 17
0001
0000
0001
0000
1000
0100
0001
0000
,  // measure 18
1000
0010
0001
0000
1100
0000
0000
0000
,  // measure 19
0001
0100
0010
0000
0100
0010
1000
0000
,  // measure 20
0002
0000
0000
0003
,  // measure 21
2000
0100
0000
0100
,  // measure 22
0000
0010
0000
0010
,  // measure 23
3002
0100
0000
0100
,  // measure 24
0000
0010
0000
0010
,  // measure 25
1003
0100
0020
0030
,  // measure 26
0001
1000
0020
0030
,  // measure 27
0100
0001
0020
0030
,  // measure 28
0100
1000
0001
0001
,  // measure 29
1000
1000
0100
0000
0001
0100
1000
0000
,  // measure 30
0001
0010
0100
0000
1000
0000
1010
0000
,  // measure 31
0001
0100
0001
0000
1000
0100
1000
0000
,  // measure 32
0010
0010
0010
0000
0100
0000
1001
0000
,  // measure 33
0001
1000
0100
0000
1000
0001
0010
0000
,  // measure 34
0100
1000
0001
0000
0100
0000
0011
0000
,  // measure 35
0001
0001
0001
0000
1000
0100
1000
0000
,  // measure 36
0020
0001
1030
0210
,  // measure 37
0301
1000
0100
0000
1000
0001
0100
0000
,  // measure 38
0001
1000
0100
0010
0001
0000
1100
0000
,  // measure 39
0001
0100
1000
0000
0001
0010
1000
0000
,  // measure 40
0001
0010
0100
0010
0100
0000
1100
0000
,  // measure 41
1000
0100
0001
0000
1000
0010
0001
0000
,  // measure 42
1000
0001
0100
0010
1000
0000
0101
0000
,  // measure 43
0010
1000
0100
0000
0100
1000
0010
0000
,  // measure 44
0200
1000
0301
0120
,  // measure 45
1030
0100
0010
0100
1000
0000
0101
0000
,  // measure 46
0001
0100
0010
0100
0001
0000
1100
0000
,  // measure 47
0010
0001
0100
0000
0100
1000
0010
0000
,  // measure 48
0010
0001
0100
0010
1000
0000
1001
0000
,  // measure 49
0001
0010
0100
0000
1000
0100
0010
0000
,  // measure 50
0001
0001
0001
0000
1100
0000
0000
0000
,  // measure 51
0001
1000
0100
0000
0010
0001
0100
0000
,  // measure 52
0020
0001
1030
0220
,  // measure 53
0330
0000
0000
0000
;

//---------------dance-single - ----------------
#NOTES:
     dance-single:
     9646_BSP:
     Easy:
     6:
     0.265817,0.317336,0.303979,0.138172,0.000000,202.000000,169.000000,33.000000,15.000000,0.000000,0.000000,0.265817,0.317336,0.303979,0.138172,0.000000,202.000000,169.000000,33.000000,15.000000,0.000000,0.000000:
0000
0000
0000
0000
,
0000
0000
0000
0000
,
0000
0000
0000
0000
,
0000
0000
0000
0000
,
0000
0000
0000
0000
,
0100
1001
0100
1001
,
0010
0010
0001
1100
,
0001
0110
0001
0110
,
1000
1000
0010
0101
,
0010
1001
0010
1001
,
0100
0100
1000
0011
,
1000
0110
1000
0110
,
0001
0001
0001
1001
,
0001
0100
0010
0010
,
1000
0100
1000
1001
,
0001
0101
1000
1100
,
0010
0001
0010
1010
,
0001
0001
1000
1000
,
0100
1000
0110
0000
,
1000
0100
0001
0010
,
2000
0000
0000
3000
,
0002
0100
0000
0100
,
2003
0100
0000
0100
,
3002
0010
0000
0010
,
2003
0010
0000
0010
,
3002
0000
0100
0000
,
0023
0000
0100
0000
,
0032
0000
0100
0000
,
2003
0000
0002
3003
,
0100
1001
0010
0010
,
1000
0001
1000
1100
,
0010
0010
0001
0001
,
1000
0100
0010
1001
,
0100
0100
0010
0010
,
1000
0001
0010
0110
,
0001
0001
0100
0100
,
0020
0000
0030
1001
,
0001
1100
0010
1100
,
0001
0100
0010
0101
,
0001
0010
0100
0100
,
1000
0100
0010
1100
,
0001
1000
0001
0001
,
0100
0010
0100
1001
,
0001
0010
0100
1000
,
0002
0000
0003
0110
,
0001
0010
1000
1100
,
1000
0010
0001
0101
,
0010
1000
0010
0010
,
0001
0010
1000
0101
,
1000
0001
0010
0010
,
0100
0100
1001
0000
,
0010
0010
0100
0010
,
0200
0000
0300
2002
,
3003
0000
0000
0000
;

//---------------dance-single - ----------------
#NOTES:
     dance-single:
     9646_BEG:
     Beginner:
     4:
     0.139488,0.195284,0.027634,0.138172,0.000000,106.000000,103.000000,3.000000,15.000000,0.000000,0.000000,0.139488,0.195284,0.027634,0.138172,0.000000,106.000000,103.000000,3.000000,15.000000,0.000000,0.000000:
0000
0000
0000
0000
,
0000
0000
0000
0000
,
0000
0000
0000
0000
,
0000
0000
0000
0000
,
0000
0000
0000
0000
,
1000
0000
1000
0000
,
1000
1000
1000
0000
,
0001
0000
0001
0000
,
0001
0001
0001
0000
,
0010
0000
0010
0000
,
0010
0010
0010
0000
,
0100
0000
0100
0000
,
0200
0000
0000
0300
,
0100
0000
0100
0000
,
1000
1000
1000
0000
,
0010
0000
1000
0000
,
0100
0000
0001
0000
,
0010
0000
0010
0000
,
1000
1000
1000
0000
,
0100
0000
0010
0000
,
0002
0000
0000
0003
,
0002
0000
0000
0003
,
2000
0000
0000
3000
,
0020
0000
0000
0030
,
0002
0000
0000
0003
,
2000
0000
0000
3000
,
0200
0000
0000
0300
,
0002
0000
0000
0003
,
0020
0000
0000
0030
,
1000
0000
1000
1000
,
1000
1000
1000
0000
,
0001
0000
0100
0000
,
1000
1000
1000
0000
,
0001
0000
0010
0000
,
0100
0100
0100
0000
,
1000
0000
0001
0000
,
0200
0000
0300
0110
,
1000
0000
1000
0000
,
0001
0001
0001
0000
,
0010
0000
0100
0000
,
0010
0100
0010
0000
,
0001
0000
0001
0000
,
1000
0001
1000
0000
,
0010
0000
1000
0000
,
0002
0000
0003
1001
,
0010
0100
0010
0000
,
0100
0010
0100
0000
,
1000
0000
1000
0000
,
0001
0001
0001
0000
,
0010
0010
0010
0000
,
0100
0000
0100
0000
,
1000
1000
1000
0000
,
0020
0000
0030
2002
,
3003
0000
0000
0000
;
