#TITLE:恋愛裁判;
#SUBTITLE:;
#ARTIST:40mP feat. 初音ミク;
#TITLETRANSLIT:Love Trial;
#SUBTITLETRANSLIT:;
#ARTISTTRANSLIT:40mP feat. Hatsune Miku;
#GENRE:Vocaloid Pop;
#CREDIT:;
#BANNER:Love Trial.png;
#BACKGROUND:Love Trial-bg.png;
#LYRICSPATH:;
#CDTITLE:cdtitle.png;
#MUSIC:Love Trial.ogg;
#OFFSET:-1.134108;
#SAMPLESTART:81.721123;
#SAMPLELENGTH:14.328354;
#SELECTABLE:YES;
#BPMS:0.000000=134.000000
;
#STOPS:
;
#BGCHANGES:;
#KEYSOUNDS:;
#ATTACKS:;

//---------------dance-single - ----------------
#NOTES:
     dance-single:
     :
     Hard:
     8:
     0.350502,0.431886,0.226866,0.445329,0.130238,292.000000,265.000000,27.000000,53.000000,0.000000,0.000000,0.350502,0.431886,0.226866,0.445329,0.130238,292.000000,265.000000,27.000000,53.000000,0.000000,0.000000:
0000
0000
0000
0000
,
0000
0000
0000
0000
,
0000
0000
0000
0000
,
0000
0000
0000
0000
,
0001
0000
0001
0000
0100
0001
0010
0100
,
1000
0000
1000
0000
0100
1000
0010
0100
,
0001
0000
0001
2000
0000
3200
0000
0310
,
0001
0000
0000
0001
0000
0000
0100
0000
0000
0000
0110
0000
0000
0000
0000
0000
,
1000
0000
1000
0000
0010
1000
0100
0010
,
0001
0000
0001
0000
0010
0001
0100
0010
,
2000
0100
3002
0100
,
1003
0000
0000
0001
0000
0000
2000
0000
0000
0000
3000
0000
0000
0000
0000
0000
,
2002
0000
0000
0000
3003
0000
1000
0000
1000
0000
0000
1000
0000
0000
0000
0000
,
0001
0100
0001
0000
0010
0000
0001
0000
,
2002
0000
0000
0000
3003
0000
0001
0000
0001
0000
0000
0001
0000
0000
0000
0000
,
1000
0010
1000
0000
0001
0010
0001
0000
,
2002
0000
0000
0000
3003
0000
0000
0000
1000
0000
0000
0001
0000
0000
0000
0000
,
1000
0000
0100
0000
1000
0000
0000
0000
0010
0000
0000
0010
0000
0000
1000
0000
,
0000
0100
0010
0000
0001
0000
0100
0001
,
1000
0000
0100
1000
0001
0000
0100
0000
,
0220
0000
0000
0000
0330
0000
0000
0000
1001
0000
0000
1001
0000
0000
0000
0000
,
1000
0100
0010
0000
0100
0000
1000
0000
,
2020
0000
0000
0000
3030
0000
0100
0000
0100
0000
0000
0001
0000
0000
0000
0000
,
0001
0100
0010
0000
1000
0100
0010
0000
,
0022
0000
0000
0000
0033
0000
0100
0000
0100
0000
0000
1000
0000
0000
0000
0000
,
0001
0000
0100
0000
0001
0000
0000
0000
0010
0000
0000
0010
0000
0000
0001
0000
,
0000
0100
0010
0000
1000
0000
0100
0010
,
0001
0000
1000
1000
1000
0000
0001
0100
,
0020
0000
0000
2030
0000
0000
3001
1000
,
0200
0000
0000
0320
0000
0001
0031
0000
,
0200
0000
0000
2300
0000
0000
3100
0001
,
0010
0000
0100
1000
0010
0000
1000
0001
,
0020
0000
0000
0032
0000
0000
1003
0001
,
0200
0000
0000
0320
0000
0000
1030
0000
,
0001
0010
1000
0000
1000
0010
0001
0000
,
1001
0000
0000
1001
0000
0000
1001
0000
0000
0000
0000
0000
1000
0000
0000
0000
,
0200
0000
0000
0000
,
0320
0000
0000
0000
,
0032
0000
2003
0000
,
3020
0000
0230
0000
,
0302
1000
0000
1003
,
2000
0001
0000
3001
,
1000
0100
0010
0001
,
0011
0000
0000
0011
0000
0000
0000
0000
1010
0000
0000
1010
0000
0000
0000
0000
,
0001
0000
0100
0000
0010
0000
1000
0000
0001
0000
0000
1001
0000
0000
0000
0000
,
1000
0000
0000
0100
0000
0000
0020
0000
0000
0000
0130
0000
0000
0000
0001
0000
,
0001
0000
0000
0100
0000
0000
0020
0000
0000
0000
0130
0000
0000
0000
0100
0000
,
2000
0010
3002
0010
,
1003
0000
0000
0100
0000
0000
0100
0000
2000
0000
0000
0000
3000
0000
0000
0000
,
0001
0000
0000
0100
0000
0000
0020
0000
0000
0000
0130
0000
0000
0000
1000
0000
,
1000
0000
0000
0100
0000
0000
0010
0000
0010
0000
0000
0000
0100
0000
0000
0000
,
0001
0000
0000
1000
0000
0000
0100
0000
0000
0000
0010
0000
0001
0000
1000
0000
,
0010
0000
0000
0110
0000
0000
0000
0000
1001
0000
0000
1001
0000
0000
0000
0000
,
0001
0000
0000
0100
0000
0000
2000
0000
0000
0000
3100
0000
0000
0000
0001
0000
,
0001
0000
0000
0010
0000
0000
2000
0000
0000
0000
3010
0000
0000
0000
0010
0000
,
0002
0100
2003
0100
,
3001
0000
0000
0100
0000
0000
0100
0000
0002
0000
0000
0000
0003
0000
0000
0000
,
1000
0000
0000
0100
0000
0000
0002
0000
0000
0000
0103
0000
0000
0000
1000
0000
,
1000
0000
0000
0010
0000
0000
0001
0000
0001
0000
0000
0000
0010
0000
0000
0000
,
1000
0000
0000
0001
0000
0000
0100
0000
0000
0000
0001
0000
1000
0000
0100
0000
,
1100
0000
0000
0120
0000
0000
0030
0000
0001
0000
0000
0000
0100
0000
0000
0000
,
0101
0000
0000
0120
0000
0000
0030
0000
1000
0000
0001
0000
1000
0000
0000
0000
,
2002
0000
0000
3003
,
0001
0000
0000
0010
0000
0000
1000
0000
0000
0000
0110
0000
0000
0000
2002
0000
,
0000
3003
0000
0000
;

//---------------dance-single - ----------------
#NOTES:
     dance-single:
     :
     Medium:
     5:
     0.240070,0.269928,0.184854,0.562964,0.000000,200.000000,178.000000,22.000000,67.000000,0.000000,0.000000,0.240070,0.269928,0.184854,0.562964,0.000000,200.000000,178.000000,22.000000,67.000000,0.000000,0.000000:
0000
0000
0000
0000
,
0000
0000
0000
0000
,
0000
0000
0000
0000
,
0000
0000
0000
0000
,
0001
0100
0001
0200
,
0310
1000
0010
2000
,
3001
0100
0020
2030
,
3002
0013
0100
0100
,
1000
0100
1000
0200
,
0310
0001
0010
0002
,
1003
0100
0010
0001
,
2002
0000
0000
3003
0000
0000
0000
0000
,
0002
0003
0200
0300
,
0010
0010
1000
0001
,
2000
3000
0200
0300
,
0010
0001
0100
0010
,
2000
3000
0002
0003
,
0010
0010
0001
1000
,
0000
1000
0001
0100
,
0010
0100
0010
0000
,
2002
3003
0220
0330
,
1000
0100
0001
0100
,
2002
3003
0220
0330
,
1000
0010
0001
0010
,
2002
3003
0220
0330
,
0001
0001
1000
0100
,
0000
0100
1000
0001
,
0100
0010
0010
0100
,
0002
0000
0000
0003
0000
0000
0011
0000
,
2000
0000
0000
3000
0000
0000
1010
0000
,
0002
0000
0000
0003
0000
0000
1001
0000
,
0001
0100
0010
1000
,
0200
0000
0000
0300
0000
0000
1001
0000
,
0020
0000
0000
0030
0000
0000
1001
0000
,
0001
0100
1000
0010
,
0002
0000
0000
0003
0000
0000
0001
0000
,
0200
0000
0000
0000
,
0320
0000
0000
0000
,
2030
0000
3002
0000
,
0023
0000
0230
0000
,
2300
0001
0000
3001
,
0002
1000
0000
1003
,
0001
0100
0010
1000
,
2200
0000
0000
3300
0000
0000
0000
0000
0022
0000
0000
0033
0000
0000
0000
0000
,
0001
0000
0000
0000
1000
0000
0000
0000
0220
0000
0000
0330
0000
0000
0000
0000
,
1000
0100
0002
0003
,
0001
0100
2000
3000
,
1000
0010
0100
0001
,
0010
0100
1000
0000
,
0001
0100
2000
3000
,
1000
0100
0002
0003
,
0001
0010
0100
1000
,
2200
0000
0000
3300
0000
0000
0000
0000
0022
0000
0000
0033
0000
0000
0000
0000
,
1000
0010
0002
0003
,
0001
0100
2000
3000
,
0001
0100
0010
1000
,
0100
0010
0001
0000
,
0001
0010
2000
3000
,
1000
0100
0002
0003
,
1000
0100
0010
0001
,
0202
0000
0000
0303
0000
0000
0000
0000
0001
0000
0000
0000
0010
0000
0000
0000
,
2200
0000
0000
3300
0000
0000
0000
0000
1000
0000
0000
0000
0001
0000
0000
0000
,
2002
0000
0000
3003
,
0100
0000
0000
0010
0000
0110
0000
2002
,
0000
3003
0000
0000
;

//---------------dance-single - ----------------
#NOTES:
     dance-single:
     :
     Easy:
     3:
     0.183653,0.264677,0.134439,0.302488,0.000000,153.000000,137.000000,16.000000,36.000000,0.000000,0.000000,0.183653,0.264677,0.134439,0.302488,0.000000,153.000000,137.000000,16.000000,36.000000,0.000000,0.000000:
// measure 0
0000
0000
0000
0000
,  // measure 1
0000
0000
0000
0000
,  // measure 2
0000
0000
0000
0000
,  // measure 3
0000
0000
0000
0000
,  // measure 4
0001
0001
0020
0030
,  // measure 5
0001
0001
0200
0300
,  // measure 6
0001
0001
2000
3000
,  // measure 7
0100
0010
0100
0000
,  // measure 8
1000
1000
0020
0030
,  // measure 9
1000
1000
0200
0300
,  // measure 10
2000
3000
0002
0003
,  // measure 11
2002
0000
0000
3003
0000
0000
0000
0000
,  // measure 12
0001
0000
0001
0000
,  // measure 13
0100
0100
0001
0000
,  // measure 14
1000
0000
1000
0000
,  // measure 15
0100
0010
0001
0000
,  // measure 16
1000
0000
0001
0000
,  // measure 17
1000
0001
0100
0100
,  // measure 18
0000
0001
1000
0100
,  // measure 19
0100
0000
0010
0000
,  // measure 20
1001
0000
1001
0000
,  // measure 21
0010
0001
0100
0000
,  // measure 22
1001
0000
1001
0000
,  // measure 23
0010
1000
0100
0000
,  // measure 24
0110
0000
1001
0000
,  // measure 25
0001
1000
0100
0100
,  // measure 26
0000
0100
1000
0001
,  // measure 27
0200
0000
0300
0000
,  // measure 28
0002
0000
0000
0003
,  // measure 29
0020
0000
0000
0030
,  // measure 30
0200
0000
0000
0300
,  // measure 31
1000
0000
0001
0000
,  // measure 32
2000
0000
0000
3000
,  // measure 33
0020
0000
0000
0030
,  // measure 34
1000
1000
0001
0001
,  // measure 35
0020
0000
0000
0030
0000
0000
0000
0000
,  // measure 36
0002
0000
0003
0000
,  // measure 37
0200
0000
0300
0000
,  // measure 38
0020
0030
2000
3000
,  // measure 39
0002
0003
0020
0030
,  // measure 40
0200
0000
0300
0000
,  // measure 41
0020
0000
0030
0000
,  // measure 42
0001
0000
1000
0000
,  // measure 43
1001
0000
0110
0000
,  // measure 44
0010
0010
2002
3003
,  // measure 45
1000
1000
0200
0300
,  // measure 46
0010
0010
0002
0003
,  // measure 47
1000
0000
0010
0000
,  // measure 48
1000
0100
0010
0000
,  // measure 49
0001
0001
0200
0300
,  // measure 50
0010
0010
2000
3000
,  // measure 51
0100
0000
0010
0000
,  // measure 52
0110
0000
1001
0000
,  // measure 53
0001
0001
0200
0300
,  // measure 54
1000
1000
0020
0030
,  // measure 55
0001
0000
0010
0000
,  // measure 56
0001
0100
0010
0000
,  // measure 57
1000
1000
0200
0300
,  // measure 58
0001
0001
0020
0030
,  // measure 59
1000
0000
0001
0000
,  // measure 60
1001
0000
1000
0010
,  // measure 61
1010
0000
0001
0010
,  // measure 62
0022
0000
0000
0033
,  // measure 63
1001
0000
0000
0000
;

//---------------dance-single - ----------------
#NOTES:
     dance-single:
     :
     Beginner:
     1:
     0.096028,0.158806,0.092427,0.075622,0.000000,80.000000,69.000000,11.000000,9.000000,0.000000,0.000000,0.096028,0.158806,0.092427,0.075622,0.000000,80.000000,69.000000,11.000000,9.000000,0.000000,0.000000:
0000
0000
0000
0000
,
0000
0000
0000
0000
,
0000
0000
0000
0000
,
0000
0000
0000
0000
,
1000
0000
0000
0000
,
0100
0000
0000
0000
,
0010
0000
0000
0000
,
0001
0000
0000
0000
,
0100
0000
0000
0000
,
0010
0000
0000
0000
,
1000
0000
1000
0000
,
1000
0000
0000
0000
,
0001
0000
0000
0000
,
1000
0000
1000
0000
,
1000
0000
0000
0000
,
0001
0000
0001
0000
,
0001
0000
0000
0000
,
0010
0000
0010
0000
,
0000
0000
0100
0000
,
0100
0000
0000
0000
,
1001
0000
0000
0000
,
1000
0000
1000
0000
,
1001
0000
0000
0000
,
0001
0000
0001
0000
,
1001
0000
0000
0000
,
0100
0000
0100
0000
,
0000
0000
0010
0000
,
0010
0000
0000
0000
,
2000
0000
3000
0000
,
0200
0000
0300
0000
,
0020
0000
0030
0000
,
0001
0000
0001
0000
,
0002
0000
0003
0000
,
0200
0000
0300
0000
,
0020
0000
0030
0000
,
1001
0000
0000
0000
,
0010
0000
0000
0000
,
0000
0000
0000
0000
,
0000
0000
0000
0000
,
0000
0000
0000
0000
,
1000
0000
0000
0000
,
0001
0000
0000
0000
,
1000
0000
0000
0000
,
1001
0000
1001
0000
,
0020
0000
0030
0000
,
1000
0000
0000
0000
,
0100
0000
0000
0000
,
0010
0000
0010
0000
,
0010
0000
0000
0000
,
0001
0000
0000
0000
,
0100
0000
0000
0000
,
0010
0000
0000
0000
,
1001
0000
1001
0000
,
0001
0000
0000
0000
,
0100
0000
0000
0000
,
0010
0000
0010
0000
,
0010
0000
0000
0000
,
1000
0000
0000
0000
,
0100
0000
0000
0000
,
0010
0000
0000
0000
,
0110
0000
0000
0000
,
0110
0000
0000
0000
,
2002
0000
3003
0000
,
0010
0000
0000
0000
;
