#TITLE:Love Like;
#SUBTITLE:;
#ARTIST:eoll;
#TITLETRANSLIT:;
#SUBTITLETRANSLIT:;
#ARTISTTRANSLIT:;
#GENRE:;
#CREDIT:;
#MUSIC:Love Like.ogg;
#BANNER:Love Like.png;
#BACKGROUND:Love Like-bg.png;
#CDTITLE:;
#SAMPLESTART:40.038;
#SAMPLELENGTH:26.483;
#SELECTABLE:YES;
#OFFSET:-0.305;
#BPMS:0.000=145.000;
#STOPS:;
#BGCHANGES:;
#FGCHANGES:;

//--------------- dance-single - Telperion ----------------
#NOTES:
     dance-single:
     Telperion:
     Beginner:
     2:
     0,0,0,0,0:
0000
0000
0000
0000
,
0000
0000
0000
0000
,
0000
0000
0000
0000
,
0000
0000
0000
0000
,
1000
0000
0000
0000
,
0001
0000
0000
0000
,
1000
0000
0000
0000
,
0001
0000
0000
0000
,
0100
0000
0000
0000
,
0010
0000
0000
0000
,
0100
0000
0000
0000
,
0010
0000
0000
0000
,
0001
0000
0000
0000
,
1000
0000
0000
0000
,
0001
0000
0000
0000
,
1000
0000
0000
0000
,
0100
0000
0000
0000
,
0010
0000
0000
0000
,
0100
0000
0000
0000
,
0010
0000
0000
0000
,
1000
0000
0000
0000
,
0010
0000
0000
0000
,
0100
0000
0000
0000
,
0001
0000
0000
0000
,
1000
0000
0000
0100
,
0000
0000
0000
0000
,
0010
0000
0000
0001
,
0000
0000
0000
0000
,
1000
0000
0000
0010
,
0000
0000
0000
0000
,
0100
0000
0000
0001
,
0000
0000
0000
0000
,
0010
0001
0000
0010
,
0000
0000
0000
0000
,
0100
0000
0000
1000
,
0000
0000
0000
0000
,
0001
0000
0000
0100
,
0000
0000
0000
0000
,
0010
0000
0000
1000
,
0000
0000
0000
0000
,
0100
0000
0000
0000
,
0100
0000
0000
0000
,
0100
0000
0000
0000
,
0100
0000
0000
0000
,
0100
0000
0000
0000
,
0100
0000
0000
0000
,
0100
0000
0000
0000
,
0100
0000
0000
0000
,
0000
0000
0000
0000
,
1001
0000
0000
0001
,
0000
0000
0000
0000
,
0100
0000
0000
0010
,
0000
0000
0000
0000
,
1000
0000
0000
0001
,
0000
0000
0000
0000
,
0010
0000
0000
0100
,
0000
0000
0000
0000
,
0001
0000
0000
0100
,
0000
0000
0000
0000
,
0010
0000
0000
1000
,
0000
0000
0000
0000
,
0010
1000
0000
0100
,
0000
0000
0000
0000
,
0010
0000
0000
0001
,
0000
0000
0000
0000
,
1000
0000
0000
0010
,
0000
0000
0000
0000
,
0100
0000
0000
0001
,
0000
0000
0000
0000
,
0010
0001
0000
0010
,
0000
0000
0000
0000
,
0100
0000
0000
1000
,
0000
0000
0000
0000
,
0010
0000
0000
0000
,
0100
0000
0100
0000
,
0100
0000
0000
0000
,
0001
0000
0001
0000
,
0001
0000
0000
0000
,
1000
0000
1000
0000
,
1000
0000
0000
0000
,
0100
0000
0100
0000
,
0010
0000
0010
0000
,
0100
0000
0000
0000
;

//--------------- dance-single - Telperion ----------------
#NOTES:
     dance-single:
     Telperion:
     Easy:
     7:
     0,0,0,0,0:
0000
0000
0000
0000
,
0000
0000
0000
0000
,
0000
0000
0000
0000
,
0000
0000
0000
0000
,
0000
1000
0010
0100
,
0000
0001
0010
0100
,
0000
1000
0010
0100
,
0000
0000
0001
0000
1000
0001
1000
0000
,
0000
0001
0100
0010
,
0000
1000
0100
0010
,
0000
0001
0100
0010
,
0000
1000
1000
0001
,
0000
0010
0100
1000
,
0000
0010
0100
0001
,
0000
0010
0100
1000
,
0000
0000
0001
0000
0100
0000
0010
1000
,
0010
0100
0001
1000
,
0100
0010
0001
1000
,
0010
0100
0001
1000
,
0100
0000
0010
0000
0001
1000
0001
0001
,
0010
0100
1000
0001
,
0100
0010
1000
0001
,
0010
0000
0100
0000
1000
0000
0001
0100
,
0010
0000
0000
0000
,
2010
0000
3001
0012
,
0000
0000
0003
0000
1000
0000
0010
0100
,
0020
0000
1030
2001
,
0000
0000
3000
0000
1000
0000
0001
0010
,
0002
0000
1003
2010
,
0000
0000
3000
0000
1000
0001
0010
0100
,
0020
0000
0031
1002
,
0000
0000
0003
0000
0001
0000
1000
0010
,
0000
0010
0000
0100
0001
0000
0001
0000
,
0000
1000
0100
0010
,
0002
0100
1003
2100
,
0000
0000
3000
0000
1000
0001
0100
0000
,
0120
0000
1030
2001
,
0000
0000
3010
0000
1000
0100
1000
0100
,
0020
0000
0000
0000
0031
0100
0010
0000
,
1000
0001
1000
0001
1000
0001
1000
0000
,
0010
0100
0000
0100
,
0000
0100
0000
0100
,
0001
1000
0100
0000
,
0010
0100
1000
0000
,
0001
0100
0010
0000
,
1000
0001
0010
0000
,
0100
0010
0001
0000
,
1000
0000
0000
0000
0000
0000
0001
1000
,
0001
0010
0100
0000
,
1000
0001
0100
1000
,
0100
0010
2000
0000
,
3001
0010
0100
0001
,
0100
1000
0002
0000
,
0103
0010
0001
0010
,
1000
0001
0020
0000
,
0130
0001
0100
1000
,
0001
0000
0000
0000
0100
0010
0100
0000
,
2001
0000
3100
0012
,
0000
0000
1003
0000
0001
0000
0100
0010
,
2000
0000
3001
0012
,
0000
0000
1003
0000
0100
0010
0010
0000
,
0001
1000
0001
0000
0100
0000
0120
0000
,
0000
0000
1030
0000
0001
1000
0001
1000
,
0200
0000
0000
0000
0310
0001
0020
0000
,
0000
0000
0130
1000
0001
0100
0010
0000
,
1002
0000
0103
2010
,
0000
0000
3001
0000
1000
0000
0100
0010
,
0002
0000
1003
2010
,
0000
0000
3001
0000
0100
0010
0010
0000
,
1000
0001
1000
0000
0100
0000
0120
0000
,
0000
0000
0031
0000
1000
0001
1000
0001
,
0200
0000
0000
0000
0310
1000
0002
0000
,
0000
0000
0013
0001
0010
0100
1000
0000
,
0020
0000
0000
0030
,
0100
0100
0001
0000
,
1000
1000
0001
0000
,
0010
0010
0001
0100
,
0000
0010
1000
0000
,
0100
0100
1000
0000
,
0001
0001
1000
0000
,
0010
0010
1000
0100
,
0010
0001
1000
0010
,
0100
0000
0000
0000
;

//--------------- dance-single - Telperion ----------------
#NOTES:
     dance-single:
     Telperion:
     Medium:
     10:
     0,0,0,0,0:
0000
0000
0000
0000
,
0000
0000
0000
0000
,
0000
0000
0000
0000
,
0000
0000
0000
0000
,
0000
2001
0010
3100
,
0000
1002
0010
0103
,
0000
2010
0100
3001
,
0000
0000
0012
0000
0103
0001
1001
0000
,
1000
0000
0200
0000
0010
0000
1300
0100
,
0010
0000
0002
0000
1000
0000
0013
0001
,
1000
0000
0020
0000
0100
0000
1030
0010
,
0100
0101
1001
1000
,
0001
0000
0021
0000
0100
0000
0031
0010
,
0100
0000
2100
0000
0001
0000
3100
1000
,
0001
0000
0210
0000
0001
0000
0310
0100
,
0001
0000
1001
0000
1100
0000
0100
0010
,
0001
0000
1000
0010
0200
0000
0301
0100
,
0010
0000
1000
0100
0020
0000
0031
0010
,
0100
0000
1000
0010
0200
0000
1300
0100
,
0010
0000
1010
0000
0001
0010
0110
0000
,
1000
0000
0001
0010
0200
0000
1300
0100
,
0010
0000
0001
0100
0020
0000
1030
0010
,
0100
0000
0001
0010
0200
0000
0301
0100
,
1000
0000
0000
0000
,
0102
0010
0103
2001
,
0010
0000
3100
1000
0001
0100
1000
0100
,
0020
1000
0130
0021
,
0100
0000
0031
1000
0100
0010
0001
0000
,
2100
0010
3100
1002
,
0010
0000
0103
0001
1000
0100
0001
0100
,
0020
0001
0130
1002
,
0100
0000
0013
0001
0010
0000
0100
1000
,
0001
0002
0000
0103
0010
1000
0010
1000
,
0000
1100
0110
0011
,
2000
0000
0001
0000
3100
1000
0100
0010
,
0001
0000
0100
0001
1000
0010
0010
0000
,
0102
1000
0013
2100
,
0001
0000
3010
1000
0100
0010
0100
0010
,
0002
0000
0100
0000
0013
0001
1001
0000
,
1000
1000
0100
0100
0010
0010
0001
0000
,
1000
0000
0000
1000
0010
0000
0000
0010
,
0100
0000
0000
0100
0001
1000
0100
1000
,
0001
0000
0000
0001
0010
0000
0000
0010
,
0100
0000
0000
0100
1000
0001
0100
0001
,
1000
0000
0000
1000
0100
0000
0000
0100
,
0010
0000
0000
0010
0001
1000
0010
1000
,
0001
0000
0000
0001
0100
0000
0000
0100
,
0010
0000
0000
0010
1000
0000
0001
0010
,
0100
0000
0000
0000
,
1000
0100
0010
0001
1000
0000
0010
0100
,
0001
0010
0100
0000
1000
0001
0100
0000
,
0001
0100
0010
1000
0001
0000
0010
0100
,
1000
0010
0100
0000
0001
1000
0100
0010
,
0001
0010
0100
1000
0001
0000
0100
0010
,
1000
0100
0010
0000
0001
1000
0010
0000
,
0100
0010
0100
0001
1000
0000
0100
0010
,
0001
1000
0010
0000
0100
0100
0100
0000
,
2001
0100
3001
1020
,
0100
0000
1030
0010
0100
1000
0100
0001
,
1002
0100
1003
0021
,
0100
0000
0031
0000
0010
0100
1100
0000
,
0001
0100
0102
0000
1003
0000
0021
0000
,
0100
0000
0031
0010
0100
0001
0100
1000
,
2001
0000
0100
0000
3001
1000
1020
0000
,
0100
0000
1030
1000
0100
0010
0001
0000
,
1002
0010
1003
0201
,
0010
0000
0301
0100
0010
0001
0010
1000
,
2001
0010
3001
1200
,
0010
1300
0001
0101
,
1000
0010
2010
0000
3001
0000
1200
0000
,
0010
0000
1300
0100
0010
1000
0010
0001
,
1002
0000
0010
0000
1003
0001
0201
0000
,
0010
0000
0301
0100
0010
1000
0001
0000
,
0020
0000
0000
0030
,
0100
0000
0100
0000
1000
0000
0001
1000
,
0001
0010
0100
0000
1001
0000
0000
0000
,
0001
0001
0100
0010
,
1000
0010
0100
0000
1001
0000
0000
0000
,
0001
0000
0100
0000
0001
0000
1000
0010
,
1000
0100
0010
0000
1001
0000
0000
0000
,
1000
1000
0100
0010
,
0001
0010
0100
0000
1000
0001
1000
0001
,
0100
0000
0000
0000
;

//--------------- dance-single - Telperion ----------------
#NOTES:
     dance-single:
     Telperion:
     Hard:
     13:
     0,0,0,0,0:
0000
0000
0000
0000
,
0000
0000
0000
0000
,
0000
0000
0000
0000
,
0000
0000
0000
0000
,
0000
0000
2010
0000
0001
0000
3010
1000
,
0100
0000
0012
0000
1000
0000
0013
0001
,
0100
0000
1020
0000
0001
0000
0130
0010
,
1000
0000
0011
0000
1000
0001
0101
0000
,
1000
0000
0102
0000
1000
0000
0103
0001
,
0010
0000
2100
0000
0001
0000
3010
1000
,
0100
0000
0021
0000
1000
0000
0130
0010
,
0001
1010
0101
1000
,
0001
0010
0200
0000
0001
0000
1300
0100
,
0010
0001
0200
0000
1000
0000
0310
0100
,
0001
1000
0200
0000
0010
0000
1300
0010
,
0100
0001
2000
0000
0010
0000
3001
0010
,
0110
0000
0000
0000
0100
0000
1000
0001
2000
0000
0000
0000
3010
0000
0100
0000
,
0001
0000
0000
0000
0010
0000
0100
0010
0002
0000
0000
0000
0103
0000
0001
0000
,
1000
0000
0000
0000
0010
0000
0100
0001
0200
0000
0000
0000
0310
0000
1000
0000
,
0001
0000
0000
0000
0010
0000
0100
0010
0100
0000
1000
0000
1001
0000
0001
0000
,
0100
0000
0000
0000
0100
0000
0001
1000
0002
0000
0000
0000
0013
0000
0100
0000
,
1000
0000
0000
0000
0010
0000
0100
0010
2000
0000
0000
0000
3100
0000
1000
0000
,
0001
0000
0000
0000
0010
0000
0100
1000
0200
0000
0000
0000
0310
0000
0001
0000
,
1000
0000
0000
0010
1000
0100
0010
0001
,
0200
1000
0301
2010
,
0001
0000
0000
0000
3100
0000
1000
0000
0001
0010
0100
1000
0001
0000
0100
0000
,
0120
0001
1030
1002
,
0010
0000
0000
0000
0000
0000
1003
0000
0000
0001
0000
0000
0100
0000
0000
0010
0000
0000
1000
0000
0001
0000
0010
0000
,
0200
0001
1300
0012
,
1000
0000
0103
0001
1000
0100
0110
0010
,
0021
1000
0130
2001
,
0010
0000
3001
1000
0100
0010
0001
0100
,
0010
1000
0020
0000
0000
0000
0130
0000
0001
0000
0001
0000
1000
0000
1000
0000
,
0100
0000
0000
0000
0000
0000
0011
0000
0000
0010
0000
0000
0100
0000
1000
0000
0001
0000
0100
0000
0000
0010
0000
0000
,
1020
0000
0001
0000
0130
0010
1000
0001
,
0010
0000
0100
0010
0001
0001
1000
0000
,
0201
0000
1000
0000
0310
0000
1001
1000
,
0200
0000
0001
0000
0310
0100
0010
0001
,
2001
0000
0010
0000
3100
1000
1002
0000
,
0013
0100
0010
0100
1000
0001
1000
0001
0100
0000
0010
0000
0110
0000
0000
0000
,
1001
0000
0000
1000
0000
0000
0010
0000
0100
0001
0000
1000
0000
0001
0010
0000
,
0100
0000
0000
0010
0000
0000
0001
0000
1000
0001
0000
0100
0000
0100
0010
0000
,
1000
0000
0000
0001
0000
0000
0010
0000
0100
1000
0000
0001
0000
1000
0010
0000
,
0100
0000
0000
0010
0000
0000
1000
0000
0001
0010
0000
0100
0000
1000
0100
1000
,
0001
0000
0000
0100
0000
0000
0010
0000
1000
0001
0000
0010
0000
0001
0100
0000
,
0010
0000
0000
0100
0000
0000
0001
0000
1000
0100
0000
0010
0000
0001
1000
0000
,
0010
0000
0000
0100
0000
0000
0010
0000
1000
0001
0000
0100
0000
0001
0010
0000
,
0100
0000
0000
1000
0000
0000
0001
0000
0100
0010
0000
1000
0000
0001
0100
0001
,
1000
0100
0010
0000
,
0001
0010
0100
1000
0002
0010
1003
0001
,
0100
1000
0100
0010
1000
0100
0010
0001
,
1000
0001
0010
0100
2000
0010
3001
1000
,
0100
0000
0001
0000
0100
0000
0010
0000
0001
0000
0100
0000
0000
0010
0000
0000
,
1010
1000
0100
0010
0002
0100
1003
0001
,
0010
1000
0010
0100
1000
0010
0100
0001
,
1000
0001
0100
0010
2000
0100
3001
1000
,
0002
0000
0000
0000
0000
0000
0000
0000
0013
0100
1000
0001
0100
0000
0000
0000
,
1010
0000
0101
0000
1000
0100
0110
0000
,
0001
0000
0100
0000
2010
0000
0000
0000
3001
0010
0001
0010
0100
0000
0100
0000
,
1100
0000
0011
0000
1000
0010
0110
0000
,
0001
1000
0021
0000
0130
0010
1001
0000
,
0101
0100
0110
0000
1001
0000
0011
0000
,
0100
1000
1020
0000
0031
0010
0001
0010
,
1000
0000
0101
0000
1000
0100
0012
0000
,
1000
0000
0000
0000
0103
0000
0001
1000
0010
0000
0100
0000
1001
0000
0000
0000
,
0011
0000
1100
0000
0001
0100
0110
0000
,
1000
0000
0100
0000
0012
0000
0000
0000
1003
0010
1000
0010
0100
0000
0100
0000
,
0101
0000
1010
0000
0001
0010
0110
0000
,
1000
0001
1020
0000
0130
0010
1001
0000
,
1100
0100
0110
0000
1001
0000
1010
0000
,
0100
0001
0021
0000
1030
0010
1000
0010
,
0001
0000
1100
0000
0001
0100
2010
0000
,
0001
0000
0000
0000
3100
0000
1000
0001
0100
0000
0010
0000
1001
0000
0000
0000
,
0010
0000
0000
1000
0000
0000
0010
0000
0000
0100
0000
0000
0001
0000
0000
1000
0000
0000
0100
0000
0000
1000
0000
0000
0001
0000
0000
0000
0010
0000
0000
0000
0100
0000
0000
0000
1000
0000
0000
0000
0000
0000
0000
0000
0000
0000
0000
0000
,
0001
0000
0100
0000
0101
0000
0001
1000
,
0001
1000
0100
0000
1100
0000
2000
0000
,
3001
0010
0011
1100
,
0001
1000
0001
0000
0101
0001
1000
0001
,
1000
0000
0100
0000
1100
0000
1000
0001
,
1000
0001
0100
0000
0101
0000
0200
0000
,
0310
1000
1010
0101
,
1000
0001
1000
0000
1100
1000
0001
1000
,
0010
0000
0000
0000
;

//--------------- dance-solo - song length ----------------
#NOTES:
     dance-solo:
     song length:
     Beginner:
     1:
     0,0,0,0,0:
000000
000000
000000
000000
,
000000
000000
000000
000000
,
000000
000000
000000
000000
,
000000
000000
000000
000000
,
000000
000000
000000
000000
,
000000
000000
000000
000000
,
000000
000000
000000
000000
,
000000
000000
000000
000000
,
000000
000000
000000
000000
,
000000
000000
000000
000000
,
000000
000000
000000
000000
,
000000
000000
000000
000000
,
000000
000000
000000
000000
,
000000
000000
000000
000000
,
000000
000000
000000
000000
,
000000
000000
000000
000000
,
000000
000000
000000
000000
,
000000
000000
000000
000000
,
000000
000000
000000
000000
,
000000
000000
000000
000000
,
000000
000000
000000
000000
,
000000
000000
000000
000000
,
000000
000000
000000
000000
,
000000
000000
000000
000000
,
000000
000000
000000
000000
,
000000
000000
000000
000000
,
000000
000000
000000
000000
,
000000
000000
000000
000000
,
000000
000000
000000
000000
,
000000
000000
000000
000000
,
000000
000000
000000
000000
,
000000
000000
000000
000000
,
000000
000000
000000
000000
,
000000
000000
000000
000000
,
000000
000000
000000
000000
,
000000
000000
000000
000000
,
000000
000000
000000
000000
,
000000
000000
000000
000000
,
000000
000000
000000
000000
,
000000
000000
000000
000000
,
000000
000000
000000
000000
,
000000
000000
000000
000000
,
000000
000000
000000
000000
,
000000
000000
000000
000000
,
000000
000000
000000
000000
,
000000
000000
000000
000000
,
000000
000000
000000
000000
,
000000
000000
000000
000000
,
000000
000000
000000
000000
,
000000
000000
000000
000000
,
000000
000000
000000
000000
,
000000
000000
000000
000000
,
000000
000000
000000
000000
,
000000
000000
000000
000000
,
000000
000000
000000
000000
,
000000
000000
000000
000000
,
000000
000000
000000
000000
,
000000
000000
000000
000000
,
000000
000000
000000
000000
,
000000
000000
000000
000000
,
000000
000000
000000
000000
,
000000
000000
000000
000000
,
000000
000000
000000
000000
,
000000
000000
000000
000000
,
000000
000000
000000
000000
,
000000
000000
000000
000000
,
000000
000000
000000
000000
,
000000
000000
000000
000000
,
000000
000000
000000
000000
,
000000
000000
000000
000000
,
000000
000000
000000
000000
,
000000
000000
000000
000000
,
000000
000000
000000
000000
,
000000
000000
000000
000000
,
000000
000000
000000
000000
,
000000
000000
000000
000000
,
000000
000000
000000
000000
,
000000
000000
000000
000000
,
000000
000000
000000
000000
,
000000
000000
000000
000000
,
000000
000000
000000
000000
,
000000
000000
000000
000000
,
000000
000000
000000
000000
,
000000
000000
000000
000000
,
000000
000000
000000
000000
,
0M00M0
000000
000000
000000
;
