#TITLE:Lottery;
#SUBTITLE:;
#ARTIST:K Camp;
#TITLETRANSLIT:;
#SUBTITLETRANSLIT:;
#ARTISTTRANSLIT:;
#GENRE:;
#CREDIT:;
#MUSIC:lottery short.ogg;
#BANNER:;
#BACKGROUND:;
#CDTITLE:;
#SAMPLESTART:20.365;
#SAMPLELENGTH:12.000;
#SELECTABLE:YES;
#OFFSET:-0.029;
#BPMS:0.000=298.000
,14.000=149.000
,15.000=298.000
,141.000=149.000
,142.000=298.000
,156.000=149.000
,157.000=298.000
,265.000=149.000
,267.000=298.000
,281.000=149.000
,282.000=298.000
,392.000=149.000
,393.000=298.000
,407.000=149.000
,408.000=298.000
,468.000=149.000
,470.000=298.000
,482.000=149.000
,484.000=298.000
,496.000=149.000
,498.000=298.000
;
#STOPS:;
#BGCHANGES:;
#FGCHANGES:;

//--------------- dance-single - ----------------
#NOTES:
     dance-single:
     :
     Challenge:
     16:
     0.758135,0.876996,0.818529,0.01799,0,590,499,91,2,0,0,0.758135,0.876996,0.818529,0.01799,0,590,499,91,2,0,0:
0100
0001
0100
1000
,
0010
0001
0010
1000
,
1000
1000
1001
0000
,
0001
0001
1001
0010
,
0001
0000
0010
0001
0010
0000
0001
0000
,
1000
0000
0010
1000
0010
0000
1000
0000
,
0100
0000
0010
0100
0010
0000
1000
0000
,
0001
0101
0100
0110
,
0010
0100
0000
0001
,
0010
0001
0100
1000
,
0100
1100
1000
0010
,
0000
1010
1000
0101
,
0000
0000
0001
0100
0001
0000
0101
0000
,
0000
0000
1000
0100
1000
0000
1100
0000
,
0010
1000
0001
1001
,
0000
0001
1000
1001
,
1000
1010
0010
0110
,
0100
0101
0001
0011
,
0010
0110
0100
1100
,
1000
1001
0001
0011
,
0010
0001
0010
0001
,
0000
0100
1000
0010
,
1000
0100
1000
0001
,
1000
0100
0000
1100
,
1000
0010
0000
1010
,
1000
0001
0000
1001
,
0001
0100
1000
0100
,
0001
0100
0000
0110
,
0010
0100
0000
0110
,
1000
0001
0000
1000
,
0100
0010
0100
0010
,
0001
0010
0000
0001
,
0010
0001
0100
0010
,
1000
0000
0100
1000
0100
0000
1100
0000
,
1000
1010
0010
0110
,
0100
0000
0101
0001
0100
0000
0001
0000
,
1000
0000
1001
0100
,
0010
0000
0001
0010
,
0100
0000
0010
0000
1000
0000
0010
0100
,
0010
0110
0001
0010
,
0000
1000
0100
1000
,
0001
1000
0010
0001
,
0001
0010
1000
0100
,
1000
1100
0000
1010
,
0000
0001
0010
1000
,
1000
0010
0001
0010
,
0001
1000
0010
1000
,
0001
0100
0001
0000
0001
0000
0011
0000
,
0010
0110
0100
1100
,
1000
1001
0001
0101
,
0100
0110
0010
1010
,
1000
1001
0100
0110
,
0000
0010
1000
0010
,
0000
0010
1000
1001
,
1000
0010
1000
1010
,
1000
1100
1000
0001
,
0000
0001
1000
0010
,
0000
0001
0010
0011
,
0010
0001
0100
0101
,
0001
0011
0100
1000
,
0100
0010
0001
0100
,
0010
1000
0001
0101
,
0000
0010
0100
0110
,
0000
0101
1000
1100
,
0001
0011
1000
1010
,
1000
1100
0100
0110
,
0010
0011
1100
0101
,
0100
0010
0000
0001
,
0010
0100
0000
0010
,
0100
0110
1000
0001
,
1000
1001
1001
0100
,
0001
0000
0001
0010
,
0001
0000
0010
0001
,
0011
0100
0001
0010
,
0110
1000
1100
0000
,
1100
0000
0001
0010
,
0100
0010
1000
0010
,
0001
1000
0010
0100
,
0101
0100
1100
1000
,
0011
0001
1010
0010
,
0101
0010
1001
1000
,
0110
0001
1001
0100
,
0110
0000
0001
1000
0001
0000
1000
0000
,
0100
0000
0010
0001
,
0100
0000
0010
1000
,
0001
0100
0001
0000
0010
0000
0001
0000
,
1000
0000
1000
0100
,
0010
0000
0010
0100
,
1000
0000
0000
0000
0001
0000
0010
0001
,
0010
1000
0010
0100
,
0010
0000
1010
1000
,
0010
0000
0000
0000
1000
0000
0100
0010
,
0100
0000
0010
0001
,
0100
0001
0010
0001
,
0100
0000
1000
0100
,
0010
0100
1000
0010
,
0100
0010
0100
0000
0110
0000
1000
0000
,
1100
1000
0011
0001
,
0100
0001
1000
0000
0001
0000
1000
0000
,
0001
1000
0100
0010
,
0001
0100
0010
0100
,
0001
0000
0010
0000
0001
0100
0001
0000
,
0001
1000
0010
0100
,
0010
0100
1000
0010
,
0100
0010
0001
1000
,
0100
0000
0001
0010
0001
0000
0100
0000
,
0010
0001
0010
0000
,
0100
1000
0010
0000
,
1000
0000
0001
0010
0001
0000
0100
0000
,
0010
0100
0010
0000
1000
0000
0001
0000
,
0011
0001
0011
0010
,
0110
0100
1100
1000
,
1100
0100
0101
0001
,
0011
0010
1010
1000
,
1001
0000
0001
0000
1000
0001
1000
0000
,
0010
0000
1000
0000
0010
1000
0010
0000
,
0100
0000
0001
0000
0100
0001
0100
0000
,
0001
1000
1001
1000
,
0001
1000
0001
0000
0001
0000
0010
0000
,
0001
0010
0001
0000
1000
0000
0100
0000
,
1000
0100
1000
0000
0001
0000
1000
0000
,
0110
0000
0100
0000
0010
0100
0010
0000
,
1000
0000
0001
0000
0010
0001
0010
0000
,
0100
0010
0100
0000
1000
0000
0100
1000
,
0100
0001
0100
0001
,
0010
0001
0010
1000
,
0100
1000
1000
0001
,
1001
0000
0001
1000
,
0001
0000
2002
0000
,
0000
0000
0000
0000
,
3003
0000
0000
0000
;
