#VERSION:0.83;
#TITLE:Like It!;
#SUBTITLE:;
#ARTIST:BoA;
#TITLETRANSLIT:;
#SUBTITLETRANSLIT:;
#ARTISTTRANSLIT:;
#GENRE:K-POP;
#ORIGIN:;
#CREDIT:;
#BANNER:Like It!.png;
#BACKGROUND:Like It!-bg.png;
#PREVIEWVID:;
#JACKET:Like It!-jacket.png;
#CDIMAGE:;
#DISCIMAGE:;
#LYRICSPATH:;
#CDTITLE:;
#MUSIC:Like It!.ogg;
#OFFSET:0.020000;
#SAMPLESTART:45.381317;
#SAMPLELENGTH:17.572899;
#SELECTABLE:YES;
#BPMS:0.000=109.011;
#STOPS:;
#DELAYS:;
#WARPS:;
#TIMESIGNATURES:0.000=4=4;
#TICKCOUNTS:0.000=4;
#COMBOS:0.000=1;
#SPEEDS:0.000=1.000=0.000=0;
#SCROLLS:0.000=1.000;
#FAKES:;
#LABELS:0.000=Song Start;
#LASTSECONDHINT:119.727989;
#BGCHANGES:;
#KEYSOUNDS:;
#ATTACKS:
;

//---------------dance-single - Classic 9 | Modern 14----------------
#NOTEDATA:;
#CHARTNAME:;
#STEPSTYPE:dance-single;
#DESCRIPTION:Classic 9 | Modern 14;
#CHARTSTYLE:;
#DIFFICULTY:Hard;
#METER:14;
#RADARVALUES:0.575006,0.563038,0.244577,0.454215,0.538070,576.000000,541.000000,35.000000,65.000000,0.000000,0.000000,0.000000,0.000000,0.000000,0.575006,0.563038,0.244577,0.454215,0.538070,576.000000,541.000000,35.000000,65.000000,0.000000,0.000000,0.000000,0.000000,0.000000;
#CREDIT:DDRDAIKENKAI;
#NOTES:
// measure 0
0000
0000
0000
0000
,  // measure 1
2000
0000
3100
1000
0000
0100
0010
0001
,  // measure 2
0100
0000
0010
0000
2000
0000
0001
0000
3000
0001
0100
0001
1000
0001
0000
0020
,  // measure 3
0000
0030
0001
2000
3000
0000
0010
2000
,  // measure 4
3000
0000
0100
0020
0032
1003
2000
0000
,  // measure 5
3100
0000
0000
0000
0000
1000
0001
1000
0010
1000
0010
1000
0002
0000
0000
0000
,  // measure 6
1003
0000
0000
0000
0000
0010
0100
0010
1000
0001
1000
0001
0020
0000
0000
0000
,  // measure 7
0031
0000
0000
0000
0001
0100
0010
1000
0001
0000
0001
1000
0010
0000
0000
0000
,  // measure 8
1000
0000
1000
0010
0100
0000
0100
0010
1000
0000
0001
0000
0002
0000
0000
0000
,  // measure 9
1003
0000
0010
0000
1000
0001
0100
0010
0100
0000
0001
0000
0010
0000
0001
0000
,  // measure 10
1000
0000
0000
0000
1000
0010
0000
0010
1000
0001
0000
0001
1000
0020
0000
0000
,  // measure 11
1030
0000
0000
0000
2100
0000
0000
0000
3001
0000
0000
0000
0101
0000
0100
0001
,  // measure 12
0100
0000
0000
0000
0010
0000
0000
0000
1000
0000
0000
0000
0010
0000
0000
0000
0100
0000
0000
0000
0001
0000
0000
0000
2000
0000
0000
0000
0000
0000
3001
0000
0000
0000
0000
0000
1002
0000
0000
0000
0000
0000
0103
0000
0000
0010
0000
0000
,  // measure 13
0200
0000
0310
1000
0020
0000
0230
0000
0301
0000
1000
0000
1010
0000
1000
0100
,  // measure 14
0020
0000
0031
0010
0200
0000
2300
0000
3001
0000
1000
0000
1001
0000
0001
2000
,  // measure 15
0000
0000
3001
0020
0000
0000
0031
0200
0000
0000
0310
0000
0110
0000
0100
0002
,  // measure 16
0000
0000
1003
0020
0000
0000
1030
0002
0000
0000
0013
0000
0110
0000
0020
0000
,  // measure 17
0000
0000
0030
0000
0011
0000
1000
0100
0000
0000
1000
0000
1010
0000
0020
0000
,  // measure 18
0000
0030
0110
0200
0000
0301
1002
0000
,  // measure 19
1003
0010
1000
0010
0100
0010
0100
0001
1000
0000
0002
0000
0000
0000
0000
0000
,  // measure 20
0013
0000
0000
0000
0000
0000
0000
0000
0000
0010
0000
0000
0000
0000
0000
0000
0000
0000
0010
0000
0000
0000
0001
0000
1000
0000
0000
0000
0001
0000
1000
0000
0000
0000
0000
0000
1001
0000
0000
0000
0000
0000
0100
0000
0000
0000
0000
0000
,  // measure 21
0120
0000
0000
0000
0000
0000
0000
0000
0000
0030
1000
0000
0001
0000
0000
0000
0000
0000
0100
0000
0000
0000
0000
0000
0010
0000
0000
0000
0000
0000
0000
0000
0000
0000
0000
0000
1002
0000
0000
0000
0000
0000
0000
0000
0000
0000
0000
0000
,  // measure 22
1003
0010
1000
0001
1000
0000
0100
0000
0010
0000
0001
0000
1000
0000
0100
0000
,  // measure 23
0020
0000
0000
0000
0000
0000
0000
0000
0000
0030
0001
0000
1000
0000
0000
0000
0000
0000
0001
0000
0000
0000
0000
0000
0100
0000
0000
0000
0000
0000
0000
0000
0000
0000
0000
0000
0120
0000
0000
0000
0000
0000
0000
0000
0000
0000
0000
0000
,  // measure 24
0130
0001
1000
0020
0000
1000
1030
0001
,  // measure 25
0100
0000
0110
0100
0001
0020
0100
0030
,  // measure 26
1000
0010
0001
0020
1000
1030
1001
1000
,  // measure 27
0100
0000
0000
0000
0010
0001
0010
0001
1000
0000
0100
0000
0110
0000
0000
0000
,  // measure 28
0100
0000
0000
1000
0000
0000
0100
0000
0000
1000
0000
0000
0001
0000
0000
0100
0000
0000
0010
0000
0000
0000
0000
0000
1000
0000
0000
0000
1000
0000
0001
0000
0000
0000
0000
0000
1000
0000
0000
0000
2000
0000
0000
0000
0000
0000
0000
0000
,  // measure 29
3001
0000
0010
0000
0000
0010
0001
0000
0010
0000
0000
0010
0001
0000
0000
0100
0000
0000
0110
0000
0000
0010
0000
0010
,  // measure 30
1000
0000
0100
0000
0000
0100
1000
0000
0100
0000
0000
0100
1000
0000
0000
0010
0000
0000
0110
0000
0000
0100
0000
0100
,  // measure 31
0010
0000
1000
0000
0000
1000
0010
0000
1000
0000
0000
1000
0010
0000
0000
0100
0000
0000
0001
0000
0020
0000
0000
0000
,  // measure 32
0031
0000
0100
0000
0000
0100
0001
0000
0100
0000
0000
0100
0001
0000
0000
1000
0000
0000
2001
0000
0000
0000
0000
0000
,  // measure 33
3002
0000
0000
0000
0000
0000
0000
0000
0000
0000
0000
0000
0013
0000
0000
0000
0000
0000
0000
0000
0000
0010
0000
0000
0100
0000
0000
0000
0000
0000
0000
0000
0000
0100
0000
0000
1000
0000
0000
0000
1000
0000
0000
0000
1000
0000
0000
0000
,  // measure 34
0002
0000
0000
1000
0000
0000
1003
0000
0001
0000
0100
0000
0020
0000
0000
1030
,  // measure 35
0001
0000
0000
0000
1000
0000
0000
1000
0010
0000
0000
0010
0100
0000
0000
0100
,  // measure 36
0001
0010
0001
0000
0001
0000
2000
0000
0100
0000
3100
0000
0110
0000
0100
2000
,  // measure 37
0000
0000
3001
0000
0100
0000
0010
0000
1000
0000
1000
0000
0010
0100
0010
1000
,  // measure 38
0000
1000
0001
0000
0020
0000
0000
0000
0031
0000
0000
0000
0100
0000
0010
2000
,  // measure 39
0000
0000
3001
0000
0010
0000
1000
0000
0010
0000
0001
0000
1000
0010
1000
0000
,  // measure 40
0001
0000
0000
0100
0000
0000
0001
0000
0000
0000
0000
0000
1000
0000
0000
0000
0000
0000
0100
0000
0000
0000
0100
0000
0010
0000
0000
0000
0001
0000
0010
0000
0000
0000
0000
0000
0022
0000
0000
0000
0000
0000
0033
0000
0000
0000
0000
0000
,  // measure 41
1100
0010
0001
0100
1000
0010
0001
0100
,  // measure 42
1000
0100
0001
0100
0010
0010
0220
0330
,  // measure 43
0101
0010
1000
0100
0001
0010
1000
0100
,  // measure 44
0001
0000
0000
0100
0000
0000
1000
0000
0000
0100
0000
0000
0010
0000
0000
0010
0000
0000
0001
1000
0001
1000
0000
0000
,  // measure 45
0100
0000
0000
0000
0000
0000
1000
0001
1000
0001
0000
0000
0100
0000
0000
0000
0000
0000
0001
1000
0001
1000
0000
0000
,  // measure 46
0100
0010
1000
0001
0100
0010
0110
0000
,  // measure 47
0010
0000
0000
0001
0000
0000
1000
0000
0000
0010
0000
0000
0001
0000
0000
0010
0000
0000
1000
0100
1000
0100
0000
0000
,  // measure 48
0011
0000
0000
0000
0000
0000
1100
0000
0000
0100
0000
0100
0010
0000
0100
0010
0000
0000
0001
0000
0001
0200
0000
0000
,  // measure 49
0010
0000
0000
0310
0000
0000
1000
0000
0001
0000
0000
0000
1002
0000
0000
0000
,  // measure 50
1003
0010
1000
0001
0100
0000
0010
0000
0100
0000
0001
0000
1000
0000
0100
0000
,  // measure 51
0020
0000
0000
0001
0000
0000
0031
0000
0000
1000
0000
0000
0100
0000
0000
0000
0000
1000
0001
0000
0000
0000
0000
0000
,  // measure 52
1000
0010
1000
0002
0100
0103
0010
1000
,  // measure 53
0100
0000
0000
0000
0000
0100
0010
0000
0000
0100
0000
0000
1000
0000
0000
0020
0000
0000
0001
0000
0000
0030
0000
0000
,  // measure 54
1000
0100
0001
0020
0100
0130
1100
1000
,  // measure 55
0001
0000
0000
0000
0001
1000
0001
1000
0100
0000
0020
0000
0031
0000
0000
0000
,  // measure 56
1000
0000
0000
0010
0000
0000
1000
0000
0000
0010
0000
0000
0100
0000
0000
0001
0000
0000
1000
0000
0000
0000
0000
0000
0001
0000
0000
0000
0001
0000
1000
0000
0000
0000
0000
0000
0001
0000
0000
0000
0002
0000
0000
0000
0000
0000
0000
0000
,  // measure 57
0013
0000
0100
0000
0000
0100
0010
0000
0100
0000
0000
0100
1000
0000
0000
0010
0000
0000
0110
0000
0000
0010
0000
1000
,  // measure 58
0001
0000
0100
0000
0000
0100
0010
0000
0100
0000
0000
0100
0001
0000
0000
1000
0000
0000
1001
0000
0000
0001
0000
0010
,  // measure 59
0100
0000
0010
0000
0000
0010
0100
0000
0010
0000
0000
0010
0001
0000
0000
1000
0000
0000
0010
0000
0200
0000
0000
0000
,  // measure 60
0301
0000
1000
0000
0000
1000
0001
0000
1000
0000
0000
1000
0001
0000
0000
0100
0000
0000
0001
0000
0020
0000
0000
0000
,  // measure 61
0031
0000
1000
0000
0000
1000
0001
0000
1000
0000
0000
1000
0010
0000
0000
0100
0000
0000
0110
0000
0000
0100
0000
0010
,  // measure 62
1000
0000
0001
0000
0000
0001
1000
0000
0001
0000
0000
0001
1000
0000
0000
0100
0000
0000
0110
0000
0000
0010
0000
0100
,  // measure 63
1000
0000
0001
0000
0000
0001
1000
0000
0001
0000
0000
0001
1000
0000
0000
0010
0000
0000
0100
0000
0002
0000
0000
0000
,  // measure 64
2003
0000
0000
0000
0000
0000
0000
0000
0000
0000
0000
3000
0000
0000
0000
0000
0000
0000
0000
0000
0000
0000
0000
0000
;

//---------------dance-single - Classic 6 | Moden 9----------------
#NOTEDATA:;
#CHARTNAME:;
#STEPSTYPE:dance-single;
#DESCRIPTION:Classic 6 | Moden 9;
#CHARTSTYLE:;
#DIFFICULTY:Medium;
#METER:9;
#RADARVALUES:0.362374,0.382865,0.153734,0.237589,0.090843,363.000000,341.000000,22.000000,34.000000,0.000000,0.000000,0.000000,0.000000,0.000000,0.362374,0.382865,0.153734,0.237589,0.090843,363.000000,341.000000,22.000000,34.000000,0.000000,0.000000,0.000000,0.000000,0.000000;
#CREDIT:DDRDAIKENKAI;
#NOTES:
// measure 0
0000
0000
0000
0000
,  // measure 1
2000
0000
0000
3001
0000
0100
0000
0010
,  // measure 2
0000
0000
0000
1000
0000
0000
1000
0000
0000
0000
0010
0000
0000
0000
0100
0000
,  // measure 3
0001
0000
0000
1000
0000
0100
0000
0010
,  // measure 4
0000
0000
0000
0001
0000
0000
0001
0000
0000
0000
1000
0000
1000
0000
0000
0000
,  // measure 5
0001
0000
0000
0001
0000
0100
0000
0001
,  // measure 6
0000
0000
0000
1000
0000
0000
1000
0000
0000
0000
0001
0000
0000
0000
0010
0000
,  // measure 7
0100
0000
0000
0010
0000
0010
0000
0001
,  // measure 8
0000
0000
0000
1000
0000
0000
1000
0000
0001
0000
0100
0000
0020
0000
0000
0000
,  // measure 9
1030
0000
0001
1000
0100
0010
0001
0000
,  // measure 10
1000
0000
0000
0000
0010
0000
0000
0010
1000
0000
0000
1000
0001
0000
0000
0000
,  // measure 11
1000
1010
0001
0021
,  // measure 12
0130
0010
0100
0010
0002
0000
1003
0000
,  // measure 13
0010
1000
0001
1000
0200
0000
0310
0000
,  // measure 14
0010
0001
1000
0001
0200
0000
0310
0000
,  // measure 15
0100
0101
1001
1100
,  // measure 16
0010
0011
1001
1100
,  // measure 17
0020
1000
0030
1000
,  // measure 18
0002
1000
0003
1000
,  // measure 19
0001
0000
0010
0000
0100
1000
0001
0000
,  // measure 20
0100
0000
0000
0100
0000
0000
0100
0000
0010
0000
0000
0000
0110
0000
0000
0000
,  // measure 21
1002
0000
0103
0010
2000
0000
3100
0000
,  // measure 22
0010
0001
0010
0001
1000
0000
0100
0000
,  // measure 23
0020
0000
0031
1000
0200
0000
1300
0000
,  // measure 24
0010
1000
0010
1000
0000
0001
0100
0001
,  // measure 25
1000
0000
0001
0010
0100
1000
0001
0000
,  // measure 26
1000
0100
0010
0001
1000
0000
0010
0010
,  // measure 27
0100
0000
0010
0100
0010
1000
0001
0000
,  // measure 28
0100
0010
0100
0001
1000
0000
1002
0000
,  // measure 29
1003
0000
0000
0000
0000
1000
0000
0000
0000
1000
0000
0000
0000
0000
0000
0002
0000
0000
2003
0000
0000
0000
0000
0000
,  // measure 30
3100
0000
0000
0000
0000
0000
0000
0000
0000
0000
0100
0000
0000
0000
0000
0000
0000
0000
0100
0000
0000
0000
0000
0000
0000
0000
0000
0000
0000
0000
0000
0000
0000
0010
0000
0000
0000
0000
0000
0000
0000
0000
0001
0000
0000
0000
0000
0000
,  // measure 31
0010
0000
0000
0000
0000
0010
0000
0000
0000
0010
0000
0000
0000
0000
0000
0002
0000
0000
2003
0000
0000
0000
0000
0000
,  // measure 32
3001
0000
0000
0000
0000
0001
0000
0000
0000
0002
0000
0000
0000
0000
0000
0100
0000
0000
0203
0000
0000
0000
0000
0000
,  // measure 33
0020
0000
0000
0330
,  // measure 34
0100
0000
0000
0100
0000
0000
0100
0000
0010
0000
1000
0000
0002
0000
0000
0000
,  // measure 35
1003
0000
0000
0100
0000
0000
0010
0000
0002
0000
0000
0000
2003
0000
0000
0000
,  // measure 36
3200
0000
0000
1000
0000
0000
1000
0300
2000
0000
0000
0000
3010
0000
0100
0000
,  // measure 37
0010
0000
0000
0010
0000
0000
0010
0000
0100
0000
0001
0000
1000
0000
0100
0000
,  // measure 38
0010
0000
0000
0010
0000
0000
0010
0000
0002
0000
0000
0000
1003
0000
0000
0000
,  // measure 39
0001
0000
0000
0001
0000
0000
0001
0000
0010
0000
0100
0000
2000
0000
0000
0000
,  // measure 40
3010
0110
1010
2001
,  // measure 41
3001
0100
0010
0100
0001
1000
0100
0000
,  // measure 42
0010
0001
0010
0100
0010
0001
1000
0000
,  // measure 43
0001
1000
0100
1000
0001
1000
0010
0000
,  // measure 44
1000
0010
0100
0010
1000
0010
1000
0000
,  // measure 45
0101
0010
0101
1000
,  // measure 46
0101
0100
0010
0100
0001
1000
0100
0000
,  // measure 47
0010
0001
0010
0001
0100
0010
1000
0000
,  // measure 48
1010
0000
0110
0000
0101
0001
0100
0010
,  // measure 49
1000
0000
0000
1000
0000
0000
0000
0000
0100
0000
0000
0000
1002
0000
0000
0000
,  // measure 50
0013
0001
0010
0001
1000
0000
0100
0000
,  // measure 51
0010
0001
0001
0000
2000
0000
3010
0000
,  // measure 52
0100
0010
0100
0001
1000
0000
0100
1000
,  // measure 53
0100
0000
1000
0001
0100
0010
1000
0000
,  // measure 54
1000
0010
0100
0001
1000
0000
1000
0001
,  // measure 55
0100
0000
0001
0010
0001
0010
0100
0000
,  // measure 56
1000
0010
1000
0010
1000
0000
1002
0000
,  // measure 57
1003
0000
0000
0000
0000
1000
0000
0000
0000
1000
0000
0000
0001
0000
0000
0010
0000
0000
0100
0000
0000
0000
0000
0000
,  // measure 58
0010
0000
0000
0000
0000
0010
0000
0000
0000
0010
0000
0000
0001
0000
0000
1000
0000
0000
0010
0000
0000
0000
0000
0000
,  // measure 59
0100
0000
0000
0000
0000
0100
0000
0000
0000
0100
0000
0000
0010
0000
0000
1000
0000
0000
2000
0000
0000
0000
0000
0000
,  // measure 60
3001
0000
0000
0000
0000
0001
0000
0000
0000
0001
0000
0000
0010
0000
0000
0001
0000
0000
1000
0000
0000
0000
0000
0000
,  // measure 61
0010
0000
0000
0000
0000
0100
0000
0000
0000
0001
0000
0000
1000
0000
0000
0100
0000
0000
0010
0000
0000
0000
0000
0000
,  // measure 62
0001
0000
0000
0000
0000
1000
0000
0000
0000
0010
0000
0000
1000
0000
0000
0001
0000
0000
0010
0000
0000
0000
0000
0000
,  // measure 63
0100
0000
0000
0000
0000
0100
0000
0000
0000
0100
0000
0000
0010
0000
0000
0001
0000
0000
2000
0000
0000
0000
0000
0000
,  // measure 64
0002
0000
0000
0000
0000
0000
0000
0000
0000
0000
0000
3003
0000
0000
0000
0000
0000
0000
0000
0000
0000
0000
0000
0000
;

//---------------dance-single - Classic 4 | Moden 6----------------
#NOTEDATA:;
#CHARTNAME:;
#STEPSTYPE:dance-single;
#DESCRIPTION:Classic 4 | Moden 6;
#CHARTSTYLE:;
#DIFFICULTY:Easy;
#METER:6;
#RADARVALUES:0.269534,0.292780,0.076867,0.251565,0.000000,270.000000,259.000000,11.000000,36.000000,0.000000,0.000000,0.000000,0.000000,0.000000,0.269534,0.292780,0.076867,0.251565,0.000000,270.000000,259.000000,11.000000,36.000000,0.000000,0.000000,0.000000,0.000000,0.000000;
#CREDIT:DDRDAIKENKAI;
#NOTES:
// measure 0
0000
0000
0000
0000
,  // measure 1
0002
0003
0000
1000
,  // measure 2
0100
0100
0000
1000
,  // measure 3
0020
0000
0030
1000
0000
0000
0000
0001
,  // measure 4
0000
0000
0000
1000
1000
0000
0002
0000
,  // measure 5
1003
0000
0000
0100
0100
0000
0020
0000
,  // measure 6
0031
0000
0000
0100
0100
0000
0020
0000
,  // measure 7
1030
0001
0100
0100
,  // measure 8
0001
1000
0100
2000
,  // measure 9
3001
0000
0010
0000
0100
1000
0100
0000
,  // measure 10
0010
0001
0100
0010
,  // measure 11
1000
1100
0001
0101
,  // measure 12
1000
1000
0002
1003
,  // measure 13
0010
0100
0020
1030
,  // measure 14
0100
0010
0200
1300
,  // measure 15
0001
0010
0100
1000
,  // measure 16
0010
0100
0001
2000
,  // measure 17
0000
0100
0000
0010
,  // measure 18
0000
0001
0000
3001
,  // measure 19
1000
1000
0001
0001
,  // measure 20
0100
0100
0010
0110
,  // measure 21
1002
0103
0020
1030
,  // measure 22
0001
0001
0001
1000
,  // measure 23
0200
0310
0002
1003
,  // measure 24
0010
1000
0001
0100
,  // measure 25
0010
0100
0001
1000
,  // measure 26
0100
0010
0001
1000
,  // measure 27
0001
0100
0010
0010
,  // measure 28
1000
0001
1000
1002
,  // measure 29
1003
0000
1000
0000
1000
0001
1000
0000
,  // measure 30
0001
0000
0001
0000
0001
1000
0001
0000
,  // measure 31
0100
0000
0100
0000
0100
0010
0200
0000
,  // measure 32
0310
0010
0020
2030
,  // measure 33
0002
0000
0000
3003
,  // measure 34
1002
0000
0000
0000
0103
0100
0100
0000
,  // measure 35
0010
2000
3002
0023
,  // measure 36
0031
0001
0001
0000
0002
0000
2003
0000
,  // measure 37
3100
0100
1000
0001
,  // measure 38
0010
0010
0020
0000
0030
0000
0001
0000
,  // measure 39
1000
0100
0010
0001
,  // measure 40
1000
0001
2000
0000
3001
0000
1002
0000
,  // measure 41
1003
0001
0100
0010
,  // measure 42
1000
0001
1000
0000
0001
1000
0001
0000
,  // measure 43
1000
0010
0100
0001
,  // measure 44
1000
0001
1000
0000
0001
0000
1000
0000
,  // measure 45
0110
0001
0110
1000
,  // measure 46
0110
0000
0001
0000
0100
0010
0100
0000
,  // measure 47
0001
0001
1000
0010
,  // measure 48
0120
0000
0000
0000
0000
1000
1030
0000
,  // measure 49
0002
0000
0000
1000
2000
0000
3003
0000
,  // measure 50
0001
0010
0100
1000
,  // measure 51
0020
0000
0000
0100
0200
0000
0330
0000
,  // measure 52
0001
1000
0100
0010
,  // measure 53
0001
0000
1000
0000
0001
1000
0001
0000
,  // measure 54
1000
0000
0001
0000
1000
0001
1000
0000
,  // measure 55
0010
0000
0100
0000
0010
0010
0010
0000
,  // measure 56
0100
0000
0100
0000
0100
0100
0200
0000
,  // measure 57
0301
0000
1000
0000
0001
1000
0001
0000
,  // measure 58
1000
0000
0001
0000
1000
0001
1000
0000
,  // measure 59
0010
0000
0100
0000
0010
0100
0010
0000
,  // measure 60
0100
0000
0010
0000
0100
0010
0100
0000
,  // measure 61
0001
0000
0010
0000
0001
0010
0001
0000
,  // measure 62
1000
0000
0100
0000
1000
0100
1000
0000
,  // measure 63
0010
0000
0010
0000
0010
0100
0020
0000
,  // measure 64
0200
0000
0000
0000
0000
0000
0000
0000
0000
0000
0000
0330
0000
0000
0000
0000
0000
0000
0000
0000
0000
0000
0000
0000
;
