#VERSION:0.83;
#TITLE:Life on the Mothership;
#SUBTITLE:;
#ARTIST:Daaam!!!;
#TITLETRANSLIT:;
#SUBTITLETRANSLIT:;
#ARTISTTRANSLIT:;
#GENRE:;
#ORIGIN:;
#CREDIT:;
#BANNER:Life on the Mothership.png;
#BACKGROUND:Life on the Mothership-bg.png;
#PREVIEWVID:;
#JACKET:Life on the Mothership-jacket.png;
#CDIMAGE:;
#DISCIMAGE:;
#LYRICSPATH:;
#CDTITLE:;
#MUSIC:Life on the Mothership.ogg;
#OFFSET:-0.560000;
#SAMPLESTART:32.553181;
#SAMPLELENGTH:16.000000;
#SELECTABLE:YES;
#BPMS:0.000=120.000,
96.000=60.000,
112.000=120.000;
#STOPS:;
#DELAYS:;
#WARPS:;
#TIMESIGNATURES:0.000=4=4;
#TICKCOUNTS:0.000=4;
#COMBOS:0.000=1;
#SPEEDS:0.000=1.000=0.000=0;
#SCROLLS:0.000=1.000;
#FAKES:;
#LABELS:0.000=Song Start;
#BGCHANGES:;
#KEYSOUNDS:;
#ATTACKS:
;

//---------------dance-single - ----------------
#NOTEDATA:;
#CHARTNAME:;
#STEPSTYPE:dance-single;
#DESCRIPTION:;
#CHARTSTYLE:;
#DIFFICULTY:Hard;
#METER:12;
#RADARVALUES:0.447149,0.590435,0.478478,0.269144,0.264160,314.000000,266.000000,48.000000,27.000000,25.000000,0.000000,0.000000,0.000000,0.000000,0.447149,0.590435,0.478478,0.269144,0.264160,314.000000,266.000000,48.000000,27.000000,25.000000,0.000000,0.000000,0.000000,0.000000;
#CREDIT:;
#NOTES:
// measure 0
0000
0000
0000
0000
,  // measure 1
0000
0000
0000
0000
,  // measure 2
0000
0000
0000
0000
,  // measure 3
0000
0000
0000
0000
,  // measure 4
1000
0000
0000
0000
0000
0000
0000
0000
1000
0000
0000
0010
0000
0000
0100
0000
,  // measure 5
0000
0000
0100
0100
,  // measure 6
0001
0000
0000
0000
0000
0000
0000
0000
0001
0000
0000
0010
0000
0000
0100
0000
,  // measure 7
0110
0000
0110
0000
0001
1000
0000
0000
0110
0000
0000
1000
0001
0000
1001
0000
,  // measure 8
1000
0010
0011
0000
1000
0100
0101
1000
,  // measure 9
0001
0010
1010
0000
0110
0000
0011
0000
,  // measure 10
1000
0010
0011
0000
1000
0100
0101
2000
,  // measure 11
0100
0100
3001
0110
,  // measure 12
0001
0010
1010
0000
0001
0100
1100
0001
,  // measure 13
1000
0010
0011
0000
0010
0010
0110
0100
,  // measure 14
0002
0000
1003
0020
0001
0000
1000
0000
,  // measure 15
0031
0000
0010
0000
1010
0000
0001
0000
0000
0001
0000
0001
0000
0001
1000
0001
,  // measure 16
0010
0000
1000
0000
0001
0000
1000
0000
0010
0000
0100
1000
0000
0010
0100
0000
,  // measure 17
0010
0000
0001
0000
1000
0000
0001
0000
0010
0000
0100
0001
0100
0010
0000
0000
,  // measure 18
0010
0100
1000
0000
0001
0000
1000
0000
0100
0000
0010
1000
0000
0100
0010
0000
,  // measure 19
0022
0033
0220
0330
2200
3300
1002
0000
,  // measure 20
0103
0000
1000
0000
0001
0000
1000
0000
0100
0000
0010
1000
0000
0100
0010
0000
,  // measure 21
0100
0000
0001
0000
1000
0000
0001
0000
0100
0000
0010
0001
0010
0000
0000
0000
,  // measure 22
0001
2000
3020
0032
,  // measure 23
0203
2300
3002
0203
,  // measure 24
0320
0000
0000
0000
0000
0000
0000
0000
0100
0000
0000
0100
0000
0000
2030
0000
0000
0000
0010
0000
0000
0000
0000
0000
0010
0000
0000
0000
0010
0000
0000
0000
,  // measure 25
3002
0000
0000
0000
0000
0000
0000
0000
1000
0000
0000
1000
0000
0000
0020
0000
0000
0000
0000
0000
0000
0000
0000
0000
0000
0000
0000
0000
0033
0000
0000
0000
,  // measure 26
0020
0000
0000
0000
0000
0000
0000
0000
0100
0000
0000
0100
0000
0000
0032
0000
0000
0000
0000
0000
0000
0000
0000
0000
0010
0000
0010
0000
1000
0000
1003
0000
,  // measure 27
0020
0000
0000
0000
0000
0000
0000
0000
0000
0000
0000
0000
0000
0000
0000
0000
1030
0000
1010
0000
0000
1001
0000
0000
0011
0000
0000
0110
0000
0000
0011
0000
,  // measure 28
0001
0100
1100
0100
0001
0010
1010
0010
,  // measure 29
0001
0100
1100
0100
0001
0010
0110
0000
,  // measure 30
1000
0010
0011
0010
1000
0100
0101
0100
,  // measure 31
1000
0000
0010
0000
0011
0000
0010
0000
1000
0000
0100
0000
0010
0100
0010
0000
,  // measure 32
1001
0000
1000
0010
0000
M010
0001
0000
1001
0000
0001
0010
0000
001M
1000
0000
,  // measure 33
1001
0000
1000
0010
0000
M010
0001
0000
1000
0000
1000
0000
0001
0000
0001
0000
,  // measure 34
1001
0000
0001
0100
0000
010M
1000
0000
1001
0000
1000
0100
0000
M100
0001
0000
,  // measure 35
1000
0000
0001
0010
0100
0000
0010
0000
0001
0000
0100
0000
0010
0100
0010
0000
,  // measure 36
0110
0000
0000
0000
MMMM
0000
0000
0000
1001
0000
0001
0010
0000
0010
0100
0000
,  // measure 37
1000
0001
MMMM
0000
1001
0000
MMMM
0000
,  // measure 38
0110
0000
0000
0000
MMMM
0000
0000
0000
1000
0000
1000
0001
0000
1000
0200
0010
,  // measure 39
0000
0001
0010
1300
,  // measure 40
0001
0000
0000
0000
MMMM
0000
0000
0000
0001
0000
0001
0100
0000
0100
0010
0000
,  // measure 41
0000
0010
0110
0000
0100
0100
0110
0010
,  // measure 42
2000
0000
3001
0200
1000
0000
0001
0000
,  // measure 43
1300
0000
1100
0000
0000
0110
0000
0000
0101
0000
0000
0001
1000
0000
1001
0000
;

//---------------dance-single - ----------------
#NOTEDATA:;
#CHARTNAME:;
#STEPSTYPE:dance-single;
#DESCRIPTION:;
#CHARTSTYLE:;
#DIFFICULTY:Medium;
#METER:9;
#RADARVALUES:0.286233,0.349887,0.159493,0.199366,0.069778,201.000000,185.000000,16.000000,20.000000,0.000000,0.000000,0.000000,0.000000,0.000000,0.286233,0.349887,0.159493,0.199366,0.069778,201.000000,185.000000,16.000000,20.000000,0.000000,0.000000,0.000000,0.000000,0.000000;
#CREDIT:;
#NOTES:
0000
0000
0000
0000
,
0000
0000
0000
0000
,
0000
0000
0000
0000
,
0000
0000
0000
0000
,
0001
0000
0000
0000
0000
0000
0000
0000
0001
0000
0000
0010
0000
0000
0100
0000
,
0000
0000
0100
0100
,
1000
0000
0000
0000
0000
0000
0000
0000
1000
0000
0000
0010
0000
0000
0100
0000
,
0010
0000
0010
0000
0000
0100
0000
0000
0100
0000
0000
0100
0000
0000
0100
0000
,
0001
0010
1000
0000
0100
0001
0010
0000
,
0001
0100
1000
0000
0010
0001
0100
0000
,
1000
0010
0001
0000
1000
0010
0100
0020
,
0000
0000
0100
1030
,
1000
0100
0001
0000
0010
1000
0100
0000
,
1000
0010
0001
0000
0001
0010
0100
0001
,
0200
0000
0000
0002
0000
0000
0303
0000
,
0001
0000
0010
0000
0100
0000
1000
0000
0000
0001
0000
1000
0000
0000
1000
0000
,
0001
0010
0001
0000
0010
1000
0010
0000
,
1000
0100
1000
0000
0100
0001
0100
0001
,
1000
0100
1000
0000
0100
0001
0100
2000
,
0001
3002
2003
3002
,
1003
0010
1000
0000
0010
0001
0010
0000
,
0001
0100
0001
0000
0100
1000
0100
0000
,
2000
0001
0010
0001
,
0100
0001
0010
3002
,
2003
0000
0000
0000
0000
0000
0000
0200
0000
3000
0000
0000
0000
0000
0010
0000
,
0020
0000
0000
0000
0300
0000
0000
0002
0000
0000
0000
0000
0000
0000
0033
0000
,
0002
0000
0000
0000
0000
0000
0000
0200
0000
0000
0003
0000
0010
0000
0010
0000
,
0002
0000
0000
0300
1003
0100
0001
0010
,
1000
0101
1000
0011
,
1000
0101
1000
0100
,
0010
1100
0010
0101
,
0010
1100
0010
0101
,
0010
0100
0001
0100
0100
0000
0011
0000
,
0010
0100
1000
0100
0100
0000
1010
0000
,
0210
1000
0010
1000
,
0010
0001
0010
0301
,
0001
0000
0000
0000
0011
0000
0000
0000
0010
0000
0000
0100
0000
0000
1000
0000
,
0000
1001
1000
1010
,
0100
0000
0000
0000
0110
0000
0000
0000
1000
0000
0000
0100
0000
0000
0020
0000
,
0000
0100
0001
0130
,
1000
0000
0000
0000
0000
0000
0000
0000
1000
0000
0000
0010
0000
0000
0001
0000
,
0000
0000
0000
0000
0001
0010
0100
0001
,
0200
0000
0000
0002
0000
0000
0303
0000
,
0001
0000
0001
0000
0000
0110
0000
0000
1000
0000
0000
0110
0000
0000
1000
0000
;

//---------------dance-single - ----------------
#NOTEDATA:;
#CHARTNAME:;
#STEPSTYPE:dance-single;
#DESCRIPTION:;
#CHARTSTYLE:;
#DIFFICULTY:Easy;
#METER:5;
#RADARVALUES:0.253480,0.371755,0.229271,0.209334,0.000000,178.000000,155.000000,23.000000,21.000000,0.000000,0.000000,0.000000,0.000000,0.000000,0.253480,0.371755,0.229271,0.209334,0.000000,178.000000,155.000000,23.000000,21.000000,0.000000,0.000000,0.000000,0.000000,0.000000;
#CREDIT:;
#NOTES:
0000
0000
0000
0000
,
0000
0000
0000
0000
,
0000
0000
0000
0000
,
0000
0000
0000
0000
,
1000
0000
1000
1000
,
1000
0000
0010
0010
,
0100
0000
0001
0001
,
1001
0011
1001
1010
,
0100
1010
0100
1010
,
0010
1100
0010
1100
,
1000
0110
1000
0110
,
1002
0000
1000
1003
,
0010
0101
0010
0101
,
0010
0101
0010
0010
,
2000
0010
0001
0010
,
3001
0001
1000
1000
,
0200
0000
0010
0000
0001
0000
0000
0302
,
0000
0100
0100
2003
,
3020
0100
1000
0130
,
1000
2000
3002
2003
,
3020
0000
0100
0000
0001
0000
0000
0032
,
0000
0010
0010
0013
,
2000
0001
0010
0100
,
0010
0001
0100
3001
,
1000
1000
0010
0010
0001
0001
0100
0100
,
0001
0001
0010
0010
1000
1000
0100
0010
,
0001
0001
0100
0100
1000
1000
0100
0100
,
0002
0000
0000
0000
1003
0001
1000
0001
,
1000
1010
0010
0011
,
0001
0101
0100
0020
,
0230
0000
0000
0000
0000
0000
0000
0302
,
0000
1000
0010
1003
,
0001
0101
0100
1100
,
1000
1010
0010
0010
,
0002
0000
0000
0000
,
1000
1000
0010
0010
,
1003
0000
1000
0010
,
0100
0000
0100
1000
,
0001
0000
0001
0100
,
0020
0000
0100
0130
,
0010
0000
0010
0010
,
0001
0000
0100
0100
,
0002
0100
1000
0103
,
0001
0000
1100
0000
0101
0000
2002
3003
;

//---------------dance-single - ----------------
#NOTEDATA:;
#CHARTNAME:;
#STEPSTYPE:dance-single;
#DESCRIPTION:;
#CHARTSTYLE:;
#DIFFICULTY:Beginner;
#METER:3;
#RADARVALUES:0.168037,0.218680,0.229271,0.079746,0.000000,118.000000,95.000000,23.000000,8.000000,0.000000,0.000000,0.000000,0.000000,0.000000,0.168037,0.218680,0.229271,0.079746,0.000000,118.000000,95.000000,23.000000,8.000000,0.000000,0.000000,0.000000,0.000000,0.000000;
#CREDIT:;
#NOTES:
0000
0000
0000
0000
,
0000
0000
0000
0000
,
0000
0000
0000
0000
,
0000
0000
0000
0000
,
0001
0000
0001
0001
,
0001
0000
0100
0100
,
0100
0000
0010
0010
,
0010
0000
1000
1000
,
0000
1001
0000
0110
,
0000
1001
0000
0110
,
0000
1001
0000
0000
,
0020
0000
0030
0010
,
0000
0110
0000
1001
,
0000
0110
0000
0010
,
0020
0000
0000
0030
,
0010
0010
0000
1000
,
1000
0001
1000
0001
,
0000
0001
1000
0001
,
0001
1000
0001
1000
,
0001
0001
0001
0001
,
0001
1000
0001
1000
,
0000
1000
0001
1000
,
2000
0000
0000
0000
,
0000
0000
0000
3000
,
1000
0000
0010
0000
,
0100
0000
0000
0000
0002
0000
0000
0003
,
0001
0000
0010
0000
,
0200
0000
0000
0000
0000
0000
0000
0300
,
0000
0110
0000
0011
,
0000
1001
0000
1010
,
0000
0110
0000
1010
,
0000
1001
0000
0110
,
0000
0110
0000
1010
,
0000
1001
0000
0011
,
0000
0110
0000
1100
,
0000
1001
0000
0001
,
0001
0000
0001
0001
,
0001
0000
1000
1000
,
1000
0000
0010
0010
,
0020
0000
0030
0010
,
0010
0000
0100
0100
,
0100
0000
0010
0010
,
0020
0000
0000
0030
,
0100
0000
0100
0000
0001
0000
0002
0003
;
