#TITLE:Levitating;
#SUBTITLE:;
#ARTIST:Dua Lipa;
#TITLETRANSLIT:;
#SUBTITLETRANSLIT:;
#ARTISTTRANSLIT:;
#GENRE:;
#CREDIT:;
#BANNER:Levitating.png;
#BACKGROUND:Levitating-bg.png;
#LYRICSPATH:;
#CDTITLE:;
#MUSIC:Levitating.ogg;
#OFFSET:-0.000000;
#SAMPLESTART:36.807762;
#SAMPLELENGTH:18.660778;
#LASTBEATHINT:205.506104;
#SELECTABLE:YES;
#BPMS:0.000000=103.000000
;
#STOPS:
;
#BGCHANGES:-0.050=Levitating.avi=1.000=0=0=1=====,
223.000=Levitating-bg.png=1.000=1=0=1===CrossFade==,
99999=-nosongbg-=1.000=0=0=0 // don't automatically add -songbackground-
;
#KEYSOUNDS:;
#ATTACKS:;

//---------------dance-single - Classic 10 | Modern 14----------------
#NOTES:
     dance-single:
     :
     Challenge:
     14:
     0.588782,0.648539,0.351560,0.508639,0.751739,551.000000,504.000000,47.000000,68.000000,28.000000,0.000000,0.588782,0.648539,0.351560,0.508639,0.751739,551.000000,504.000000,47.000000,68.000000,28.000000,0.000000:
// measure 0
0000
0000
0000
0000
,  // measure 1
0000
0000
0000
0000
,  // measure 2
0000
0000
0000
0000
,  // measure 3
0000
0000
0000
0000
,  // measure 4
1000
0100
0010
0001
1000
0010
1000
0001
1000
0010
0100
0001
1000
0100
1000
0001
,  // measure 5
0010
0001
1000
0001
0010
0000
0200
0000
1300
0000
1010
0000
0011
0000
0000
0010
,  // measure 6
0001
0010
0100
1000
0001
0100
0001
1000
0001
0100
0010
1000
0001
0010
0001
1000
,  // measure 7
0010
0100
0010
0000
1000
0000
0002
0000
0103
0000
0101
0000
1100
0000
0000
0000
,  // measure 8
1000
0100
1000
0010
2000
0000
0000
0000
3001
0100
0001
0010
0002
0000
0000
0000
,  // measure 9
1003
0010
0100
0010
0001
0000
0020
0000
1030
0000
1100
0000
0101
0000
0000
0000
,  // measure 10
0001
0010
0001
0100
0010
1000
0100
1000
0001
0010
0001
0100
0010
1000
0010
0100
,  // measure 11
0001
0010
0100
1000
0010
0000
2000
0000
3100
0000
1100
0000
0011
0000
MMMM
0000
,  // measure 12
1002
0000
0000
0103
0010
0000
1000
0000
1020
0000
0000
0130
0001
0010
0100
1000
,  // measure 13
1020
0000
0000
1030
0001
0010
0001
0000
0102
0000
0000
1003
0100
1000
0001
0010
,  // measure 14
0012
0000
0000
1003
0010
0100
0001
0000
0021
0000
0000
0031
0010
0100
0010
0001
,  // measure 15
1001
0000
MMMM
0000
0110
0000
MMMM
0000
1001
0000
0110
0000
0110
0010
1000
0000
,  // measure 16
1002
0000
0000
0000
1003
0000
0000
0000
0010
0100
0000
0001
1000
0000
0000
0000
,  // measure 17
0100
0010
0000
0001
1000
0000
0000
0000
0001
0010
0000
0001
1000
0010
1000
0000
,  // measure 18
2010
0000
0000
0000
3001
0000
0000
0000
0100
0001
0000
1000
0100
0000
0000
0000
,  // measure 19
0010
0001
0000
1000
0000
0001
0100
0000
0010
0000
0010
1000
0001
0100
0001
0100
,  // measure 20
0102
0000
0000
0000
0013
0000
0000
0000
0100
1000
0000
0001
0100
0000
0000
0000
,  // measure 21
0001
0010
0000
0001
1000
0000
0000
0000
1000
0100
0000
1000
0010
1000
0001
0000
,  // measure 22
0102
0000
0000
0000
1003
0000
0000
0000
0010
1000
0000
0100
1000
0000
0000
0000
,  // measure 23
0100
0010
0000
0001
0000
1000
0100
0000
0010
0000
0001
0100
0001
1000
0001
1000
,  // measure 24
0020
0000
0000
0000
1030
0100
1000
0010
0100
0000
0001
0010
0000
0001
0020
0000
,  // measure 25
0031
0000
0000
0000
1000
0010
1000
0001
0100
0000
0010
1000
0000
0010
4000
0000
,  // measure 26
3100
0000
0000
0000
1000
0100
0010
0100
1000
0000
0001
0100
0000
0001
0100
0000
,  // measure 27
0002
0000
0023
0000
2030
0000
3200
0000
0301
0000
0001
1000
0001
1000
0001
0100
,  // measure 28
0020
0000
0000
0000
1030
0001
1000
0010
0100
0000
0001
1000
0000
0100
0020
0000
,  // measure 29
0031
0000
0000
0000
1000
0100
1000
0001
0100
0000
0001
1000
0000
0100
0040
0000
,  // measure 30
0130
0000
0000
0000
1000
0010
0100
0001
0010
0000
0001
0100
0000
0100
0001
0000
,  // measure 31
2000
0000
3020
0000
0032
0000
0203
0000
1300
0000
MMMM
0000
1001
0000
0000
0001
,  // measure 32
1000
0010
1000
0100
1000
0010
1000
0100
0020
0000
0031
0000
1001
0000
1000
0001
,  // measure 33
0010
0001
0100
0001
0010
0001
0100
0010
1000
0000
1010
0000
0101
0000
0000
0100
,  // measure 34
0001
0010
0100
1000
0001
0100
0010
1000
0100
0000
0110
0000
0011
0000
0000
0000
,  // measure 35
0002
0000
0000
0023
0000
0000
2030
0000
0000
3200
0000
0000
0302
0000
0000
1003
,  // measure 36
0010
1000
0100
M1M0
0001
1000
0100
M10M
0020
0000
1030
0000
1100
0000
1000
0001
,  // measure 37
1000
0010
0100
01MM
1000
0001
0100
M10M
0010
0000
0110
0000
1200
0000
0000
1300
,  // measure 38
0001
1000
0010
MM10
0001
0100
0010
MM10
0001
0000
0011
0000
1100
0000
0000
0000
,  // measure 39
2000
0010
0000
3020
0001
0000
0032
0100
0000
0203
1000
0000
1300
0010
1000
0001
,  // measure 40
0102
0000
0000
0103
0010
0000
1000
0000
1200
0000
0000
1300
0010
1000
0010
1000
,  // measure 41
0200
0000
0000
0310
0001
0010
0001
0000
0102
0000
0000
1000
0013
1000
0001
1000
,  // measure 42
0020
0000
0000
1030
0100
1000
0100
0000
0210
0000
0000
0310
0001
1000
0001
1000
,  // measure 43
0020
0000
0030
0020
0000
0030
0020
0000
0030
0000
0110
0000
0110
0100
0001
0000
,  // measure 44
2000
0000
0000
0000
3000
0000
0000
0000
0020
0000
0000
0130
0000
0000
0000
0000
,  // measure 45
0200
0000
0000
0301
0000
0000
0000
0000
0020
0000
0000
0130
0000
1000
0100
0000
,  // measure 46
2000
0000
3000
0000
0000
0000
0000
0000
0200
0000
0000
0310
0000
0000
0000
0000
,  // measure 47
0001
1000
0000
0001
0000
1000
0001
0000
0200
0000
0000
0310
1000
0001
1000
0001
,  // measure 48
1002
0000
0000
0000
1003
0010
0100
0001
0010
0000
0100
1000
0000
0100
1000
0000
,  // measure 49
1002
0000
0000
0000
1003
0100
0010
0001
0100
0000
0001
0010
0000
0001
0010
0000
,  // measure 50
0210
0000
0000
0000
0310
0001
1000
0010
1000
0000
0001
0100
0000
0010
1000
0000
,  // measure 51
0002
0000
0023
0000
2030
0000
3200
0000
0301
0000
0101
0000
1001
1000
0001
0000
,  // measure 52
0201
0000
0010
0000
0320
0000
0000
0000
0130
0001
0000
1000
0100
0000
0000
0000
,  // measure 53
0010
0001
0000
1000
0010
0000
0000
0000
0100
0001
0000
1000
0000
0001
0100
0000
,  // measure 54
0120
0000
1000
0000
2030
0000
0000
0000
3001
0100
0000
0001
1000
0000
0000
0000
,  // measure 55
0100
0010
0000
0100
0000
1000
0001
0000
0020
0000
0000
0130
1000
0001
1000
0001
;

//---------------dance-single - Classic 8 | Modern 12----------------
#NOTES:
     dance-single:
     :
     Hard:
     12:
     0.442388,0.460253,0.209440,0.523599,0.362780,414.000000,386.000000,28.000000,70.000000,0.000000,0.000000,0.442388,0.460253,0.209440,0.523599,0.362780,414.000000,386.000000,28.000000,70.000000,0.000000,0.000000:
// measure 0
0000
0000
0000
0000
,  // measure 1
0000
0000
0000
0000
,  // measure 2
0000
0000
0000
0000
,  // measure 3
0000
0000
0000
0000
,  // measure 4
1000
0000
0001
0000
1000
0100
1000
0000
0001
0000
1000
0000
0001
0010
0001
0000
,  // measure 5
1000
0000
0001
0000
0100
0000
0010
0000
1000
0000
1010
0000
1100
0000
0000
1000
,  // measure 6
0010
0000
1000
0000
0001
1000
0001
0000
0100
0000
0001
0000
1000
0001
1000
0000
,  // measure 7
0001
0100
0010
1000
0100
0110
0011
0000
,  // measure 8
1000
0001
0000
0001
0100
0000
0000
0000
0001
1000
0000
1000
0010
0000
0000
0000
,  // measure 9
1000
0001
0010
0100
1000
1100
0011
0000
,  // measure 10
1000
0000
0010
0000
1000
0100
1000
0000
0010
0000
1000
0000
0001
0100
0001
0000
,  // measure 11
1000
0100
0010
0001
1000
1001
1001
0000
,  // measure 12
0001
0000
0000
0001
0100
0000
0100
0000
1000
0000
0000
1000
0100
0000
0100
0000
,  // measure 13
0001
0000
0000
0001
0010
0000
0010
0000
1000
0000
0000
1000
0010
0000
0010
0000
,  // measure 14
0001
0000
0000
0001
1000
0000
1000
0000
0100
0000
0000
0100
0010
0000
0010
0000
,  // measure 15
0002
0000
0023
0000
2030
0000
3200
0000
0302
0000
1000
0000
1003
0100
1000
0000
,  // measure 16
2001
0000
0000
0000
3100
0000
0000
0000
0020
0000
0000
0031
1000
0000
0000
0000
,  // measure 17
0200
0000
0000
1300
0001
0000
0000
0000
0200
0000
0000
0301
0000
1000
0010
0000
,  // measure 18
2010
0000
0000
0000
3001
0000
0000
0000
0012
0000
0000
1003
0000
0000
0000
0000
,  // measure 19
0001
0100
0000
0010
0000
1000
0001
0000
2000
0000
0000
3010
0100
0010
0100
0010
,  // measure 20
0200
0000
0000
0000
0301
0000
0000
0000
2000
0000
0000
3100
0010
0000
0000
0000
,  // measure 21
0002
0000
0000
1003
0010
0000
0000
0000
0200
0000
0000
0301
0000
1000
0100
0000
,  // measure 22
1200
0000
0000
0000
0310
0000
0000
0000
0200
0000
0000
1300
0000
0000
0000
0000
,  // measure 23
0001
0010
0000
0001
0000
0010
0100
0000
1000
0000
0000
0010
1000
0010
1000
0010
,  // measure 24
0200
0000
0000
0000
0301
0000
0010
0000
0100
0000
1000
0100
0000
1000
0100
0000
,  // measure 25
0010
0000
0000
0000
0001
0000
1000
0000
0010
0000
0100
0001
0000
0100
0001
0000
,  // measure 26
1000
0000
0000
0000
0001
0000
0100
0000
0010
0000
1000
0001
0000
1000
0001
0000
,  // measure 27
2000
3200
0302
0203
2300
0001
3001
0010
,  // measure 28
0210
0000
0000
0000
1300
0000
0010
0000
0001
0000
0010
1000
0000
0010
1000
0000
,  // measure 29
0100
0000
0000
0000
0010
0000
0001
0000
0100
0000
0001
0010
0000
0001
0010
0000
,  // measure 30
0100
0000
0000
0000
0001
0000
0100
0000
1000
0000
0100
0010
0000
0100
0010
0000
,  // measure 31
0002
0000
0203
0000
2300
0000
3200
0000
0302
0000
1003
0000
1100
0000
0000
0010
,  // measure 32
0001
0000
1000
0000
0001
0000
0010
0000
0011
0000
0012
0000
0000
0000
1003
0010
,  // measure 33
1000
0000
0001
0000
1000
0000
0010
0000
1010
0000
1020
0000
0000
0000
0030
1000
,  // measure 34
0001
1000
0100
1000
1100
1200
0300
0000
,  // measure 35
2000
0000
0000
3020
0000
0000
0032
0000
0000
0203
0000
0000
2300
0000
0000
3001
,  // measure 36
0010
0001
1000
0001
0101
0101
1000
0001
,  // measure 37
0100
0000
0010
0000
1000
0000
0100
0000
0110
0000
0110
0000
0001
0000
0000
1000
,  // measure 38
0010
1000
0001
0100
0110
0110
1000
0000
,  // measure 39
0002
0000
0000
0203
0000
0000
0320
0000
0000
2030
0000
0000
3002
0000
0000
0000
,  // measure 40
2003
0000
0000
3010
0100
0000
0001
0000
0200
0000
0000
0301
1000
0000
0100
0000
,  // measure 41
0020
0000
0000
0031
1000
0000
0010
0000
2000
0000
0000
3001
1000
0100
1000
0100
,  // measure 42
2000
0000
0000
3001
0100
0000
0010
0000
0200
0000
0000
0310
1000
0000
0001
0000
,  // measure 43
0020
0000
0000
0000
0000
0100
0130
1000
,  // measure 44
0002
0000
0000
0000
0003
0000
0000
0000
0200
0000
0000
0310
0000
0000
0000
0000
,  // measure 45
0020
0000
0000
1030
0000
0000
0000
0000
0200
0000
0000
0310
0000
0001
0010
0000
,  // measure 46
0002
0000
0003
0000
0000
0000
0000
0000
0020
0000
0000
0130
0000
0000
0000
0000
,  // measure 47
1000
0001
0000
1000
0000
0001
1000
0000
0020
0000
0000
1030
0001
1000
0001
1000
,  // measure 48
0002
0000
0000
0000
1003
0000
0100
0000
0010
0000
0001
0010
0000
0001
0010
0000
,  // measure 49
0100
0000
0000
0000
1000
0000
0001
0000
0100
0000
0010
1000
0000
0010
1000
0000
,  // measure 50
0001
0000
0000
0000
1000
0000
0010
0000
0100
0000
0001
1000
0000
0001
1000
0000
,  // measure 51
0002
0203
2300
3200
0302
0010
0013
0100
,  // measure 52
0210
0000
0000
0000
1300
0000
0000
0000
0002
0000
0000
1003
0100
0000
0000
0000
,  // measure 53
0020
0000
0000
0031
0100
0000
0000
0000
0020
0000
0030
1000
0000
0001
0010
0000
,  // measure 54
0210
0000
0000
0000
1300
0000
0000
0000
0002
0000
0000
0103
0010
0000
0000
0000
,  // measure 55
1000
0001
0000
1000
0000
0001
1000
0000
0020
0000
0000
0130
0001
1000
0001
1000
;

//---------------dance-single - Classic 6 | Modern 9----------------
#NOTES:
     dance-single:
     :
     Medium:
     9:
     0.348354,0.354458,0.097240,0.284240,0.093500,326.000000,313.000000,13.000000,38.000000,0.000000,0.000000,0.348354,0.354458,0.097240,0.284240,0.093500,326.000000,313.000000,13.000000,38.000000,0.000000,0.000000:
0000
0000
0000
0000
,
0000
0000
0000
0000
,
0000
0000
0000
0000
,
0000
0000
0000
0000
,
0001
1000
0100
0000
1000
0001
0100
0000
,
0010
0000
1000
0000
0100
0000
0010
0000
0002
0000
1000
0000
1003
0000
0000
1000
,
0001
1000
0010
0000
1000
0001
0010
0000
,
0001
0010
0100
1000
0002
1000
1003
0000
,
0001
1000
1100
0000
1000
0001
0011
0000
,
0001
0100
0010
1000
0020
0100
0130
0000
,
0010
1000
0100
0000
0010
0001
0100
0000
,
0010
1000
0100
0010
0002
0100
0103
0000
,
1001
0000
0000
1000
0001
0000
0000
0000
0010
0000
0000
0010
0100
0000
0000
0000
,
1000
0000
0000
0001
0100
0000
0000
0000
0001
0000
0000
1000
0100
0000
0000
0000
,
0010
0000
0000
0001
0100
0000
0000
0000
0010
0000
0000
1000
0001
0000
0000
0000
,
1000
1000
1000
1000
2000
0001
3001
1000
,
1002
0000
0103
0000
0010
1000
0100
0000
,
1000
0100
0001
0000
0100
0001
0010
0000
,
0120
0000
1030
0000
0100
1000
0010
0000
,
1000
0010
0001
0010
2000
0001
3001
0000
,
1002
0000
0103
0000
0010
1000
0001
0000
,
0100
0001
1000
0000
0010
1000
0001
0000
,
0012
0000
1003
0000
0100
1000
0010
0000
,
1000
0100
0001
0100
2000
0001
3001
0000
,
2001
0000
3001
0100
0010
1000
0001
0000
,
2000
0000
3100
0010
0001
1000
0100
0000
,
0020
0000
0130
1000
0001
0100
0010
0000
,
1000
0010
0001
0010
2000
0001
3001
0000
,
0200
0000
0301
0010
0100
1000
0010
0000
,
2000
0000
3001
0100
0010
0100
0001
0000
,
0020
0000
0031
1000
0010
0100
0001
0000
,
0010
0000
0001
0000
0100
0000
0010
0000
2000
0000
0001
0000
3001
0000
0000
1000
,
0100
1000
0100
0001
0100
0100
1000
0000
,
0001
0010
1000
0010
0001
0001
1000
0000
,
0010
0001
0010
1000
0010
0010
0100
0000
,
0002
0000
0000
2003
0000
0000
3200
0000
0000
0320
0000
0000
0032
0000
0000
1003
,
0010
1000
0001
1000
0010
0010
0100
0000
,
0001
0000
0010
0000
0001
0000
1000
0000
0001
0000
0001
0000
0100
0000
0000
0010
,
1000
0100
0010
0100
1000
1000
0001
0000
,
0020
0000
0000
0230
0000
0000
2300
0000
0000
3002
0000
0000
0203
0000
0000
0000
,
0310
0000
0000
1000
0100
0000
0000
0000
0010
0000
0000
0010
0001
0000
0001
0000
,
0100
0000
0000
0100
1000
0000
1000
0000
0100
0000
0000
0100
0001
0000
0001
0000
,
1000
0000
0000
1000
0001
0000
0001
0000
0010
0000
0000
0010
0100
0000
0100
0000
,
0002
0000
0203
0000
2300
0001
3001
1000
,
2000
3000
0000
0000
,
0000
0000
0000
0000
,
0000
0000
0000
0000
,
0002
0000
0000
0000
0000
0000
0000
0000
0000
0000
0000
1003
0100
0000
0100
0000
,
1002
0000
0103
0010
1000
0001
0100
0000
,
0110
0000
0010
1000
0100
0010
0001
0000
,
1001
0000
1000
0001
0100
0010
1000
0000
,
0001
0010
1000
0010
0002
1000
1003
0000
,
0120
0000
0000
0000
1030
0000
0000
0000
0001
0000
0000
0001
0100
0000
0000
0000
,
1000
0000
0000
1000
0100
0000
0000
0000
0010
0000
0000
0010
0100
0000
0001
0000
,
0021
0000
0000
0000
0130
0000
0000
0000
1000
0000
0000
1000
0100
0000
0000
0000
,
1000
0001
1000
0100
0010
0001
0001
0000
;

//---------------dance-single - Classic 4 | Modern 6----------------
#NOTES:
     dance-single:
     :
     Easy:
     5:
     0.214783,0.312757,0.149600,0.276760,0.000000,201.000000,181.000000,20.000000,37.000000,0.000000,0.000000,0.214783,0.312757,0.149600,0.276760,0.000000,201.000000,181.000000,20.000000,37.000000,0.000000,0.000000:
0000
0000
0000
0000
,
0000
0000
0000
0000
,
0000
0000
0000
0000
,
0000
0000
0000
0000
,
1000
0001
0100
0100
,
0010
0000
1000
0000
0100
0010
0010
0000
,
0001
1000
0010
0010
,
1000
0000
0001
0000
0100
0001
0001
0000
,
1000
1000
0001
0001
,
0100
0000
0100
0000
0010
0010
0010
0000
,
1000
0100
1000
0010
,
0100
0000
0001
0000
0010
0001
0001
0000
,
1001
0100
1001
0010
,
0110
1000
0110
0001
,
0101
1000
1100
0010
,
1001
0110
1001
1000
,
2200
3300
0020
0030
,
0002
0003
2000
3010
,
0220
0330
2000
3000
,
0001
0001
0100
0010
,
0220
0330
2000
3000
,
0002
0003
0020
0030
,
0022
0033
0200
0300
,
2000
0000
3000
0000
0000
0001
0001
0000
,
1001
0100
0010
0010
,
1000
0001
1000
1000
,
0010
0100
0010
0010
,
1000
0001
1000
0001
2000
0000
3001
0000
,
0100
0001
0010
0010
,
0100
1000
0010
0010
,
1000
0001
0100
0100
,
0010
0100
0010
0100
0020
0000
0130
0000
,
0001
0000
0010
0000
0100
0200
0000
1300
,
1000
0000
0010
0000
0100
0200
0000
0300
,
0001
0000
0010
0000
0001
0002
0003
0000
,
2000
0000
0000
0000
0000
0001
3001
0000
,
0100
0000
0010
0000
0100
0100
0100
0000
,
0001
0000
1000
0000
0001
0001
0001
0000
,
0010
0000
0100
0000
0010
0010
0010
0000
,
0002
0000
0000
0003
,
1100
0000
0010
0000
,
0011
0000
0100
0000
,
0101
0000
0010
0000
,
2000
0000
0000
0000
0000
0001
3001
0000
,
0200
0300
0000
0000
,
0000
0000
0000
0000
,
0000
0000
0000
0000
,
2000
0000
0000
3001
,
1002
1003
0100
0100
,
0010
0001
0100
0100
,
0010
1000
0001
0001
,
1000
0001
1000
0001
2000
0000
3001
0000
,
0202
0303
0020
0030
,
2000
3000
0200
1300
,
2200
3300
0020
0030
,
0001
0000
0001
0000
0000
1000
1000
0000
;

//---------------dance-single - Classic 1 | Modern 2----------------
#NOTES:
     dance-single:
     :
     Beginner:
     2:
     0.129297,0.187654,0.104720,0.044880,0.000000,121.000000,107.000000,14.000000,6.000000,0.000000,0.000000,0.129297,0.187654,0.104720,0.044880,0.000000,121.000000,107.000000,14.000000,6.000000,0.000000,0.000000:
0000
0000
0000
0000
,
0000
0000
0000
0000
,
0000
0000
0000
0000
,
0000
0000
0000
0000
,
1000
0000
0001
0000
,
1000
1000
1000
0000
,
0010
0000
0100
0000
,
0010
0010
0010
0000
,
1000
0000
0100
0000
,
0010
0000
0001
0000
,
1000
0000
0010
0000
,
0100
0000
0001
0000
,
1000
0000
0001
0000
,
1000
0000
0001
0000
,
0100
0000
0010
0000
,
0100
0100
0100
0000
,
1001
0000
1000
0000
,
0001
0000
0001
0000
,
1001
0000
0001
0000
,
1001
0000
0000
0110
,
0110
0000
0010
0000
,
0100
0000
0100
0000
,
0110
0000
0100
0000
,
0010
0000
0000
1001
,
1001
0000
1000
0000
,
0001
0000
1000
0000
,
0100
0000
0010
0000
,
0001
0001
0001
0000
,
0100
0000
0001
0000
,
1000
0000
0010
0000
,
1000
0000
0001
0000
,
1000
1000
1000
0000
,
0001
0001
0001
0000
,
0100
0100
0100
0000
,
0010
0010
0010
0000
,
0220
0000
0330
0000
,
1000
1000
1000
0000
,
0100
0100
0100
0000
,
0010
0010
0010
0000
,
2002
0000
3003
0000
,
1000
0000
1000
0000
,
0001
0000
0001
0000
,
0010
0000
0010
0000
,
0220
0000
0330
0000
,
1000
0000
0000
0000
,
0000
0000
0000
0000
,
0000
0000
0000
0000
,
0000
0000
0000
0000
,
1001
0000
0001
0000
,
1000
0000
1000
0000
,
0010
0000
0010
0000
,
0100
0100
0100
0000
,
1001
0000
1000
0000
,
1000
0000
0100
0000
,
0110
0000
0010
0000
,
0001
0000
1000
1000
;
