#TITLE:Levitating;
#SUBTITLE:;
#ARTIST:Dua Lipa;
#TITLETRANSLIT:;
#SUBTITLETRANSLIT:;
#ARTISTTRANSLIT:;
#GENRE:;
#CREDIT:hooky;
#BANNER:;
#BACKGROUND:;
#LYRICSPATH:;
#CDTITLE:;
#MUSIC:Levitating.ogg;
#OFFSET:0.000000;
#SAMPLESTART:39.139004;
#SAMPLELENGTH:15.000000;
#SELECTABLE:YES;
#DISPLAYBPM:103.000000;
#BPMS:0.000000=103.000000
;
#STOPS:
;
#BGCHANGES:;
#KEYSOUNDS:;
#ATTACKS:;

//---------------dance-single - ----------------
#NOTES:
     dance-single:
     :
     Hard:
     10:
     0.383461,0.454039,0.546974,0.111421,0.015194,265.000000,211.000000,54.000000,11.000000,16.000000,0.000000,0.383461,0.454039,0.546974,0.111421,0.015194,265.000000,211.000000,54.000000,11.000000,16.000000,0.000000:
0000
0000
0000
0000
,
0000
0000
0000
0000
,
0000
0000
0000
0000
,
0000
0000
0000
0000
,
0000
0000
0000
0000
0000
1001
1001
0000
,
0001
0100
0101
0000
0010
1000
1100
0000
,
0001
0001
0100
0010
0100
0101
0101
0000
,
0001
0010
0110
0000
0010
0001
0101
0000
,
0010
1000
0100
1000
0010
1010
1010
0000
,
1000
0100
1000
0000
1100
0000
0000
0000
0010
0001
0010
0000
0011
0000
0000
0000
,
0001
0100
0001
0000
0101
0000
0000
0000
0001
0000
1001
0000
1001
0000
0000
0000
,
0010
1000
0100
0100
1000
0010
0100
0100
,
0100
0001
0010
0001
1000
0011
1001
0000
,
0102
0103
2100
3100
,
0012
0000
0013
0000
2010
0010
3010
0000
,
0010
0100
0101
0000
0001
0010
0110
0000
,
1000
0010
0100
0001
1000
1000
1001
0000
,
0001
0101
0001
0011
,
1000
1000
1100
0000
0010
0010
1010
0010
,
0110
0000
0101
0000
0001
0001
0011
0000
,
0100
0100
1100
0000
1000
0000
MMMM
0000
,
1000
1010
1000
1100
,
0001
0001
0011
0000
0100
0100
0101
0100
,
0110
0000
1010
0000
1000
1000
1100
0000
,
0010
0010
0011
0000
0001
0000
MMMM
0000
,
0100
0010
1000
0000
0100
0010
1000
0000
,
0100
0001
0010
0000
0100
0001
0010
0000
,
0010
0100
1000
0000
0010
0001
0100
0000
,
0001
0010
0100
1000
2001
0000
3001
0000
,
0002
0000
0013
0000
0001
0010
0100
0000
,
2000
0000
3001
0000
1000
0001
0100
0000
,
0020
0000
1030
0000
0010
1000
0100
0000
,
0010
0010
0001
0100
0012
0000
0103
0000
,
0001
0001
1010
0000
1000
1000
0101
0000
,
0010
0010
1100
0000
0100
0100
0011
0100
,
0012
0000
0103
0000
0010
0010
0110
0000
,
0010
1000
0100
0000
1000
1000
MMMM
0000
,
1000
1000
0101
0000
0001
0001
1010
0000
,
0100
0100
0011
0000
0010
0010
1100
0010
,
2100
0000
3010
0000
0100
0100
0110
0000
,
0100
0001
0010
0000
0001
0001
MMMM
0000
;

//---------------dance-double - ----------------
#NOTES:
     dance-double:
     :
     Hard:
     10:
     0.353073,0.392125,0.536845,0.081033,0.000000,244.000000,191.000000,53.000000,8.000000,32.000000,0.000000,0.353073,0.392125,0.536845,0.081033,0.000000,244.000000,191.000000,53.000000,8.000000,32.000000,0.000000:
00000000
00000000
00000000
00000000
,
00000000
00000000
00000000
00000000
,
00000000
00000000
00000000
00000000
,
00000000
00000000
00000000
00000000
,
00000000
00000000
00000000
00000000
00000000
00110000
00110000
00000000
,
00100000
00001000
01010000
00000000
00100000
00001000
00011000
00000000
,
00010000
00000010
00000100
00000001
00000010
00000011
00000011
00000000
,
00000001
00001000
00001010
00000000
00000010
00000100
00000110
00000000
,
00000010
00001000
00000100
00010000
00001000
00011000
00011000
00000000
,
00020000
01030000
00020000
00030100
,
00001000
00000000
00000010
00000000
00000100
00000101
00000101
00000000
,
00000010
00000010
00000011
00000000
00000100
00000100
00001100
00000000
,
00001000
00000000
00000010
00000000
00010000
00011000
00011000
00000000
,
00100000
00110000
01000000
01010000
,
00100000
10100000
10000000
11000000
,
00100000
00110000
00001000
00001010
,
00000100
00000010
00001000
00000100
00000001
00000100
00001100
00000000
,
00001000
00001010
00000010
00000110
,
00000100
00000001
00000010
00000000
00000010
00000010
00000001
00000000
,
00000011
00001010
00110000
10100000
,
00100000
00100000
01000000
00000000
00010000
00000000
MMMMMMMM
00000000
,
00010000
00010000
00011000
00000000
00000010
00000010
00001010
00000000
,
00000010
00000100
00000001
00000000
00000001
00000010
00000100
00000000
,
00010000
00010000
00011000
00000000
00010000
00100000
01100000
00000000
,
00100000
00100000
10000000
00000000
01000000
00000000
MMMMMMMM
00000000
,
00020000
00000000
00031000
00000000
00000010
00000001
00000100
00000000
,
00000002
00000000
00000013
00000000
00000010
00000001
00000100
00000000
,
00000020
00000000
00010030
00000000
00001000
00100000
00010000
00000000
,
00011000
00100000
00011000
00000010
00011000
00101000
00010010
00000000
,
00020000
00000000
00031000
00000000
00010000
00100000
10000000
00000000
,
20000000
00000000
31000000
00000000
01000000
10000000
00100000
00000000
,
02000000
00000000
03001000
00000000
00010000
00000100
00001000
00000000
,
00011000
00000100
00011000
01000000
00011000
00010100
01001000
00000000
,
00010000
01010000
01000000
01100000
,
00100000
10000000
01000000
00000000
01000000
01000000
10000000
00000000
,
11000000
01010000
00001100
00000101
,
00000100
00000100
00000010
00000000
00001000
00000000
MMMMMMMM
00000000
,
00001000
00001000
00011000
00000000
01000000
01000000
01010000
00000000
,
01000000
00100000
10000000
00000000
10000000
01000000
00100000
00000000
,
00001000
00001000
00011000
00000000
00001000
00000100
00000110
00000000
,
00000100
00000100
00000001
00000000
00000010
00000000
MMMMMMMM
00000000
;

//---------------dance-double - ----------------
#NOTES:
     dance-double:
     :
     Medium:
     7:
     0.285063,0.309572,0.324133,0.222841,0.000000,197.000000,165.000000,32.000000,22.000000,0.000000,0.000000,0.285063,0.309572,0.324133,0.222841,0.000000,197.000000,165.000000,32.000000,22.000000,0.000000,0.000000:
00000000
00000000
00000000
00000000
,
00000000
00000000
00000000
00000000
,
00000000
00000000
00000000
00000000
,
00000000
00000000
00000000
00000000
,
00000000
00000000
00000000
00000000
00000000
00010000
00011000
00000000
,
00001000
00000010
00000001
00000100
,
00000001
00000000
00000010
00000000
00000100
00000100
00001100
00000000
,
00001000
00000010
00010000
00001000
,
00100000
00000000
01000000
00000000
10000000
10000000
10100000
00000000
,
00100000
00100000
00100000
00000000
01000000
01000000
01000000
00000000
,
00001000
00001000
00001000
00000000
00010000
00000010
00000110
00000000
,
00000100
00000001
00000010
00000100
,
00010000
00000000
00001000
00000000
00010000
00010000
00011000
00000000
,
00002000
01003000
02000000
03010000
,
00200000
10300000
00200000
00310000
,
00002000
00003100
00000020
00000031
,
00000001
00000001
00001000
00001000
00001010
00000000
00000100
00000000
,
00021000
00031000
00002010
00003010
,
00000012
00000013
00002010
00003010
,
00010200
00010300
02010000
03010000
,
00210000
00000000
00310000
00000000
10000000
10000000
00010000
00000000
,
00012000
00013000
01020000
01030000
,
21000000
31000000
01020000
01030000
,
00201000
00301000
00001020
00001030
,
00001200
00000000
00001300
00000000
00000001
00000001
00001000
00000000
,
00000010
00000100
00000001
00000001
,
00000010
00000100
00001000
00001000
,
00010000
00100000
01000000
10000000
,
00010000
00010000
00010000
00010000
00020000
00000000
10030000
00000000
,
00100000
10000000
00010000
10000000
,
01000000
00100000
00010000
00010000
,
00001000
00000100
00000010
00000001
,
00001000
00001000
00001000
00001000
00002000
00000000
00003001
00000000
,
00000100
00000110
00000010
00000011
,
00000100
00001100
00010000
00010010
,
00001000
00101000
01000000
01100000
,
00010000
00010000
10000000
00000000
10000000
10000000
01000000
00000000
,
00100000
01100000
01000000
11000000
,
00100000
00110000
00001000
01001000
,
00010000
00010100
00000010
00000110
,
00001000
00001000
00000001
00000000
00000001
00000001
00000010
00000000
;

//---------------dance-double - ----------------
#NOTES:
     dance-double:
     :
     Easy:
     4:
     0.163513,0.185743,0.010129,0.192454,0.000000,113.000000,112.000000,1.000000,19.000000,0.000000,0.000000,0.163513,0.185743,0.010129,0.192454,0.000000,113.000000,112.000000,1.000000,19.000000,0.000000,0.000000:
00000000
00000000
00000000
00000000
,
00000000
00000000
00000000
00000000
,
00000000
00000000
00000000
00000000
,
00000000
00000000
00000000
00000000
,
00000000
00000000
00000000
00000000
,
00100000
00000000
00001000
00000000
,
00000100
00000001
00000010
00000000
,
00000010
00000000
00001000
00000000
,
00010000
00100000
01000000
00000000
,
10000000
10000000
00010000
00000000
,
00001000
00001000
00000001
00000000
,
00000010
00000000
00010000
00000000
,
00000010
00001000
01000000
00000000
,
00200000
00000000
00310000
00000000
,
00002000
00000000
00003100
00000000
,
00000020
00000000
00000031
00000000
,
00000001
00000010
00000110
00000000
,
00000010
00000010
00000010
00000000
,
00000001
00000001
00000001
00000000
,
00001000
00001000
00001000
00000000
,
00000010
00000010
00000010
00000000
,
01000000
01000000
01000000
00000000
,
10000000
10000000
10000000
00000000
,
00010000
00010000
00010000
00000000
,
01000000
01000000
01000000
00000000
,
00010000
01000000
00010000
00000000
,
00100000
00001000
00100000
00000000
,
00000010
00001000
00000010
00000000
,
00000010
00000100
00000001
00000010
,
00000001
00001000
00000001
00000000
,
00010000
00000100
00010000
00000000
,
00001000
00100000
01000000
00000000
,
01000000
00100000
00010000
01000000
,
00200000
01300000
02000000
03001000
,
00200000
00301000
00000020
00000031
,
00000002
00000103
00000020
00001030
,
00020000
00031000
00002000
00013000
,
00000200
00000310
00000020
00010030
,
00000200
00010300
02000000
13000000
,
20000000
30100000
02000000
03010000
,
00002000
00013000
00020000
00031000
;

//---------------dance-single - ----------------
#NOTES:
     dance-single:
     :
     Medium:
     6:
     0.234417,0.288934,0.172195,0.101291,0.000000,162.000000,145.000000,17.000000,10.000000,0.000000,0.000000,0.234417,0.288934,0.172195,0.101291,0.000000,162.000000,145.000000,17.000000,10.000000,0.000000,0.000000:
0000
0000
0000
0000
,
0000
0000
0000
0000
,
0000
0000
0000
0000
,
0000
0000
0000
0000
,
0000
0000
0000
0000
0000
0001
1001
0000
,
1000
0100
1000
1000
,
0001
0000
0100
0000
0001
0001
0001
0000
,
0010
0100
1000
1000
,
0010
0000
0100
0000
0001
1000
1000
0000
,
0010
0010
0100
0100
,
0001
0000
0001
0000
1000
0100
0100
0000
,
0010
0001
0100
0000
0001
0000
0001
0000
,
1000
0000
0001
0000
0010
0001
0001
0000
,
0002
0103
0020
1030
,
2000
3100
0200
1300
,
0020
0130
0200
0301
,
0010
0001
2002
3003
,
0100
0100
0010
0000
,
0010
0010
1000
0000
,
0100
1000
0001
0000
,
0001
0000
0100
0000
0010
0010
0010
0000
,
0010
1000
0100
0000
,
0100
1000
0010
0000
,
0100
0001
0010
0000
,
0001
0001
1000
0000
1000
1000
0001
0000
,
0001
0100
1000
0100
,
0001
0010
1000
0010
,
0001
0100
1000
0100
,
0001
0001
1001
0000
,
1000
0010
0100
0010
,
1000
0010
0100
0010
,
1000
0001
0010
0001
,
0100
0100
0101
0000
,
0010
1010
1000
1100
,
0010
0011
0001
0101
,
0001
0011
0001
1001
,
0010
0110
0200
0310
,
0010
1010
0100
0011
,
0001
0101
0001
1001
,
0100
1100
0010
0110
,
0001
0001
2000
3001
;

//---------------dance-single - ----------------
#NOTES:
     dance-single:
     :
     Easy:
     4:
     0.146149,0.164092,0.030387,0.070904,0.000000,101.000000,98.000000,3.000000,7.000000,0.000000,0.000000,0.146149,0.164092,0.030387,0.070904,0.000000,101.000000,98.000000,3.000000,7.000000,0.000000,0.000000:
0000
0000
0000
0000
,
0000
0000
0000
0000
,
0000
0000
0000
0000
,
0000
0000
0000
0000
,
0000
0000
0000
0000
,
0001
0100
0001
0000
,
0010
0100
1000
0000
,
0001
1000
0001
0000
,
0100
0010
1000
0000
,
0100
0000
1000
0000
,
0001
0000
0100
0100
,
0010
0000
1000
0000
,
0100
0000
0010
0010
,
0002
0000
1003
0000
,
2000
0000
3010
0000
,
0020
0000
0130
0000
,
0100
0001
0010
0000
,
0001
0001
1000
0000
,
1000
1000
0010
0000
,
0010
0010
0100
0000
,
0100
0001
0010
0000
,
0100
0100
1000
0000
,
1000
1000
0001
0000
,
0100
0100
0010
0000
,
0010
1000
0100
0000
,
1000
1000
0001
0000
,
0001
0001
0100
0000
,
0010
0100
0001
0000
,
0010
0001
1001
0000
,
0010
0100
0001
0000
,
1000
0100
0010
0000
,
0001
0001
1000
0000
,
0100
1000
1010
0000
,
0020
0000
0130
0000
,
0200
0000
0301
0000
,
0002
0000
0013
0000
,
0200
0000
1300
0000
,
1000
0010
0100
0000
,
0001
0001
1000
0000
,
0100
0100
0010
0000
,
0001
0000
1001
0000
;

//---------------dance-single - ----------------
#NOTES:
     dance-single:
     :
     Beginner:
     1:
     0.063669,0.102558,0.010129,0.000000,0.000000,44.000000,43.000000,1.000000,0.000000,0.000000,0.000000,0.063669,0.102558,0.010129,0.000000,0.000000,44.000000,43.000000,1.000000,0.000000,0.000000,0.000000:
// measure 0
0000
0000
0000
0000
,  // measure 1
0000
0000
0000
0000
,  // measure 2
0000
0000
0000
0000
,  // measure 3
0000
0000
0000
0000
,  // measure 4
0000
0000
0000
0000
,  // measure 5
1000
0000
0000
0000
,  // measure 6
1000
0000
0000
0000
,  // measure 7
1000
0000
0000
0000
,  // measure 8
1000
0000
0000
0000
,  // measure 9
0001
0000
0000
0000
,  // measure 10
0001
0000
0000
0000
,  // measure 11
0001
0000
0000
0000
,  // measure 12
0001
0000
0000
0000
,  // measure 13
0010
0000
0000
0000
,  // measure 14
0100
0000
0000
0000
,  // measure 15
0010
0000
0000
0000
,  // measure 16
0100
0000
0000
0000
,  // measure 17
0010
0000
0001
0000
,  // measure 18
1000
0000
0001
0000
,  // measure 19
1000
0000
0000
0000
,  // measure 20
0001
0000
0000
0000
,  // measure 21
0100
0000
0010
0000
,  // measure 22
0100
0000
0010
0000
,  // measure 23
0100
0000
0000
0000
,  // measure 24
0001
0000
0000
0000
,  // measure 25
1000
0000
0000
0000
,  // measure 26
0100
0000
0000
0000
,  // measure 27
0010
0000
0000
0000
,  // measure 28
0001
0000
0000
0000
,  // measure 29
1000
0000
0000
0000
,  // measure 30
0010
0000
0000
0000
,  // measure 31
0100
0000
0000
0000
,  // measure 32
0001
0000
1000
0000
,  // measure 33
1001
0000
0000
0000
,  // measure 34
0100
0000
0000
0000
,  // measure 35
0010
0000
0000
0000
,  // measure 36
1000
0000
0100
0000
,  // measure 37
0010
0000
0000
0000
,  // measure 38
0001
0000
0000
0000
,  // measure 39
1000
0000
0000
0000
,  // measure 40
0010
0000
0100
0000
;
