#TITLE:Let's Go To The Mall;
#SUBTITLE:;
#ARTIST:Robin Sparkles;
#TITLETRANSLIT:;
#SUBTITLETRANSLIT:;
#ARTISTTRANSLIT:;
#GENRE:;
#CREDIT:;
#BANNER:Let's Go To The Mall-bn.png;
#BACKGROUND:Let's Go To The Mall-bg.png;
#LYRICSPATH:;
#CDTITLE:;
#MUSIC:Let's Go To The Mall.ogg;
#OFFSET:2.000000;
#SAMPLESTART:42.004032;
#SAMPLELENGTH:15.001377;
#LASTBEATHINT:1.999817;
#SELECTABLE:YES;
#BPMS:0.000000=119.988998
;
#STOPS:
;
#BGCHANGES:;
#KEYSOUNDS:;
#ATTACKS:;

//---------------dance-single - ----------------
#NOTES:
     dance-single:
     :
     Challenge:
     12:
     0.459427,0.628997,0.216389,0.141772,0.335776,431.000000,402.000000,29.000000,19.000000,0.000000,0.000000,0.459427,0.628997,0.216389,0.141772,0.335776,431.000000,402.000000,29.000000,19.000000,0.000000,0.000000:
// measure 0
0000
0000
0000
0000
,  // measure 1
0000
0000
0000
0000
,  // measure 2
0000
0000
0000
0000
,  // measure 3
1001
0000
0000
1001
,  // measure 4
0110
0000
0000
0110
,  // measure 5
1001
0000
0000
1001
,  // measure 6
0110
0000
0000
0000
0100
0000
0001
0100
0000
0001
0100
0000
0010
0000
0000
0000
,  // measure 7
0000
0000
0000
0000
1000
0001
0000
0000
0100
0000
0010
1000
0000
0000
0000
0000
,  // measure 8
0000
0000
0000
0000
0100
0010
0000
0000
0002
0000
0000
0000
0103
0000
0000
0000
,  // measure 9
0000
0000
0010
0000
1000
0000
0000
0000
0100
0000
1000
0001
0000
0000
0010
0000
,  // measure 10
0001
0000
0001
0000
0001
0100
0001
0000
,  // measure 11
0000
0000
0010
0000
0001
0000
0010
0000
0100
0000
0010
0001
0000
0000
0100
0000
,  // measure 12
0000
0000
0010
1000
0010
0000
0100
0000
0001
0000
0010
0000
0100
0000
0000
0000
,  // measure 13
0000
0000
1000
0001
1000
0000
0000
0000
0010
0000
0100
0010
0000
0000
1000
0000
,  // measure 14
0100
0000
0000
0000
0010
0000
0000
0000
0001
0000
0100
0010
0000
0000
0000
0000
,  // measure 15
0100
0000
0000
0001
0100
1000
0100
0001
,  // measure 16
0010
0100
0000
0100
0000
0100
1000
0010
,  // measure 17
0000
0000
0000
1000
0100
0001
0100
1000
,  // measure 18
0010
0000
0000
0100
0000
0000
0100
0000
0000
0000
0000
0000
0001
0000
0000
0000
,  // measure 19
1001
0000
0110
0000
1001
0100
0001
0010
,  // measure 20
0100
0000
1000
0001
0000
0000
0100
0000
0010
0000
0000
0000
0010
0000
0000
0000
,  // measure 21
1000
0001
0000
1000
0001
0000
1000
0001
0000
1000
0001
0000
0110
0000
0110
0000
,  // measure 22
0002
0010
1000
0103
,  // measure 23
0200
1000
0010
0301
,  // measure 24
2000
0010
0001
3100
,  // measure 25
0200
0001
0010
1300
,  // measure 26
0110
0000
1001
0000
0110
0000
0100
0010
,  // measure 27
0000
0000
1000
0000
0100
0010
0001
1000
,  // measure 28
0000
0000
0000
0000
0001
0000
0000
1000
0001
0000
0010
0100
0010
0000
0001
0000
,  // measure 29
0000
0000
0100
0000
0001
1000
0000
0001
1000
0000
0010
0100
0010
0000
0000
0100
,  // measure 30
0010
0000
0100
0001
0100
0000
0010
1000
0010
1000
0010
0100
0000
0000
0000
0001
,  // measure 31
0010
0001
0100
0000
0010
0000
1000
0010
0000
0010
0100
0000
0001
0000
0000
0010
,  // measure 32
0100
1000
0010
0000
0110
0000
0100
0001
1000
0001
0100
0000
1001
0000
0000
0010
,  // measure 33
0001
0000
0010
0000
0110
0000
0100
0010
0100
0000
0100
0000
1100
0000
0000
0100
,  // measure 34
1000
0000
0010
1000
0000
0100
0000
0010
0000
0001
1000
0000
0010
0000
0000
0000
,  // measure 35
0100
0000
0001
0010
0001
0000
0100
0010
0000
0010
0100
0000
0001
0000
0010
0001
,  // measure 36
0000
0000
0100
0000
0010
1000
0010
0000
0100
0000
0001
0000
0010
0000
0100
1000
,  // measure 37
0100
1000
0100
1000
0000
0001
0100
0001
0100
0001
0100
0001
0000
0000
1000
0001
,  // measure 38
0010
0001
0100
0010
1000
0100
0001
0100
,  // measure 39
1000
0010
0100
0001
0010
1000
0010
0001
,  // measure 40
0100
0001
1000
0100
0001
0100
1000
0010
,  // measure 41
0100
0010
1000
0100
0001
0100
0010
0001
,  // measure 42
1000
0001
0000
1000
0001
0000
1000
0001
0000
1000
0001
0000
0110
0000
0110
0000
,  // measure 43
0001
1000
0000
0001
1000
0000
0001
1000
0000
0001
1000
0000
0110
0000
0110
0000
,  // measure 44
2000
0010
0001
3100
,  // measure 45
0200
0001
0010
1300
,  // measure 46
0002
0010
1000
0103
,  // measure 47
0200
1000
0010
0301
,  // measure 48
0110
0000
1001
0000
0110
0000
0100
0010
,  // measure 49
0000
0000
0001
0000
0100
0010
1000
0001
,  // measure 50
0000
0000
0000
0000
1000
0000
0000
0001
1000
0000
0010
0100
0010
0000
1000
0000
,  // measure 51
0000
0000
0100
0000
1000
0001
0000
1000
0001
0000
0010
0100
0010
0000
0000
0000
,  // measure 52
0100
1000
0010
0100
0001
0000
0010
0000
,  // measure 53
0200
0001
0010
1300
,  // measure 54
0010
0100
0001
0010
0100
0000
1000
0000
,  // measure 55
0020
0001
0100
1030
,  // measure 56
0110
0000
1001
0000
0110
0000
0100
0010
,  // measure 57
0000
0000
0001
0000
1000
0001
0000
1000
0001
0000
0010
0000
0100
0000
2000
0000
,  // measure 58
0000
0000
3010
2000
0000
0000
3100
0020
,  // measure 59
0000
0000
0130
2000
0000
3010
0100
0001
,  // measure 60
0000
0000
0010
0000
0001
0100
0001
0020
0000
0000
0000
0000
0030
0000
0000
0000
,  // measure 61
0000
0000
0100
0000
1000
0010
1000
0100
0000
1000
0000
0001
0000
0000
0000
0000
,  // measure 62
0000
0000
0100
0000
0001
0100
0001
0020
0000
0000
0000
0000
0030
0000
0000
0000
,  // measure 63
0000
0000
0100
0000
1000
0010
1000
0100
0000
1000
0000
0001
0000
0000
0000
0000
,  // measure 64
0000
0000
0010
0000
0001
0100
0001
0020
0000
0000
0000
0000
0030
0000
0000
0000
,  // measure 65
0000
0000
0100
0000
1000
0010
1000
0100
0000
1000
0000
0001
0000
0000
0000
0000
,  // measure 66
0000
0000
0100
0000
0001
0100
0001
0020
0000
0000
0000
0000
0000
0000
0000
0000
,  // measure 67
0000
0000
0000
0000
0000
0000
0000
0030
0000
0000
0000
0000
0000
0000
0000
0000
;
