#VERSION:0.83;
#TITLE:Last Dress;
#SUBTITLE:;
#ARTIST:はるなば;
#TITLETRANSLIT:;
#SUBTITLETRANSLIT:;
#ARTISTTRANSLIT:Harunaba;
#GENRE:;
#ORIGIN:;
#CREDIT:;
#BANNER:Last Dress.png;
#BACKGROUND:Last Dress-bg.png;
#PREVIEWVID:;
#JACKET:Last Dress-jacket.png;
#CDIMAGE:;
#DISCIMAGE:;
#LYRICSPATH:;
#CDTITLE:;
#MUSIC:Last Dress.ogg;
#OFFSET:-3.028000;
#SAMPLESTART:90.035027;
#SAMPLELENGTH:15.000000;
#SELECTABLE:YES;
#BPMS:0.000=160.000;
#STOPS:;
#DELAYS:;
#WARPS:;
#TIMESIGNATURES:0.000=4=4;
#TICKCOUNTS:0.000=4;
#COMBOS:0.000=1;
#SPEEDS:0.000=1.000=0.000=0;
#SCROLLS:0.000=1.000;
#FAKES:;
#LABELS:0.000=Song Start;
#BGCHANGES:;
#KEYSOUNDS:;
#ATTACKS:
;

//---------------dance-single - ----------------
#NOTEDATA:;
#CHARTNAME:;
#STEPSTYPE:dance-single;
#DESCRIPTION:;
#CHARTSTYLE:;
#DIFFICULTY:Hard;
#METER:13;
#RADARVALUES:0.542124,0.706092,0.356512,0.451582,0.423853,479.000000,434.000000,45.000000,57.000000,0.000000,0.000000,0.000000,0.000000,0.000000,0.542124,0.706092,0.356512,0.451582,0.423853,479.000000,434.000000,45.000000,57.000000,0.000000,0.000000,0.000000,0.000000,0.000000;
#CREDIT:;
#NOTES:
0000
0000
0000
0000
,
0000
0000
0000
0000
,
0000
0000
0000
0000
,
0000
0000
0000
0000
,
1000
0100
0010
0002
0000
0103
0000
0000
,
0001
0010
0100
2000
0000
3010
0000
0000
,
0200
0000
0302
0000
,
2000
0000
0000
0000
,
3003
0000
0000
0000
,
0001
0000
0000
0100
0000
0000
0010
0000
1000
0000
0000
0010
0000
0000
0100
0000
,
0001
0000
0000
0010
0000
0000
0100
0000
1000
0000
0000
1000
0001
0000
0100
0000
,
0001
0000
0000
0010
0000
0000
0100
0000
1000
0000
0000
0100
0000
0000
0010
0000
,
0001
0000
0000
0001
1000
0000
0010
0000
1000
0000
0000
1000
0001
0000
0010
0000
,
0001
0000
0000
1000
0000
0000
0010
0000
0100
0000
0000
0010
0000
0000
1000
0000
,
0001
0000
0000
0001
1000
0000
0100
0000
0010
0000
0000
0010
0001
0000
1000
0000
,
0010
0000
0000
0100
0000
0000
0001
0000
0010
0000
0000
0100
0000
0000
1000
0000
,
0010
0000
1000
0001
1000
0000
0000
0000
1001
0000
0220
0000
0000
0000
0330
0000
,
1001
0000
0000
0000
1001
0000
0000
0000
1100
0000
0000
0001
0000
0000
0101
0000
,
1000
0000
0010
0000
0001
0000
0010
0000
0100
0000
0000
0100
0001
0000
1000
0000
,
0000
0000
1000
0000
0100
1000
0100
0000
0020
0000
0000
0001
0000
0000
0031
0000
,
0010
0000
0100
0000
1000
0000
0001
0000
0100
0000
0000
0100
0010
0000
1000
0000
,
1001
0000
0000
0000
1001
0000
0000
0000
0011
0000
0000
1000
0000
0000
1010
0000
,
0001
0000
0100
0000
1000
0000
0100
0000
0010
0000
0000
0010
1000
0000
0001
0000
,
0000
0000
0001
0000
0010
0001
0010
0000
0200
0000
0000
1000
0000
0000
1300
0000
,
0100
1000
0001
1000
0020
0000
0130
0100
,
0101
0000
0000
0000
1010
0000
0000
0000
1100
0000
0000
0001
0000
0000
0011
0000
,
1000
0000
0100
0000
0001
0000
0100
0000
0010
0000
0000
0010
0001
0000
1000
0000
,
0000
0000
1000
0000
0100
1000
0001
0000
0020
0000
0000
0100
0000
0000
0130
0000
,
0010
0001
0100
1000
0100
0010
1000
0100
,
1100
0000
0000
0000
0011
0000
0000
0000
0101
0000
0000
1000
0000
0000
1010
0000
,
0001
0000
0010
0000
1000
0000
0010
0000
0100
0000
0000
0100
1000
0000
0001
0000
,
0010
0000
0011
0000
0000
0110
0000
0000
1100
0000
0000
0110
0000
0000
0100
0000
,
1000
0000
0001
0000
0100
0000
0001
0000
0010
0000
0001
0000
1000
0100
1000
0100
,
0020
0000
0000
0030
,
0001
0000
0000
0002
0000
0000
0000
0000
0103
0000
0000
0000
0000
0000
0100
0000
,
0010
0000
0000
0020
0000
0000
0000
0000
2030
0000
0000
0000
3001
0000
1000
0000
,
0100
0000
0000
0200
0000
0000
0320
0000
0000
0000
0130
0000
0000
0000
0100
0000
,
1000
0000
0000
1100
0000
0000
0001
0000
0000
0101
0000
0000
2000
0000
0000
0000
,
3010
0000
0000
0010
1000
0000
0001
0000
0100
0000
0000
0000
0001
0000
1000
0000
,
0010
0000
0000
0010
1000
0000
0100
0000
0010
0000
0000
0000
0010
0000
0001
0000
,
0100
0000
0000
0200
0000
0000
0310
0000
0000
0000
1000
0000
0000
0000
0001
0000
,
1001
0000
0000
1100
0000
0000
0011
0000
0000
0101
0000
0000
1010
0000
0000
0000
,
1000
0000
0000
1000
0000
0000
0001
0000
0100
0000
0000
0100
0000
0000
0001
0000
,
0010
0000
0000
0010
0000
0000
0100
0000
1000
0001
0000
0001
0000
0001
1000
0000
,
0001
0000
0000
0001
0000
0000
0100
0000
0010
0000
0100
0000
0000
0000
0100
0000
,
0010
0000
0000
0010
0000
0000
1010
0000
0000
0101
0000
0000
0110
0000
0000
0000
,
0001
0000
0000
0001
0000
0000
1000
0000
0010
0000
0000
0010
0000
0000
1000
0000
,
0100
0000
0000
0100
0000
0000
1000
0001
1000
0000
0000
0000
1000
0000
0100
0000
,
0010
0000
0000
0100
0000
0000
0110
0000
0000
0000
1001
0000
0000
0000
0001
0000
,
0100
0000
0000
0100
0000
0000
0020
0000
0000
1030
0000
0000
0002
0000
0000
0000
,
2003
0000
3200
0000
,
2300
3002
0203
0302
,
0023
0000
0000
0030
0020
0000
0000
0030
,
0020
0230
2300
3002
,
2003
0000
3002
0000
,
0203
0320
2030
3200
,
0320
0000
0000
0030
0020
0000
0000
0030
,
0010
0000
0001
1000
0001
0000
0100
0000
0001
1000
0002
0000
0000
0000
0003
0000
,
1001
0000
0000
0000
1001
0000
0000
0000
0001
0000
0100
0010
0000
0010
0100
0001
,
1000
0000
1000
0000
0100
0000
0010
0000
0100
0000
0000
0100
1000
0000
0001
0000
,
0010
0000
0011
0000
0000
1000
0000
0000
1100
0000
0000
0001
0000
0000
0101
0000
,
1000
0000
0001
0000
0100
0000
0010
0000
1000
0000
0000
1000
0001
0000
0010
0000
,
0100
0000
1000
0001
0000
1000
0000
0010
0000
1000
0000
0001
0000
0100
0001
0000
,
0010
0000
0001
1000
0000
0001
0000
0100
0000
0001
0000
0010
0000
0010
0100
0000
,
1000
0100
1000
0000
0001
0010
0001
0000
0020
0000
0000
0130
0000
0100
0010
0000
,
0001
0100
0001
0000
1000
0010
1000
0000
0010
0000
0000
0110
0000
0000
0110
0000
,
0001
1000
0001
0000
0010
0100
0010
0000
0002
0000
0000
0013
0000
0010
0100
0000
,
1000
0001
1000
0000
0010
0100
0010
0000
0100
0000
0000
0110
0000
0000
0110
0000
,
1000
0010
0100
0000
0001
0100
0010
0000
2000
0000
0000
3010
0000
0010
1000
0000
,
0001
0010
0100
0000
1000
0100
0010
0000
0100
0000
0000
1001
0000
0000
1001
0000
,
0001
1000
0010
0000
1000
0001
0100
0000
0002
0000
0000
0103
0000
0100
0010
0000
,
1000
0000
0001
0000
0010
0000
0001
0000
1000
0000
0000
1000
0001
0000
0100
0000
,
0020
0000
0100
0000
,
2030
3002
0023
0230
,
0320
0000
0100
0000
,
0032
2003
3020
0230
,
0302
0000
0000
0000
,
0000
0000
0003
0000
;

//---------------dance-single - ----------------
#NOTEDATA:;
#CHARTNAME:;
#STEPSTYPE:dance-single;
#DESCRIPTION:;
#CHARTSTYLE:;
#DIFFICULTY:Challenge;
#METER:16;
#RADARVALUES:0.762822,0.982388,0.546652,0.229752,0.819977,674.000000,605.000000,69.000000,29.000000,0.000000,0.000000,0.000000,0.000000,0.000000,0.762822,0.982388,0.546652,0.229752,0.819977,674.000000,605.000000,69.000000,29.000000,0.000000,0.000000,0.000000,0.000000,0.000000;
#CREDIT:;
#NOTES:
// measure 0
0000
0000
0000
0000
,  // measure 1
0000
0000
0000
0000
,  // measure 2
0000
0000
0000
0000
,  // measure 3
0000
0000
0000
0000
,  // measure 4
1000
0001
1000
0020
0000
0130
0001
0100
,  // measure 5
0001
1000
0001
0020
0000
0130
1000
0100
,  // measure 6
0020
0031
0200
0310
,  // measure 7
2000
0000
0000
0000
0000
0000
0000
0000
0010
0000
0000
0001
0000
0000
0001
0000
,  // measure 8
0200
0000
0000
3300
,  // measure 9
1000
0000
0000
1000
0100
0000
0010
0000
0100
0000
0000
0100
0010
0000
0001
0000
,  // measure 10
0010
0000
0000
0001
0000
0000
1000
0000
0001
0000
0000
0001
0010
0000
0001
0000
,  // measure 11
0100
0000
0000
0100
0001
0000
0100
0000
0010
0000
0000
0010
0100
0000
0010
0000
,  // measure 12
1000
0000
0010
0000
0100
0000
0010
0000
0001
0000
0000
0001
0010
0000
1000
0000
,  // measure 13
0001
0000
0000
0011
0000
0000
0001
0000
1000
0000
0000
1010
0000
0000
1000
0000
,  // measure 14
0001
0000
0000
0010
0100
0000
0010
0000
0001
0000
0000
0001
1000
0000
0010
0000
,  // measure 15
1000
0000
0000
1100
0000
0000
1000
0000
0001
0000
0000
0101
0000
0000
0001
0000
,  // measure 16
0100
0000
0001
0100
0010
0000
1000
0000
1000
0100
0020
0000
0000
0000
0130
1000
,  // measure 17
0001
0000
0000
0000
1001
0000
0000
0000
0001
0000
0010
0100
0000
0100
0010
0000
,  // measure 18
0001
0000
0001
0000
1000
0000
1000
0000
1010
0000
0000
0110
0000
0000
0201
0000
,  // measure 19
0000
0000
0301
0000
0100
0001
0100
0000
0010
0000
1000
0001
0000
0001
0020
0000
,  // measure 20
0000
0000
0130
0000
1100
0000
0010
0000
0011
0000
0000
0010
0100
0000
0100
1000
,  // measure 21
0001
0000
0000
0000
1001
0000
0000
0000
1000
0000
0010
0100
0000
0100
0010
0000
,  // measure 22
1000
0000
1000
0000
0001
0000
0001
0000
0011
0000
0000
0110
0000
0000
1100
0000
,  // measure 23
1000
0000
0001
0000
1000
0100
0000
0100
0010
0000
0010
0001
0000
0001
1000
0000
,  // measure 24
0001
0000
0100
0000
1000
0000
0100
0000
0020
0000
0000
0130
0000
0000
0100
0001
,  // measure 25
1000
0000
0000
0000
1001
0000
0000
0000
1000
0000
0100
0010
0000
0010
0100
0000
,  // measure 26
1000
0000
1000
0000
0001
0000
0001
0000
0101
0000
0000
0110
0000
0000
1020
0000
,  // measure 27
0000
0000
1030
0000
0100
1000
0100
0000
0010
0000
0010
0001
0000
0001
1000
0000
,  // measure 28
0100
0000
1000
0000
0001
0000
0010
0000
0001
0000
1000
0000
0010
0000
0100
0001
,  // measure 29
1000
0000
0000
0000
1001
0000
0000
0000
0001
0000
0100
0010
0000
0010
0100
0000
,  // measure 30
0001
0000
0001
0000
1000
0000
1000
0000
1100
0000
0000
0110
0000
0000
0011
0000
,  // measure 31
0001
0000
1000
0000
0010
0100
0000
0100
0001
0000
0001
1000
0000
1000
0010
0000
,  // measure 32
0100
0000
0001
0000
0100
0000
0010
0000
1000
0000
0001
0000
1000
0100
1000
0100
,  // measure 33
0020
0000
0000
0000
0000
0000
0000
0000
0130
0010
0100
0010
0001
0000
0000
0000
,  // measure 34
1000
0000
0000
0100
1000
0000
0001
0000
1100
0000
0000
0000
0100
0000
1000
0000
,  // measure 35
0001
0000
0000
0100
0001
0000
1000
0000
0011
0000
0000
0000
1010
0000
0000
0000
,  // measure 36
1000
0000
0000
0001
1000
0000
1010
0000
0000
0000
0110
0000
0000
0000
0100
0001
,  // measure 37
1000
0000
0000
0101
0000
0000
0011
0000
0000
1100
0000
0000
1020
0000
0000
0000
,  // measure 38
0130
0000
0000
0100
0001
0000
0001
0100
0010
0000
0000
0000
1001
0000
1000
0000
,  // measure 39
0100
0000
0000
0100
1000
0000
0001
0000
0010
0000
0000
0000
0010
0000
0010
0100
,  // measure 40
1000
0000
0000
1100
0000
0000
1001
0000
0000
0000
0001
1000
0000
0000
0001
0100
,  // measure 41
0010
0000
0000
1010
0000
0000
1001
0000
0000
0110
0000
0000
1001
0000
0001
0100
,  // measure 42
0010
0100
0001
1000
0000
1000
0100
1000
0001
0010
0100
0010
0000
0010
0001
1000
,  // measure 43
0010
1000
0001
0100
0000
0100
0001
1000
0010
0100
0000
0110
0000
0010
1000
0001
,  // measure 44
0100
0001
0010
0001
1000
0000
0001
0100
0010
0100
0001
1000
0100
0010
0100
1000
,  // measure 45
0001
0000
0000
0011
0000
0000
1010
0000
0000
1100
0000
0000
1001
0000
0000
0000
,  // measure 46
1000
0100
0010
0001
0000
0001
1000
0010
0100
0010
1000
0001
0000
0001
0100
0010
,  // measure 47
1000
0010
1000
0001
0010
0001
1000
0100
1000
0001
0100
0010
0000
0100
0001
1000
,  // measure 48
0001
0010
0100
0010
0001
0000
1000
0010
0100
0010
1000
0000
0001
1000
0001
0010
,  // measure 49
0100
0000
0000
1100
0000
0000
0012
0000
0000
1000
0000
0000
0103
0000
0000
0000
,  // measure 50
2001
0000
0000
0000
3001
0000
0000
0000
1100
0000
0000
0001
0000
0000
0101
0000
,  // measure 51
1000
0000
0010
0000
0001
0000
0010
0000
1000
0000
0000
1000
0001
0000
0010
0000
,  // measure 52
0100
0000
0010
0000
0000
0010
0000
0000
0011
0000
0000
1010
0000
0000
0011
0000
,  // measure 53
0001
0000
0010
0000
1000
0000
0010
0000
0100
0000
0000
0100
1000
0000
0001
0000
,  // measure 54
1001
0000
0100
0000
1001
0000
0000
0000
0101
0000
0000
1000
0000
0000
1100
0000
,  // measure 55
0001
0000
0010
0000
0001
0000
1000
0000
0010
0000
0000
0010
1000
0000
0001
0000
,  // measure 56
0100
0000
0010
0000
0000
0010
0000
0000
1010
0000
0000
0011
0000
0000
0110
0000
,  // measure 57
0100
0000
0100
1000
0010
0000
0100
0000
0100
0001
0020
0000
0000
0000
0031
0000
,  // measure 58
1001
0000
0000
0000
1001
0000
0000
0000
1000
0000
0100
1000
0001
0000
0100
0001
,  // measure 59
1000
0000
0001
0100
0000
0100
0010
0000
1000
0000
0100
0010
0000
0010
0100
1000
,  // measure 60
0001
0010
0001
0010
0100
1000
0100
1000
0010
1000
0010
1000
0000
1000
0001
1000
,  // measure 61
0001
0100
0001
0100
0001
0010
0001
0010
0100
1000
0100
0010
0000
0010
0100
1000
,  // measure 62
0001
0000
0200
0010
0000
0010
0000
0001
0000
0001
0000
0310
0000
0010
1000
0000
,  // measure 63
1000
0000
0200
0010
0000
0010
0000
1000
0000
1000
0000
0310
0000
0010
0001
1000
,  // measure 64
0001
0100
0010
0000
0010
0100
0001
0000
1000
0001
1000
0010
0000
0100
0001
0000
,  // measure 65
1000
0100
0010
0000
0110
0000
1100
0000
0001
1000
0001
0010
0000
0100
1000
0000
,  // measure 66
0001
0010
0100
0000
1000
0100
0010
0000
0001
1000
0001
0100
0000
0100
0010
0000
,  // measure 67
1000
0010
0100
0000
0110
0000
0101
0000
1000
0001
1000
0010
0000
0100
0001
0000
,  // measure 68
1000
0010
0100
0010
1000
0001
1000
0010
0100
0010
1000
0001
1000
0010
0100
0001
,  // measure 69
0010
0100
0010
0001
1000
0001
0010
0100
0010
0001
1000
0010
0000
0010
1000
0001
,  // measure 70
0010
0001
1000
0100
1000
0001
1000
0010
1000
0001
0100
0001
1000
0010
0100
0001
,  // measure 71
0010
0000
0100
0000
1100
0000
0010
0000
0011
0000
0000
1001
0000
0000
0110
0000
,  // measure 72
2002
0000
0000
3000
,  // measure 73
0100
2003
0100
3002
,  // measure 74
0020
0003
0200
0030
,  // measure 75
2300
3200
0302
0203
,  // measure 76
0020
0000
0000
0000
,  // measure 77
0000
0000
0330
0000
;

//---------------dance-single - ----------------
#NOTEDATA:;
#CHARTNAME:;
#STEPSTYPE:dance-single;
#DESCRIPTION:;
#CHARTSTYLE:;
#DIFFICULTY:Medium;
#METER:10;
#RADARVALUES:0.364434,0.460495,0.308977,0.594186,0.102992,322.000000,283.000000,39.000000,75.000000,0.000000,0.000000,0.000000,0.000000,0.000000,0.364434,0.460495,0.308977,0.594186,0.102992,322.000000,283.000000,39.000000,75.000000,0.000000,0.000000,0.000000,0.000000,0.000000;
#CREDIT:;
#NOTES:
0000
0000
0000
0000
,
0000
0000
0000
0000
,
0000
0000
0000
0000
,
0000
0000
0000
0000
,
1000
0000
1000
0200
0000
0000
1300
0000
,
0001
0000
0001
0200
0000
0301
0000
0000
,
0200
0301
2000
3100
,
0020
0000
0000
0000
,
0030
0000
0000
0000
,
2200
3300
0022
0033
,
0102
1003
2100
3010
,
2002
3003
0202
0303
,
2010
0001
0100
3001
,
1000
0100
0001
0100
,
1000
1100
1001
0101
,
0001
0010
1000
0010
,
0001
0010
0002
0000
1003
0020
0000
0030
,
1001
0000
0000
0000
1001
0000
0000
0000
1000
0000
0000
0001
0000
0000
0100
0000
,
0000
0000
0100
0000
0001
0000
1000
0000
0010
0000
0000
0010
0000
0000
0100
0000
,
0000
0000
0100
0000
0001
0000
0000
0000
1000
0000
0000
0001
0000
0000
0010
0000
,
0000
0000
0010
0000
0100
0000
1000
0000
0001
0000
0000
0001
0000
0000
0000
0000
,
1001
0000
0000
0000
1001
0000
0000
0000
0001
0000
0000
1000
0000
0000
0100
0000
,
0000
0000
0100
0000
1000
0000
0001
0000
0010
0000
0000
0010
0000
0000
0100
0000
,
0000
0000
0100
0000
0000
1000
0000
0000
0001
0000
0000
1000
0000
0000
0010
0000
,
0000
0010
0100
0100
0002
0000
0003
0000
,
1001
0000
0000
0000
1001
0000
0000
0000
1000
0000
0000
0010
0000
0000
0100
0000
,
0000
0000
0100
0000
0001
0000
1000
0000
0001
0000
0000
0010
0000
0000
0010
0000
,
0000
0000
0100
0000
0000
0010
0000
0000
0001
0000
0000
1000
0000
0000
0001
0000
,
0000
0100
0100
0000
0010
0000
0110
0000
,
1001
0000
0000
0000
1001
0000
0000
0000
0001
0000
0000
0010
0000
0000
0100
0000
,
0000
0000
0100
0000
1000
0000
0001
0000
1000
0000
0000
0010
0000
0000
0010
0000
,
0000
0000
0100
0000
0000
0001
0000
0000
1000
0000
0000
0001
0000
0000
0010
0000
,
0000
0010
0100
0000
1001
0000
0110
0000
,
2002
0000
0000
3003
,
0002
0000
0000
0000
,
0003
0000
0200
0320
,
2030
0000
0000
3200
0000
0000
0000
0000
,
2300
0000
0000
3020
0000
0000
0032
0000
,
0023
0000
0030
2000
,
3002
0000
0000
0023
0000
0000
0230
0000
,
2300
0000
0000
3002
0000
0000
0000
0000
,
0203
0000
0000
0320
0000
0000
0030
0000
,
1000
0000
0000
0001
0000
0000
0000
0000
1001
0000
0000
0000
0000
0000
0000
0000
,
0010
0000
0000
0100
0000
0000
0000
0000
0110
0000
0000
0000
0000
0000
0000
0000
,
1000
0000
0000
0100
0000
0000
0010
0000
0000
0000
0001
0000
0000
0000
1000
0000
,
0001
0000
0000
0001
0000
0000
0100
0000
0000
0010
0000
0000
0100
0000
0000
0000
,
0001
0000
0000
0001
0000
0000
0000
0000
1010
0000
0000
0000
0000
0000
0000
0000
,
1000
0000
0000
1000
0000
0000
0000
0000
0011
0000
0000
0000
0000
0000
0000
0000
,
0001
0000
0000
0010
0000
0000
0100
0000
0000
0000
0110
0000
0000
0000
0100
0000
,
1000
0000
0000
1000
0000
0000
0010
0000
0000
0100
0000
0000
0002
0000
0000
0000
,
2003
0000
3200
0000
,
2300
3002
0203
0302
,
0023
0000
0000
0030
0020
0000
0000
0030
,
0020
0032
0203
0320
,
0230
0000
0302
0000
,
2003
3020
0230
0302
,
0023
0000
0000
0030
0020
0000
0000
0030
,
0020
0230
2300
3000
,
1001
0000
1001
0000
1000
0100
0010
0000
,
0001
0000
1000
0000
0001
0100
0010
0000
,
0100
0001
0100
0000
0010
1000
0010
0000
,
1000
1010
0001
0011
,
1000
0100
0010
0000
0001
0010
0100
0000
,
1000
0001
1000
0000
0010
0100
0010
0000
,
0101
0000
0101
0000
0100
0001
1000
0000
,
0100
1000
0001
0000
0100
0001
1000
0000
,
0011
0000
0011
0000
0010
0001
1000
0000
,
0010
1000
0001
0000
0010
0001
1000
0000
,
1100
0000
1100
0000
0100
1000
0001
0000
,
0010
0001
1000
0000
0100
1000
0001
0000
,
1010
0000
1010
0000
0010
1000
0001
0000
,
0010
0001
0010
0100
2000
0000
0000
0000
,
0002
0000
0000
3003
,
0200
0302
2003
3002
,
0023
0000
0000
0030
0020
0000
0000
0030
,
0020
0032
2003
3200
,
2300
0000
0000
0000
,
0000
0000
3000
0000
;

//---------------dance-single - ----------------
#NOTEDATA:;
#CHARTNAME:;
#STEPSTYPE:dance-single;
#DESCRIPTION:;
#CHARTSTYLE:;
#DIFFICULTY:Easy;
#METER:6;
#RADARVALUES:0.219566,0.276297,0.047535,0.443659,0.000000,194.000000,188.000000,6.000000,56.000000,0.000000,0.000000,0.000000,0.000000,0.000000,0.219566,0.276297,0.047535,0.443659,0.000000,194.000000,188.000000,6.000000,56.000000,0.000000,0.000000,0.000000,0.000000,0.000000;
#CREDIT:;
#NOTES:
0000
0000
0000
0000
,
0000
0000
0000
0000
,
0000
0000
0000
0000
,
0000
0000
0000
0000
,
2000
0000
3000
0000
,
0002
0000
0003
0000
,
2000
3000
0200
0300
,
0020
0000
0000
0000
,
0030
0000
0000
0000
,
2000
3000
0002
0003
,
0100
0001
1000
0001
,
0020
0030
0020
0030
,
0100
1000
0010
0100
,
0002
0003
2000
3000
,
0100
1000
0001
1000
,
0020
0030
0020
0030
,
0010
0100
0002
0003
,
1000
1000
0100
1000
,
0001
1000
0010
1000
,
0200
0300
0200
0300
,
0100
1000
0010
1000
,
0001
0001
0100
0001
,
1000
0001
0010
0001
,
0200
0300
0200
0300
,
0001
1000
0020
0030
,
1000
1000
0010
1000
,
0001
1000
0100
0010
,
0002
0003
0002
0003
,
0010
0100
0100
0010
,
0001
0001
0010
0001
,
1000
0001
0100
0001
,
0020
0030
0002
0003
,
2000
3000
0200
0300
,
0020
0000
0000
0030
,
0002
0000
0000
0000
,
0003
0000
0010
0001
,
2000
0000
0000
3000
0000
0000
0000
0000
,
0010
0000
0000
0100
0000
0000
0001
0000
,
0200
0000
0300
0001
,
0020
0000
0000
0030
0000
0000
0100
0000
,
1000
0000
0000
1000
0000
0000
0000
0000
,
0001
0000
0000
0010
0000
0000
0000
0000
,
0010
0000
0011
0000
,
0001
0000
0101
0000
,
0100
0000
0000
0100
0000
0000
0000
0000
,
0010
0000
0000
0010
0000
0000
0010
0000
,
1000
0000
1100
0000
,
1000
0000
1010
0000
,
0100
0000
0000
0100
0000
0000
0000
0000
,
0010
0000
0000
0010
0000
0000
0010
0000
,
2002
0000
3003
0000
,
2000
3000
0002
0003
,
0020
0030
0020
0030
,
0002
0003
0200
0300
,
0020
0030
0200
0300
,
0002
0003
2000
3000
,
0200
0300
0200
0300
,
0010
0100
0010
0000
,
0001
0001
0100
0100
,
0001
1000
0001
0100
,
0010
0010
1000
1000
,
0001
0010
0001
1000
,
0100
0100
0010
0010
,
0001
1000
0010
0100
,
0001
0001
0200
0300
,
0010
0010
0200
0300
,
0001
0001
2000
3000
,
0100
0100
2000
3000
,
0001
0001
0020
0030
,
0100
0100
0020
0030
,
0001
1000
0002
0003
,
1000
0010
0100
0001
,
2002
0000
0000
0000
,
3003
0000
0000
0000
,
2000
3000
0200
0300
,
0010
0001
1000
0001
,
0200
0000
0000
0000
,
0000
0000
0300
0000
;

//---------------dance-single - ----------------
#NOTEDATA:;
#CHARTNAME:;
#STEPSTYPE:dance-single;
#DESCRIPTION:;
#CHARTSTYLE:;
#DIFFICULTY:Beginner;
#METER:2;
#RADARVALUES:0.118837,0.180633,0.007922,0.000000,0.000000,105.000000,104.000000,1.000000,0.000000,0.000000,0.000000,0.000000,0.000000,0.000000,0.118837,0.180633,0.007922,0.000000,0.000000,105.000000,104.000000,1.000000,0.000000,0.000000,0.000000,0.000000,0.000000,0.000000;
#CREDIT:;
#NOTES:
0000
0000
0000
0000
,
0000
0000
0000
0000
,
0000
0000
0000
0000
,
0000
0000
0000
0000
,
1000
0000
0000
0000
,
0001
0000
0000
0000
,
1000
0000
0001
0000
,
0100
0000
0000
0000
,
0000
0000
0000
0000
,
0001
0000
0000
0000
,
0001
0000
0000
0000
,
1000
0000
0000
0000
,
1000
0000
0000
0000
,
0001
0000
0000
0000
,
1000
0000
0000
0000
,
0010
0000
0000
0000
,
0010
0000
0000
0000
,
1000
0000
1000
0000
,
0100
0000
0000
0000
,
0010
0000
0010
0000
,
0001
0000
0000
0000
,
1000
0000
1000
0000
,
0010
0000
0000
0000
,
0100
0000
0100
0000
,
0001
0000
0000
0000
,
0001
0000
0001
0000
,
0010
0000
0000
0000
,
0100
0000
0100
0000
,
1000
0000
0000
0000
,
0001
0000
0001
0000
,
0100
0000
0000
0000
,
0010
0000
0010
0000
,
0010
0000
0010
0000
,
0010
0000
0000
0000
,
1000
0000
0000
0000
,
0001
0000
0001
0000
,
0100
0000
0000
0000
,
0001
0000
0001
0000
,
0010
0000
0000
0000
,
1000
0000
1000
0000
,
0100
0000
0000
0000
,
0010
0000
0000
0000
,
1000
0000
1000
0000
,
0100
0000
1000
0000
,
0001
0000
0000
0000
,
1000
0000
0000
0000
,
0001
0000
0001
0000
,
0100
0000
0001
0000
,
1000
0000
0000
0000
,
0001
0000
0000
0000
,
0010
0000
0000
0000
,
0100
0000
0000
0000
,
0010
0000
0000
0000
,
0100
0000
0000
0000
,
0001
0000
0000
0000
,
1000
0000
0000
0000
,
0010
0000
0000
0000
,
0010
0000
0000
0000
,
1000
0000
1000
0000
,
0100
0000
0100
0000
,
0010
0000
0010
0000
,
0001
0000
0001
0000
,
1000
0000
1000
0000
,
0010
0000
0010
0000
,
0100
0000
0001
0000
,
0100
0000
0001
0000
,
1000
0000
0100
0000
,
1000
0000
0100
0000
,
0010
0000
0001
0000
,
0010
0000
0001
0000
,
1000
0000
0010
0000
,
1000
0000
0010
0000
,
1001
0000
0000
0000
,
0000
0000
0000
0000
,
0001
0000
0100
0000
,
1000
0000
0100
0000
,
0001
0000
0000
0000
;
