#TITLE:LIGHTSABER;
#SUBTITLE:;
#ARTIST:EXO;
#TITLETRANSLIT:;
#SUBTITLETRANSLIT:;
#ARTISTTRANSLIT:;
#GENRE:;
#CREDIT:;
#BANNER:LIGHTSABER.png;
#BACKGROUND:LIGHTSABER-bg.png;
#LYRICSPATH:;
#CDTITLE:;
#MUSIC:LIGHTSABER.ogg;
#OFFSET:-0.219000;
#SAMPLESTART:70.497002;
#SAMPLELENGTH:15.000000;
#SELECTABLE:YES;
#BPMS:0.000000=140.000000
;
#STOPS:
;
#BGCHANGES:0.000=LIGHTSABER.avi=1.000=0=0=0=StretchNoLoop====,
99999=-nosongbg-=1.000=0=0=0 // don't automatically add -songbackground-
;
#KEYSOUNDS:;
#ATTACKS:;

//---------------dance-single - ----------------
#NOTES:
     dance-single:
     :
     Beginner:
     3:
     0.121052,0.196014,0.038959,0.165577,0.000000,87.000000,83.000000,4.000000,17.000000,0.000000,0.000000,0.121052,0.196014,0.038959,0.165577,0.000000,87.000000,83.000000,4.000000,17.000000,0.000000,0.000000:
// measure 0
0000
0000
0000
0000
,  // measure 1
0000
0000
0000
0000
,  // measure 2
0000
0000
0000
0000
,  // measure 3
0000
0000
0000
0000
,  // measure 4
0000
0000
0000
0000
,  // measure 5
2000
0000
0000
0000
,  // measure 6
0000
0000
3000
0000
,  // measure 7
0002
0000
0000
0000
,  // measure 8
0000
0000
0003
0000
,  // measure 9
2000
0000
0000
0000
,  // measure 10
0000
0000
3000
0000
,  // measure 11
0002
0000
0000
0000
,  // measure 12
0000
0000
0003
0000
,  // measure 13
0010
0000
0001
0000
,  // measure 14
0010
0000
0010
0000
,  // measure 15
0100
0000
1000
0000
,  // measure 16
0100
0000
0100
0000
,  // measure 17
1000
0000
0100
0000
,  // measure 18
0001
0000
0100
0000
,  // measure 19
1000
0000
0010
0000
,  // measure 20
0001
0000
0001
0000
,  // measure 21
2000
0000
0000
0000
,  // measure 22
0000
0000
3000
0000
,  // measure 23
0002
0000
0000
0000
,  // measure 24
0000
0000
0003
0000
,  // measure 25
0010
0000
0001
0000
,  // measure 26
0010
0000
0001
0000
,  // measure 27
2000
0000
3000
0000
,  // measure 28
0020
0000
0030
0000
,  // measure 29
0001
0000
0001
0000
,  // measure 30
0100
0000
0100
0000
,  // measure 31
1000
0000
0002
0000
,  // measure 32
0003
0000
0000
0000
,  // measure 33
1001
0000
0100
0200
,  // measure 34
0000
0000
0000
0300
,  // measure 35
1000
0000
0010
0020
,  // measure 36
0000
0000
0000
0030
,  // measure 37
0110
0000
1000
2000
,  // measure 38
0000
0000
0000
3000
,  // measure 39
0100
0000
0001
0002
,  // measure 40
0000
0003
0001
0000
,  // measure 41
1001
0000
0001
0000
,  // measure 42
0000
0010
0010
0000
,  // measure 43
0100
0000
1000
0000
,  // measure 44
0020
0000
0030
0000
,  // measure 45
1001
0000
1000
0000
,  // measure 46
0000
0010
0010
0000
,  // measure 47
0100
0000
0001
0000
,  // measure 48
0020
0000
0030
0000
,  // measure 49
0100
0100
0100
0000
,  // measure 50
0001
0000
0100
0000
,  // measure 51
1000
1000
0010
0000
,  // measure 52
2000
0000
3000
0000
,  // measure 53
0001
0001
0001
0000
,  // measure 54
0010
0010
0010
0000
,  // measure 55
0100
0100
0100
0000
,  // measure 56
1000
1000
1000
0000
,  // measure 57
0002
0000
0003
0000
;

//---------------dance-single - Shock Arrow----------------
#NOTES:
     dance-single:
     :
     Challenge:
     12:
     0.435510,0.530883,0.340895,0.603871,0.194797,313.000000,278.000000,35.000000,62.000000,24.000000,0.000000,0.435510,0.530883,0.340895,0.603871,0.194797,313.000000,278.000000,35.000000,62.000000,24.000000,0.000000:
// measure 0
0000
0000
0000
0000
,  // measure 1
0000
0000
0000
0000
,  // measure 2
0000
0000
0000
0000
,  // measure 3
0000
0000
0000
0000
,  // measure 4
0000
0000
0000
0000
,  // measure 5
2000
0000
0000
0000
3000
0000
1000
0000
0001
0000
0000
0010
0000
0000
0200
0000
,  // measure 6
0000
0000
0000
0000
0300
0000
0000
1000
,  // measure 7
0001
0000
0000
0000
0000
0000
0010
0000
0001
0000
0000
0100
0000
0000
0020
0000
,  // measure 8
0000
0000
0000
0000
0030
0000
0000
0100
,  // measure 9
0001
0000
0000
0000
0000
0000
0010
0000
0100
0000
0000
1000
0000
0000
0002
0000
,  // measure 10
0000
0000
0000
0000
0003
0000
0000
1000
,  // measure 11
0010
0000
0000
0000
0000
0000
0001
0000
0010
0000
0000
1000
0000
0000
0002
0000
,  // measure 12
0000
0000
0020
0033
,  // measure 13
0110
0000
0000
0000
0001
0100
0001
0000
1000
0000
0100
0000
0010
0000
0100
0000
,  // measure 14
0001
0100
0010
0100
1000
1000
0020
0000
,  // measure 15
0130
0000
0000
0000
0001
0010
0001
0000
1000
0000
0010
0000
0100
0000
0010
0000
,  // measure 16
0001
0010
0100
0010
1000
1000
0200
0000
,  // measure 17
0310
0000
0000
0100
0000
0000
0010
0000
0001
0000
0000
0100
0000
0000
0010
0000
,  // measure 18
1000
0000
0000
0100
0000
0000
0010
0000
0100
0000
0000
1000
0000
0000
0010
0000
,  // measure 19
0100
0000
0000
0100
0000
0000
0001
0000
0010
0000
0000
0010
0000
0000
0100
0000
,  // measure 20
1000
0001
0110
1001
,  // measure 21
0220
0000
0000
0000
0330
0000
0001
0000
0010
0000
0000
0100
0000
0000
2000
0000
,  // measure 22
0000
0000
0000
0000
0002
0000
3003
0100
,  // measure 23
0020
0000
0000
0000
0030
0000
0100
0000
0001
0000
0000
1000
0000
0000
0200
0000
,  // measure 24
0000
0000
0320
0031
,  // measure 25
1001
0000
0001
0010
0002
0000
1003
0001
,  // measure 26
0010
0001
0100
0010
1000
0100
0010
0000
,  // measure 27
0021
0000
0031
0100
0001
0000
0001
0000
,  // measure 28
1020
0000
0000
0000
1030
0000
0100
0000
1000
0001
0100
0010
1000
0000
0000
0000
,  // measure 29
2001
0000
3010
0100
0010
0000
0010
0000
,  // measure 30
1002
0013
0100
0010
0001
0001
0100
0010
,  // measure 31
1000
1000
0100
0100
0001
0001
0100
1000
,  // measure 32
0020
0000
0000
0031
0000
0000
MMMM
0000
,  // measure 33
2001
0000
0000
0000
0000
0000
0000
0000
0000
0000
0000
0000
0000
0001
0000
0000
0000
0000
0000
0000
0000
0000
0000
0000
0010
0000
0000
0000
0000
0000
0000
0000
0000
0000
0000
0000
0000
0010
0000
0000
0000
0000
0000
0000
0000
0000
0000
0000
0100
0000
0000
0000
0000
0000
0000
0000
0000
0000
0000
0000
0000
3100
0000
0000
,  // measure 34
0000
0000
0000
0000
0000
0000
0000
0000
0010
0000
0000
0000
0000
0000
0000
0000
0000
0000
0000
0000
0000
0001
0000
0000
0000
0000
0000
0000
0000
0000
0000
0000
1000
0000
0000
0000
0000
0010
0000
0000
0000
0000
0000
0000
0000
0000
0000
0000
MMMM
0000
0000
0000
0000
0000
0000
0000
0000
0000
0000
0000
0000
0010
0000
0000
,  // measure 35
0100
0000
0000
0000
0000
0000
0000
0000
0000
0000
0000
0000
0000
0100
0000
0000
0000
0000
0000
0000
0000
0000
0000
0000
0001
0000
0000
0000
0000
0000
0000
0000
0000
0000
0000
0000
0000
0001
0000
0000
0000
0000
0000
0000
0000
0000
0000
0000
1000
0000
0000
0000
0000
0000
0000
0000
0000
0000
0000
0000
0000
1000
0000
0000
,  // measure 36
0000
0100
0010
0000
0110
0000
1001
0000
,  // measure 37
1200
0000
0000
0000
0000
0000
0000
0000
0000
0000
0000
0000
0000
1000
0000
0000
0000
0000
0000
0000
0000
0000
0000
0000
0010
0000
0000
0000
0000
0000
0000
0000
0000
0000
0000
0000
0000
0010
0000
0000
0000
0000
0000
0000
0000
0000
0000
0000
0001
0000
0000
0000
0000
0000
0000
0000
0000
0000
0000
0000
0000
0302
0000
0000
,  // measure 38
0000
0000
0000
0000
0000
0000
0000
0000
0203
0000
0000
0000
0000
0000
0000
0000
0000
0000
0000
0000
0000
2300
0000
0000
0000
0000
0000
0000
0000
0000
0000
0000
3001
0000
0000
0000
0000
0100
0000
0000
0000
0000
0000
0000
0000
0000
0000
0000
MMMM
0000
0000
0000
0000
0000
0000
0000
0000
0000
0000
0000
0000
0100
0000
0000
,  // measure 39
0002
0000
0000
0000
0000
0000
0000
0000
0000
0000
0000
0000
0000
0023
0000
0000
0000
0000
0000
0000
0000
0000
0000
0000
0230
0000
0000
0000
0000
0000
0000
0000
0000
0000
0000
0000
0000
2300
0000
0000
0000
0000
0000
0000
0000
0000
0000
0000
3010
0000
0000
0000
0000
0000
0000
0000
0000
0000
0000
0000
0000
0010
0000
0000
,  // measure 40
0000
0010
0220
0330
1001
0000
MMMM
0000
,  // measure 41
1002
0000
0000
0000
0000
0000
0000
0000
0000
0000
0000
0000
0000
0000
0000
0000
1003
0000
0000
0000
0000
0000
0000
0000
1000
0000
0000
0000
0000
0000
0000
0000
1001
0000
0000
0000
0000
0000
0000
0000
0000
0000
0000
0000
0000
0000
0000
0000
1200
0000
0000
0000
0000
0000
0000
0000
0000
0000
0000
0000
0000
1300
0000
0000
,  // measure 42
0000
0000
0000
0000
0000
0000
0000
0000
0200
0000
0000
0000
0000
0000
0000
0000
0302
0000
0000
0000
0000
0000
0000
0000
0203
0000
0000
0000
0000
0000
0000
0000
0320
0000
0000
0000
0000
0000
0000
0000
0000
0000
0000
0000
0000
0000
0000
0000
0130
0000
0000
0000
0000
0000
0000
0000
0000
0000
0000
0000
0000
0100
0000
0000
,  // measure 43
2000
0000
0010
3010
1010
0000
0120
0000
,  // measure 44
0230
0000
0000
0002
0303
0000
MMMM
0000
,  // measure 45
2000
0000
0000
0000
0000
0000
0000
0000
0000
0000
0000
0000
0000
0000
0000
0000
3010
0000
0000
0000
0000
0000
0000
0000
0010
0000
0000
0000
0000
0000
0000
0000
0110
0000
0000
0000
0000
0000
0000
0000
0000
0000
0000
0000
0000
0000
0000
0000
0102
0000
0000
0000
0000
0000
0000
0000
0000
0000
0000
0000
0000
2003
0000
0000
,  // measure 46
0000
3002
0023
2030
3020
0000
0031
0001
,  // measure 47
0011
0000
1000
1000
1010
0000
0120
0000
,  // measure 48
0130
0001
1000
0001
0100
0000
MMMM
0000
,  // measure 49
1001
0000
0000
0000
1010
0000
0010
0000
0110
0000
0000
0000
0201
0000
0000
0301
,  // measure 50
1000
0002
0023
2030
3010
0000
2002
3003
,  // measure 51
1010
0000
0011
0010
0110
0000
2100
0000
,  // measure 52
3002
0000
1003
0002
0103
0000
0120
0000
,  // measure 53
1030
1000
0010
0010
0100
0100
0001
0001
,  // measure 54
0010
0010
0100
0100
1000
1000
0001
0001
,  // measure 55
0010
1000
0010
0001
0100
1000
0100
0001
,  // measure 56
0010
0000
0100
0000
0010
0000
0100
0000
1000
0001
1000
0001
2000
0000
0000
0000
,  // measure 57
3020
0000
0000
0130
0000
0000
0000
0000
;

//---------------dance-single - ----------------
#NOTES:
     dance-single:
     :
     Hard:
     14:
     0.605262,0.810295,0.574651,0.652570,0.428553,435.000000,376.000000,59.000000,67.000000,0.000000,0.000000,0.605262,0.810295,0.574651,0.652570,0.428553,435.000000,376.000000,59.000000,67.000000,0.000000,0.000000:
// measure 0
0000
0000
0000
0000
,  // measure 1
0000
0000
0000
0000
,  // measure 2
0000
0000
0000
0000
,  // measure 3
0000
0000
0000
0000
,  // measure 4
0000
0000
0000
0000
,  // measure 5
0020
0000
0000
0000
0000
0000
1030
0000
2000
0000
0000
3200
0000
0000
0020
0000
,  // measure 6
0000
0000
0300
0000
0030
0000
0000
0001
,  // measure 7
0001
0000
0010
0000
1000
0000
0010
0000
0002
0000
0000
1003
0000
0000
0010
0000
,  // measure 8
1000
0000
0100
0000
0010
0000
0001
0000
0200
0000
0000
0310
0000
0000
0010
0000
,  // measure 9
1000
0000
0000
0000
0000
0000
0010
0000
0020
0000
0000
0230
0000
0000
0002
0000
,  // measure 10
0000
0000
0300
0000
0003
0000
0000
1000
,  // measure 11
0010
1000
0001
1000
0200
0000
0310
0001
,  // measure 12
0100
0001
1000
0001
0020
0000
0130
1000
,  // measure 13
1002
0000
1003
0010
0100
0010
0001
1000
,  // measure 14
0100
0010
0100
0001
1000
0100
0020
0001
,  // measure 15
0031
0000
0001
0100
0010
0001
1000
0100
,  // measure 16
0010
1000
0001
0010
1000
0010
0002
0000
,  // measure 17
2003
0000
0000
3010
0000
0000
0001
0000
2000
0000
0000
3100
0000
0000
0000
0000
,  // measure 18
0002
0000
0000
0013
0000
0000
1000
0000
0002
0000
0000
0103
0000
0000
1000
0000
,  // measure 19
0001
0000
0000
0011
0000
0000
0001
0000
1000
0000
0000
1100
0000
0000
0100
0000
,  // measure 20
1000
0010
1000
0000
0001
0100
0001
0000
1000
0001
1000
0001
2000
0000
0000
0000
,  // measure 21
3020
0000
0130
0001
2000
0000
3100
1000
,  // measure 22
0001
0100
0010
1000
0002
0000
1003
0100
,  // measure 23
0020
0000
0130
1000
0001
0010
0002
0000
,  // measure 24
1003
0010
0100
0010
2000
0000
3002
0000
,  // measure 25
0013
0000
0100
0100
2000
0000
3001
0001
,  // measure 26
0010
0100
0010
0001
0100
0010
1000
0000
,  // measure 27
1002
0000
0013
0001
0100
0000
0010
0000
,  // measure 28
0110
0000
0010
0000
1000
0000
1001
0000
1000
0010
1000
0100
2000
0000
3010
0000
,  // measure 29
0110
0000
0000
0000
1010
0000
1000
0000
1001
0000
0000
0001
1000
0000
0100
0000
,  // measure 30
1000
1010
0001
0101
0010
0011
0100
1100
,  // measure 31
1000
0001
0010
0001
1000
0001
0100
0001
1000
0100
1000
0010
1000
0001
1000
0010
,  // measure 32
0200
0000
0000
0301
0000
0000
0110
0000
,  // measure 33
1000
0000
0000
0000
0000
0000
0000
0000
0000
0000
0000
0000
0000
1100
0000
0000
0000
0000
0000
0000
0000
0000
0000
0000
0001
0000
0000
0000
0000
0000
0000
0000
0000
0000
0000
0000
0000
0011
0000
0000
0000
0000
0000
0000
0000
0000
0000
0000
0110
0000
0000
0000
0000
0000
0000
0000
0000
0000
0000
0000
0000
0011
0000
0000
,  // measure 34
0000
0000
0000
0000
0000
0000
0000
0000
0101
0000
0000
0000
0000
0000
0000
0000
0000
0000
0000
0000
0000
1100
0000
0000
0000
0000
0000
0000
0000
0000
0000
0000
0001
0000
0000
0000
0000
0100
0000
0000
0000
0000
0000
0000
0000
0000
0000
0000
1020
0000
0000
0000
0000
0000
0000
0000
0000
0000
0000
0000
0000
0130
0000
0000
,  // measure 35
0001
0000
0000
0000
0000
0000
0000
0000
0000
0000
0000
0000
0000
0011
0000
0000
0000
0000
0000
0000
0000
0000
0000
0000
0100
0000
0000
0000
0000
0000
0000
0000
0000
0000
0000
0000
0000
1010
0000
0000
0000
0000
0000
0000
0000
0000
0000
0000
0011
0000
0000
0000
0000
0000
0000
0000
0000
0000
0000
0000
0000
1100
0000
0000
,  // measure 36
0000
0000
0000
0000
0000
0000
0000
0000
0110
0000
0000
0000
0000
0000
0000
0000
0000
0000
0000
1100
0000
0000
0000
0000
0000
0000
0000
0000
0000
0000
0000
0000
1002
0000
0000
0000
0000
0000
0000
0000
0000
0000
0000
0000
0000
0000
0000
0000
0103
0000
0000
0000
0000
0010
0000
0000
1000
0000
0000
0000
0000
0001
0000
0000
,  // measure 37
1000
0000
0000
0000
0000
0000
0000
0000
0000
0000
0000
0000
0000
1010
0000
0000
0000
0000
0000
0000
0000
0000
0000
0000
0001
0000
0000
0000
0000
0000
0000
0000
0000
0000
0000
0000
0000
0101
0000
0000
0000
0000
0000
0000
0000
0000
0000
0000
0110
0000
0000
0000
0000
0000
0000
0000
0000
0000
0000
0000
0000
0101
0000
0000
,  // measure 38
0000
0000
0000
0000
0000
0000
0000
0000
0011
0000
0000
0000
0000
0000
0000
0000
0000
0000
0000
0000
0000
1010
0000
0000
0000
0000
0000
0000
0000
0000
0000
0000
0001
0000
0000
0000
0000
0010
0000
0000
0000
0000
0000
0000
0000
0000
0000
0000
1200
0000
0000
0000
0000
0000
0000
0000
0000
0000
0000
0000
0000
0310
0000
0000
,  // measure 39
0001
0000
0000
0000
0000
0000
0000
0000
0000
0000
0000
0000
0000
0101
0000
0000
0000
0000
0000
0000
0000
0000
0000
0000
0010
0000
0000
0000
0000
0000
0000
0000
0000
0000
0000
0000
0000
1100
0000
0000
0000
0000
0000
0000
0000
0000
0000
0000
0101
0000
0000
0000
0000
0000
0000
0000
0000
0000
0000
0000
0000
1010
0000
0000
,  // measure 40
0000
0000
0000
0000
0000
0000
0000
0000
0110
0000
0000
0000
0000
0000
0000
0000
0010
0000
0000
0000
0000
0000
0000
0000
0000
0000
0000
0000
0000
0000
0000
0000
1000
0000
0000
0000
0000
0100
0000
0000
1000
0000
0000
0000
0000
0100
0000
0000
0010
0000
0000
0000
0000
0000
0000
0000
0000
0000
0000
0000
0000
0000
0000
0000
,  // measure 41
1002
0000
0000
0000
0000
0000
0000
0000
0000
0000
0000
0000
0003
1000
0000
0000
0010
0000
0000
0000
0000
0000
0000
0000
0010
0000
0000
0000
0000
0000
0000
0000
1000
0000
0000
0000
0000
0100
0000
0000
0000
0000
0000
0000
0000
0000
0000
0000
0110
0000
0000
0000
0000
0000
0000
0000
0000
0000
0000
0000
0000
0012
0000
0000
,  // measure 42
0000
0000
0000
0000
0000
0000
0000
0000
0203
0000
0000
0000
0000
0000
0000
0000
2300
0000
0000
0000
0000
0000
0000
0000
3200
0000
0000
0000
0000
0000
0000
0000
0302
0000
0000
0000
0000
1000
0000
0000
0003
0000
0000
0000
0000
0000
0000
0000
2001
0000
0000
0000
0000
0000
0000
0000
0000
0000
0000
0000
0000
3001
0000
0000
,  // measure 43
1000
0000
0000
0000
0000
0000
0000
0000
0000
0000
0000
0000
0000
1000
0000
0000
0100
0000
0000
0000
0000
0000
0000
0000
0100
0000
0000
0000
0000
0000
0000
0000
1000
0000
0000
0000
0000
0010
0000
0000
0000
0000
0000
0000
0000
0000
0000
0000
0110
0000
0000
0000
0000
0000
0000
0000
0000
0000
0000
0000
0000
0010
0000
0000
,  // measure 44
0200
0000
0000
0000
0000
0000
0000
0000
1000
0000
0000
0000
0000
0000
0000
0000
0000
0000
0000
0000
0000
1000
0000
0000
0000
0000
0000
0000
0000
0000
0000
0000
0310
0000
0000
0000
0000
0100
0000
0000
0010
0000
0000
0000
0000
0100
0000
0000
0001
0000
0000
0000
0000
0100
0000
0000
0010
0000
0000
0000
0000
1000
0000
0000
,  // measure 45
0002
0000
0000
0000
0000
0000
0000
0000
0000
0000
0000
0000
0003
1000
0000
0000
0100
0000
0000
0000
0000
0000
0000
0000
0100
0000
0000
0000
0000
0000
0000
0000
1000
0000
0000
0000
0000
0010
0000
0000
0000
0000
0000
0000
0000
0000
0000
0000
0110
0000
0000
0000
0000
0000
0000
0000
0000
0000
0000
0000
0000
0102
0000
0000
,  // measure 46
0000
0000
0000
0000
0000
0000
0000
0000
0023
0000
0000
0000
0000
0000
0000
0000
2030
0000
0000
0000
0000
0000
0000
0000
3020
0000
0000
0000
0000
0000
0000
0000
0032
0000
0000
0000
0000
1000
0000
0000
0003
0000
0000
0000
0000
0000
0000
0000
1100
0000
0000
0000
0000
0000
0000
0000
0010
0000
0000
0000
0000
0000
0000
0000
,  // measure 47
0001
0000
0000
0000
0000
0000
0000
0000
0000
0000
0000
0000
0000
0001
0000
0000
0100
0000
0000
0000
0000
0000
0000
0000
0010
0000
0000
0000
0000
0000
0000
0000
1000
0000
0000
0000
0000
0100
0000
0000
0000
0000
0000
0000
0000
0000
0000
0000
0110
0000
0000
0000
0000
0000
0000
0000
0000
0000
0000
0000
0000
0100
0000
0000
,  // measure 48
0010
0000
0000
0000
0000
0000
0000
0000
1000
0000
0000
0000
0000
0000
0000
0000
0020
0000
0000
0000
0000
0000
0000
0000
0000
0000
0000
0000
0000
0000
0000
0000
0031
0000
0000
0000
0000
0010
0000
0000
0100
0000
0000
0000
0000
1000
0000
0000
0001
0000
0000
0000
0000
0000
0000
0000
0000
0000
0000
0000
0000
0000
0000
0000
,  // measure 49
2002
0000
3003
0000
1100
0000
0100
0000
0220
0000
0330
0000
0022
0000
0033
1000
,  // measure 50
0001
0100
0010
1000
0001
0010
0220
0330
,  // measure 51
2002
0000
3003
0000
0101
0000
0100
0000
0220
0000
0330
0000
2020
0000
3030
0001
,  // measure 52
1000
0000
1000
0000
0100
0000
0100
0000
0010
0001
1000
0001
0010
0001
0100
0010
,  // measure 53
2000
0000
3010
0100
0001
0000
1000
0000
0001
0010
0001
0000
0100
0000
0010
0000
,  // measure 54
2000
0000
3100
0010
0001
0000
1000
0000
0001
0100
0001
0000
0010
0000
0100
0000
,  // measure 55
0020
0000
1030
0010
1000
0000
0010
0000
0001
1000
0001
0000
0110
0000
0001
1000
,  // measure 56
0020
0000
0031
0010
0001
0000
0010
0000
1000
0100
1000
0100
0010
0001
0100
0010
,  // measure 57
2000
0000
0000
3001
0000
0000
0000
0000
;

//---------------dance-single - ----------------
#NOTES:
     dance-single:
     :
     Easy:
     6:
     0.253236,0.335294,0.243496,0.292195,0.000000,182.000000,157.000000,25.000000,30.000000,0.000000,0.000000,0.253236,0.335294,0.243496,0.292195,0.000000,182.000000,157.000000,25.000000,30.000000,0.000000,0.000000:
// measure 0
0000
0000
0000
0000
,  // measure 1
0000
0000
0000
0000
,  // measure 2
0000
0000
0000
0000
,  // measure 3
0000
0000
0000
0000
,  // measure 4
0000
0000
0000
0000
,  // measure 5
2000
0000
0000
0000
3002
0000
0000
0020
,  // measure 6
0000
0000
0033
0000
,  // measure 7
0200
0000
0000
0000
2300
0000
0000
0020
,  // measure 8
0000
0000
3030
0000
,  // measure 9
0001
0000
0000
0000
0020
0000
0000
2000
,  // measure 10
0000
0000
3030
0000
,  // measure 11
0100
0000
0000
0000
0020
0000
0000
0032
,  // measure 12
0000
0000
2000
3003
,  // measure 13
1001
0001
0100
0001
,  // measure 14
0010
0010
0001
0110
,  // measure 15
0001
1000
0100
1000
,  // measure 16
0010
0010
1000
0110
,  // measure 17
0001
0010
1010
0000
,  // measure 18
1000
0100
0101
0000
,  // measure 19
1000
0010
0001
0010
,  // measure 20
1000
1000
0001
0010
,  // measure 21
0110
0000
2000
0000
,  // measure 22
0002
0000
0000
3003
,  // measure 23
0100
0000
0020
0000
,  // measure 24
0200
0000
0000
0330
,  // measure 25
1001
0100
0010
0010
,  // measure 26
1000
0001
0100
0001
,  // measure 27
2000
0000
3100
0000
,  // measure 28
0002
0000
0013
0110
,  // measure 29
1000
1000
0001
0001
,  // measure 30
0010
0010
0100
0100
,  // measure 31
1000
0010
0001
0100
,  // measure 32
2000
0000
3000
0000
,  // measure 33
1001
0000
0100
0200
,  // measure 34
0000
1000
0301
0110
,  // measure 35
2000
0000
0001
0020
,  // measure 36
3000
0130
0010
1001
,  // measure 37
0110
0000
1000
2000
,  // measure 38
0000
0010
3100
1001
,  // measure 39
0020
0000
0100
0002
,  // measure 40
0030
1003
0001
0110
,  // measure 41
1001
0100
0010
0110
,  // measure 42
0000
1000
0002
0003
,  // measure 43
0011
0100
0010
0100
,  // measure 44
2000
0000
3001
0000
,  // measure 45
1001
0010
0100
0110
,  // measure 46
0000
0001
2000
3010
,  // measure 47
1100
0010
1100
0010
,  // measure 48
0002
0000
1003
0000
,  // measure 49
0110
0001
1000
0110
,  // measure 50
0001
0010
0100
1001
,  // measure 51
1000
0100
0001
0100
,  // measure 52
2000
0010
3010
0110
,  // measure 53
0001
0001
0010
0010
,  // measure 54
1000
1000
0100
0100
,  // measure 55
0001
0010
1000
0100
,  // measure 56
0001
0100
1000
0010
,  // measure 57
0002
0000
0000
0003
0000
0000
0000
0000
;

//---------------dance-single - ----------------
#NOTES:
     dance-single:
     :
     Medium:
     10:
     0.406291,0.447059,0.301935,0.584391,0.082789,292.000000,261.000000,31.000000,60.000000,0.000000,0.000000,0.406291,0.447059,0.301935,0.584391,0.082789,292.000000,261.000000,31.000000,60.000000,0.000000,0.000000:
// measure 0
0000
0000
0000
0000
,  // measure 1
0000
0000
0000
0000
,  // measure 2
0000
0000
0000
0000
,  // measure 3
0000
0000
0000
0000
,  // measure 4
0000
0000
0000
0000
,  // measure 5
2000
0000
0000
0000
0000
0000
0000
0000
0010
0000
0000
0010
0000
0000
0020
0000
,  // measure 6
0000
0000
0000
0000
3030
0000
0000
0100
,  // measure 7
0200
0000
0000
0000
0000
0000
0301
0000
1000
0000
0000
1000
0000
0000
1000
0000
,  // measure 8
0001
0000
0010
0000
0200
0000
0300
0010
,  // measure 9
0020
0000
0000
0000
0000
0000
0031
0000
0002
0000
0000
0100
0000
0000
0200
0000
,  // measure 10
0000
0000
0000
0000
0303
0000
0000
0010
,  // measure 11
0020
0000
0000
0000
0000
0000
1030
0000
0001
0000
0000
0001
0000
0000
0001
0000
,  // measure 12
0010
0000
0100
0000
0020
0000
0031
1000
,  // measure 13
1001
0000
0001
0010
0001
0000
0001
0100
,  // measure 14
0001
0000
0001
0010
0100
1000
0002
0000
,  // measure 15
1003
0000
1000
0010
1000
0000
1000
0100
,  // measure 16
1000
0000
1000
0010
0100
0001
2000
0000
,  // measure 17
3001
0000
0000
0001
0000
0000
0001
0000
0100
0000
0000
0100
0000
0000
0000
0000
,  // measure 18
0010
0000
0000
0010
0000
0000
0010
0000
1000
0000
0000
1000
0000
0000
1000
0000
,  // measure 19
0001
0000
0000
0010
0000
0000
0001
0000
1000
0000
0000
0010
0000
0000
1000
0000
,  // measure 20
0001
1000
0001
1002
,  // measure 21
1003
0000
0001
0100
0001
0000
1000
0100
,  // measure 22
2000
0010
0001
3200
,  // measure 23
0310
0000
0001
0100
0001
0000
1000
0000
,  // measure 24
0001
0010
0001
0000
0200
0000
0320
0000
,  // measure 25
1030
0000
0010
1000
0100
0000
0010
0001
,  // measure 26
0100
0000
0010
1000
0100
0010
0002
0000
,  // measure 27
2003
0000
3100
1000
0100
0000
0020
0000
,  // measure 28
0032
0000
0103
0001
0100
0000
0010
0000
,  // measure 29
0120
0000
0130
0010
0100
0000
0110
0000
,  // measure 30
2010
0000
3010
1000
0010
0000
1010
0000
,  // measure 31
1002
0000
1003
0001
1000
0000
2001
0000
,  // measure 32
3200
0000
0000
0020
0000
0000
0330
0000
,  // measure 33
1002
0000
0000
0000
0000
0000
0000
0000
0000
0000
0000
0000
0000
0000
0000
0000
0103
0000
0000
0000
0000
0000
0000
0000
0000
0000
0000
0000
0000
0000
0000
0000
0110
0000
0000
0000
0000
0000
0000
0000
0000
0000
0000
0000
0000
0000
0000
0000
0010
0000
0000
0000
0000
0000
0000
0000
0000
0000
0000
0000
0000
1000
0000
0000
,  // measure 34
0000
0000
0000
0000
0000
0000
0000
0000
1000
0000
0000
0000
0000
0000
0000
0000
0000
0000
0000
0000
0000
1000
0000
0000
0000
0000
0000
0000
0000
0000
0000
0000
2001
0000
0000
0000
0000
0000
0000
0000
0000
0000
0000
0000
0000
0000
0000
0000
3200
0000
0000
0000
0000
0000
0000
0000
0000
0000
0000
0000
0000
0000
0000
0000
,  // measure 35
0310
0000
0000
0000
0000
0000
0000
0000
0000
0000
0000
0000
0000
0000
0000
0000
0001
0000
0000
0000
0000
0000
0000
0000
0000
0000
0000
0000
0000
0000
0000
0000
0012
0000
0000
0000
0000
0000
0000
0000
0000
0000
0000
0000
0000
0000
0000
0000
1003
0000
0000
0000
0000
0000
0000
0000
0000
0000
0000
0000
0000
0010
0000
0000
,  // measure 36
0000
0000
0000
0000
0000
0000
0000
0000
0010
0000
0000
0000
0000
0000
0000
0000
0000
0000
0000
0000
0000
0010
0000
0000
0000
0000
0000
0000
0000
0000
0000
0000
0120
0000
0000
0000
0000
0000
0000
0000
0000
0000
0000
0000
0000
0000
0000
0000
2030
0000
0000
0000
0000
0000
0000
0000
0000
0000
0000
0000
0000
0000
0000
0000
,  // measure 37
3002
0000
0000
0000
0000
0000
0000
0000
0000
0000
0000
0000
0000
0000
0000
0000
0103
0000
0000
0000
0000
0000
0000
0000
0000
0000
0000
0000
0000
0000
0000
0000
0110
0000
0000
0000
0000
0000
0000
0000
0000
0000
0000
0000
0000
0000
0000
0000
1000
0000
0000
0000
0000
0000
0000
0000
0000
0000
0000
0000
0000
0100
0000
0000
,  // measure 38
0000
0000
0000
0000
0000
0000
0000
0000
0100
0000
0000
0000
0000
0000
0000
0000
0000
0000
0000
0000
0000
0100
0000
0000
0000
0000
0000
0000
0000
0000
0000
0000
0210
0000
0000
0000
0000
0000
0000
0000
0000
0000
0000
0000
0000
0000
0000
0000
0320
0000
0000
0000
0000
0000
0000
0000
0000
0000
0000
0000
0000
0000
0000
0000
,  // measure 39
0032
0000
0000
0000
0000
0000
0000
0000
0000
0000
0000
0000
0000
0000
0000
0000
1003
0000
0000
0000
0000
0000
0000
0000
0000
0000
0000
0000
0000
0000
0000
0000
2010
0000
0000
0000
0000
0000
0000
0000
0000
0000
0000
0000
0000
0000
0000
0000
3001
0000
0000
0000
0000
0000
0000
0000
0000
0000
0000
0000
0000
0100
0000
0000
,  // measure 40
0000
0100
0010
0000
0220
0000
0330
0000
,  // measure 41
1002
0000
1000
1000
2003
0000
3002
0000
,  // measure 42
1003
0100
0010
0001
1000
0000
1001
0000
,  // measure 43
0002
0000
0100
0100
0203
0000
0320
0000
,  // measure 44
2030
0000
0000
0100
3100
0000
1100
0000
,  // measure 45
0210
0000
0010
0010
0320
0000
0230
0000
,  // measure 46
1300
0001
0100
0010
2000
0000
3001
0001
,  // measure 47
0002
0000
1000
1000
1003
0000
2001
0000
,  // measure 48
3010
0100
0010
0100
0020
0000
0130
0000
,  // measure 49
0120
0000
1030
0001
0100
0000
0102
0000
,  // measure 50
1003
0010
0001
0010
1000
0000
1001
0000
,  // measure 51
2010
0000
3010
0100
0001
0000
0102
0000
,  // measure 52
1003
0100
0001
0100
1000
0000
1002
0000
,  // measure 53
1003
0010
0001
0010
1000
0000
1001
0000
,  // measure 54
0001
0100
1000
0100
0001
0000
1001
0000
,  // measure 55
1000
0100
0001
0100
1000
0000
1001
0000
,  // measure 56
0001
0010
1000
0010
0001
0001
2000
0000
,  // measure 57
3020
0000
0000
0130
0000
0000
0000
0000
;
