#TITLE:L.A. TIME;
#SUBTITLE:;
#ARTIST:The Big Brother;
#TITLETRANSLIT:;
#SUBTITLETRANSLIT:;
#ARTISTTRANSLIT:;
#GENRE:;
#CREDIT:;
#MUSIC:L.A. TIME.ogg;
#BANNER:L.A. TIME.png;
#BACKGROUND:L.A. TIME bg.png;
#CDTITLE:;
#SAMPLESTART:88.946;
#SAMPLELENGTH:14.160;
#SELECTABLE:YES;
#OFFSET:-0.443;
#BPMS:0.000=135.589;
#STOPS:;
#BGCHANGES:;
#FGCHANGES:;

//--------------- dance-single - ----------------
#NOTES:
     dance-single:
     :
     Hard:
     11:
     0,0,0,0,0:
0000
0000
0000
0000
,
0000
0000
0000
0000
,
0000
0000
0000
0000
,
0000
0000
0000
0000
,
1000
0100
0010
0002
0000
1003
0010
2000
,
0100
3100
0010
0200
0000
0000
1300
0000
,
0001
0100
0010
0200
0000
0301
1000
0200
,
1000
1300
0100
0001
0010
1000
0110
0000
,
1000
0100
0000
0100
0000
0000
0010
0000
0001
0000
0100
0000
1000
0000
0100
0000
,
0001
0010
0000
0010
0000
0000
0100
0000
1000
0000
0010
0000
0001
0000
0010
0000
,
1000
0001
0000
0001
0000
0000
0100
0000
0010
0000
1000
0000
0100
0000
0001
0000
,
0100
1000
0000
1000
0000
0000
0010
0000
0100
0000
0001
0000
0010
0000
1000
0000
,
0010
0000
0001
0000
0200
0000
0000
0000
0310
0000
0000
0010
0000
0000
0100
0000
,
0000
0000
0001
0000
2000
0000
0000
0000
3100
0000
0000
0100
0000
0000
0010
0000
,
0001
1000
0100
0001
0010
1000
0001
0000
,
1000
0010
0001
0100
1000
0010
0100
0001
,
1000
0000
0002
0000
1003
0200
0000
0000
,
1300
0100
0010
0100
1000
0001
1000
0000
,
0002
0000
0000
0000
0203
0000
0000
0320
,
0000
2030
0000
3001
0010
0001
0100
0001
,
0000
0202
0000
0000
0000
0000
0303
0000
,
1000
0100
0010
0001
0100
1000
0100
0000
,
0002
0000
0000
0000
0023
0000
0000
0230
,
0000
2300
0000
3001
0100
0001
1000
0100
,
0000
2200
0000
0000
0000
3300
0000
1000
,
0100
0001
0010
2000
0000
0000
3010
0200
,
0000
0310
1000
0000
0110
0000
1000
0200
,
0000
0310
0001
0000
1001
0000
0001
0200
,
0000
0310
1000
0000
0101
0000
1000
0002
,
0000
0013
0100
0000
1100
0000
0001
2000
,
0000
3001
0010
0000
0011
0000
0001
2000
,
0000
3010
1000
0000
1010
0000
0100
0002
,
0000
0013
0100
0000
1010
0000
1000
0002
,
0000
0103
0001
0000
1100
0000
1000
0000
,
0002
0000
1003
0010
0100
1000
0100
0001
,
0000
0110
0000
1001
0000
0100
0010
2000
,
0000
3001
0010
0100
0001
0100
1000
0001
,
0000
0101
0000
0110
1000
0100
0001
0010
,
1000
0000
0001
0100
0010
0001
0010
1000
,
0000
1010
0000
0101
0000
0100
0010
2000
,
0000
3100
1000
0100
0010
1000
0010
0001
,
0000
1001
0000
1000
0001
0100
1000
0010
,
0001
0000
1000
0000
0010
1000
0002
0000
,
0013
0001
1000
0020
0000
1030
0100
1000
,
0010
0000
1000
0000
0001
0100
0001
0000
,
1000
0100
0010
0002
0000
0103
0010
0100
,
0001
0000
1000
0000
0010
0100
0020
0000
,
1030
0100
0010
0200
0000
1300
0001
0100
,
0001
0000
0010
0000
0001
0100
0001
0000
,
1000
0100
0001
0100
1000
0001
0010
0000
,
0001
0000
1001
0000
1000
0000
0001
2000
,
0000
3010
0000
1000
0010
0001
0100
1000
,
0000
0110
0000
0001
1000
0100
0010
1000
,
0010
0001
0010
1000
0001
1000
0010
0000
,
0001
0000
0110
0000
1000
0000
0010
0200
,
0000
0310
0000
1000
0100
0001
0010
1000
,
0000
1001
0000
0001
0000
0100
0000
0001
,
0100
1000
0010
0002
0000
0000
0103
0020
,
0000
0130
0001
0000
0110
0000
0001
0020
,
0000
0130
1000
0000
1001
0000
1000
0020
,
0000
0130
0001
0000
1010
0000
0001
2000
,
0000
3100
0010
0000
0011
0000
1000
0002
,
0000
1003
0100
0000
1100
0000
1000
0002
,
0000
0103
0001
0000
0101
0000
0010
2000
,
0000
3100
0010
0000
0101
0000
0001
2000
,
0000
3010
1000
0000
0011
0000
0001
0000
,
0020
0000
0000
0000
0000
0000
0000
0000
0000
0000
0000
0000
0000
0000
0000
2030
,
0000
0000
0000
0000
0000
0000
0000
3200
0000
0000
0000
0302
0000
0000
0000
0203
,
0000
0000
0000
0000
0000
0000
0000
0000
0000
0000
0000
0000
0000
0301
0000
0020
,
0000
0000
0000
0000
0000
0000
0000
0000
0000
0000
0000
0000
0000
0000
0000
0031
,
0000
0000
0000
1000
0000
0000
0000
0100
0000
0000
0100
0000
0000
0010
0000
0000
,
0000
0100
0000
1000
0000
0000
0000
0001
0000
0000
0010
0000
0000
0100
0000
0000
,
0000
1000
0000
0001
0000
0000
0000
0010
0000
0000
0010
0000
0000
0001
0000
0000
,
0000
0100
0000
0010
0000
0000
0000
1000
0000
0000
1000
0000
0000
0100
0000
2000
,
0000
0000
0000
0000
,
3000
0000
0000
0000
;
