#TITLE:L'Amore È Femmina;
#SUBTITLE:(Out Of Love);
#ARTIST:Nina Zilli;
#TITLETRANSLIT:L'Amore E Femmina;
#SUBTITLETRANSLIT:;
#ARTISTTRANSLIT:;
#GENRE:POP;
#CREDIT:;
#BANNER:L'Amore E Femmina (Out Of Love).png;
#BACKGROUND:L'Amore E Femmina (Out Of Love)-bg.png;
#LYRICSPATH:;
#CDTITLE:cdtitle.png;
#MUSIC:L'Amore E Femmina (Out Of Love).ogg;
#OFFSET:-0.715000;
#SAMPLESTART:36.144001;
#SAMPLELENGTH:15.000000;
#SELECTABLE:YES;
#BPMS:0.000000=140.000000
;
#STOPS:
;
#BGCHANGES:-1.333=L'Amore E Femmina (Out Of Love).avi=1.000=0=0=0=StretchNoLoop==CrossFade_Fastest==,
99999=-nosongbg-=1.000=0=0=0 // don't automatically add -songbackground-
;
#KEYSOUNDS:;
#ATTACKS:;

//---------------dance-single - ----------------
#NOTES:
     dance-single:
     :
     Beginner:
     2:
     0.109638,0.193998,0.025582,0.085274,0.000000,90.000000,87.000000,3.000000,10.000000,0.000000,0.000000,0.109638,0.193998,0.025582,0.085274,0.000000,90.000000,87.000000,3.000000,10.000000,0.000000,0.000000:
0000
0000
0000
0000
,
0000
0000
0000
0000
,
0000
0000
0000
0000
,
0000
0000
0000
0000
,
0000
0000
0000
0000
,
1000
0000
0000
0000
,
0001
0000
0000
0000
,
0100
0000
0000
0000
,
0010
0000
0010
0010
,
0010
0000
0000
0000
,
1000
0000
0000
0000
,
0100
0000
0000
0000
,
0010
0000
0010
0010
,
0010
0000
0010
0000
,
0010
0000
0000
0000
,
0001
0000
0000
0000
,
1000
0000
0010
0010
,
0010
0000
0010
0000
,
0010
0000
0000
0000
,
1000
0000
0000
0000
,
0001
0000
0000
0000
,
1000
0000
1000
0000
,
1000
0000
0000
0000
,
0010
0000
0010
0000
,
0100
0100
0100
0000
,
0001
0000
0000
0000
,
0001
0000
0000
0000
,
0010
0000
0010
0000
,
0100
0100
0100
0000
,
2000
0000
3000
0000
,
0002
0000
0003
0000
,
0100
0000
0100
0000
,
0010
0000
0010
0000
,
1000
0000
0000
0000
,
0001
0000
0000
0000
,
0010
0000
0000
0000
,
0100
0000
0100
0000
,
0200
0000
0300
0000
,
0100
0000
0000
0000
,
1000
0000
1000
0000
,
1000
0000
0010
0010
,
0020
0000
0030
0000
,
0000
0000
0100
0100
,
0200
0000
0300
0000
,
0000
0000
0010
0010
,
0020
0000
0030
0000
,
0000
0000
0100
0100
,
0100
0000
0110
0000
,
0110
0000
0000
0000
,
0002
0000
0000
0000
,
0003
0000
0000
0000
,
0010
0000
0000
0000
,
0100
0000
0000
0000
,
2000
0000
0000
0000
,
3000
0000
0000
0000
,
0010
0000
0000
0000
,
0100
0000
0000
0000
,
0002
0000
0003
0000
,
2000
0000
3000
0000
,
0100
0000
0100
0000
,
0010
0000
0010
0000
,
0001
0000
0000
0000
,
1000
0000
0000
0000
,
0010
0000
0000
0000
,
0100
0000
0100
0000
,
0110
0000
0000
0000
;

//---------------dance-single - ----------------
#NOTES:
     dance-single:
     :
     Easy:
     5:
     0.225367,0.279272,0.085274,0.144966,0.000000,185.000000,175.000000,10.000000,17.000000,0.000000,0.000000,0.225367,0.279272,0.085274,0.144966,0.000000,185.000000,175.000000,10.000000,17.000000,0.000000,0.000000:
0000
0000
0000
0000
,
0000
0000
0000
0000
,
0000
0000
0000
0000
,
0000
0000
0000
0000
,
0000
0000
0000
0000
,
0000
1000
0010
1000
,
0000
0001
0010
0001
,
0100
0000
0010
0000
,
1000
0000
0001
1000
,
1001
0001
0010
0001
,
0000
1000
0010
1000
,
0100
0000
0010
0000
,
0001
0000
1000
0001
,
1001
1000
0010
0100
,
0010
1000
0100
0001
,
0000
0001
0100
1000
,
0000
1000
0001
1000
,
1001
0001
0010
0100
,
0010
0001
0100
1000
,
0000
1000
0100
0001
,
0001
0010
0100
1000
,
0001
0100
1000
0100
,
0001
0001
1000
1000
,
0100
0001
0100
1000
,
0010
0100
0001
0000
,
1000
0100
0001
0100
,
1000
1000
0001
0001
,
0100
1000
0100
0001
,
0010
0100
1000
0000
,
0002
0000
1003
0000
,
2000
0000
3001
0000
,
0001
0100
1000
0010
,
0001
0100
0010
0000
,
1000
0100
0001
0100
,
1000
0010
0100
0001
,
0001
0010
1000
0010
,
0001
0100
0010
1000
,
2002
0000
3003
0000
,
0001
0100
0010
1000
,
0200
0000
0310
0000
,
0000
0000
0001
1000
,
2002
0000
3003
0000
,
1000
0100
0010
0001
,
0200
0000
0310
0000
,
0000
0000
1000
0001
,
0020
0000
0130
0000
,
0000
0000
1000
0001
,
1001
0000
1001
0000
,
0110
0000
0110
0000
,
0002
0000
0000
0003
,
0200
0000
0000
0300
,
1000
0000
1000
0000
,
0010
0000
0001
0000
,
2000
0000
0000
3000
,
0200
0000
0000
0300
,
0001
0000
0001
0000
,
0010
0000
0010
0000
,
2000
0000
3001
0000
,
0002
0000
1003
0000
,
1000
0100
0001
0010
,
1000
0100
0010
0000
,
0001
0100
1000
0100
,
0001
0010
0100
1000
,
1000
0010
0001
0010
,
1000
0100
0010
0001
,
2002
0000
3003
0000
;

//---------------dance-single - ----------------
#NOTES:
     dance-single:
     :
     Medium:
     9:
     0.409315,0.446836,0.494589,0.366678,0.213185,336.000000,278.000000,58.000000,43.000000,0.000000,0.000000,0.409315,0.446836,0.494589,0.366678,0.213185,336.000000,278.000000,58.000000,43.000000,0.000000,0.000000:
0000
0000
0000
0000
,
0000
0000
0000
0000
,
0000
0000
0000
0000
,
0000
0000
0000
0000
,
0000
0000
0000
0000
,
1000
0000
0000
0001
0000
0100
0010
0000
1000
0010
0000
0000
,
1000
0000
0000
0001
0000
0010
0100
0000
1000
0100
0000
0000
,
1000
0101
0001
1010
,
1000
0000
0001
1000
0000
0001
0010
0000
0000
0110
0000
0000
,
1001
0000
0000
1000
0000
0100
0010
0000
0001
0010
0000
0000
,
0001
0000
0000
1000
0000
0010
0100
0000
0001
0100
0000
0000
,
0001
1100
1000
0011
,
0001
0000
1000
0001
0000
1000
0010
0000
0000
0110
0000
0000
,
1001
0000
0000
1000
0000
0000
1100
0000
0000
0010
0000
0001
,
1000
0000
0000
0010
0000
0100
0010
0000
0100
0001
0000
0000
,
1000
0000
0000
0100
0000
0010
0100
0000
0010
0001
0000
0000
,
1000
0001
1001
0110
,
1001
0000
0000
0001
0000
0000
0101
0000
0000
0010
0000
1000
,
0001
0000
0000
0010
0000
0100
1000
0000
0100
1000
0000
0000
,
0001
0000
0000
0100
0000
0010
1000
0000
0010
1000
0000
0000
,
0002
0023
0230
1300
,
1002
0203
0320
2030
,
3001
0000
0010
0100
0000
0010
0100
0000
1000
0001
0000
0000
,
1000
1001
0110
1001
,
0001
0000
0010
0001
0000
1000
0010
0000
1000
0001
0000
0000
,
2001
3200
0320
0032
,
1003
0000
0010
0100
0000
0010
0100
0000
0001
1000
0000
0000
,
0001
1001
0110
1001
,
1000
0000
0010
1000
0000
0001
0010
0000
0001
1000
0000
0000
,
1002
0010
0100
0010
,
2003
0100
0010
0100
,
3001
0000
0010
0001
0000
0000
1000
0000
0010
1000
0000
0000
,
0001
1000
0110
1001
,
0001
0000
0100
0010
0000
0100
0001
0000
0000
1001
0000
0000
,
1010
0000
0000
0100
0000
0001
1000
0000
0000
1001
0000
0000
,
0011
0000
0000
0100
0000
1000
0001
0000
0000
1001
0000
0000
,
1020
0230
0302
1003
,
2002
0000
3003
0000
,
1100
0000
0000
0000
0000
1000
0001
0000
0000
1001
0000
0000
,
1000
0000
0100
0000
0010
0000
0001
0000
1000
0001
0000
0000
,
1001
0000
0110
1001
,
0101
0000
0020
1030
,
1001
0000
0011
1100
,
1010
0000
0200
0301
,
1001
0000
1100
0011
,
0101
0000
0020
1030
,
1100
0000
0020
0031
,
1001
0000
0000
0010
0010
0000
0000
0000
,
1001
0000
0000
0010
0010
0000
0100
0000
,
2000
0001
0001
0001
,
3200
0010
0010
0010
,
0302
0100
0203
1000
,
2300
3020
0230
0301
,
0002
1000
1000
1000
,
0203
0010
0010
0010
,
2300
0100
3200
0001
,
0302
0023
0230
1300
,
2001
0010
0100
0010
,
3002
0100
0010
0100
,
1003
0000
0010
1000
0000
0000
0001
0000
0010
0001
0000
0000
,
1000
0001
0110
1001
,
1000
0000
0100
0010
0000
0100
1000
0000
0000
1001
0000
0000
,
0011
0000
0000
0100
0000
1000
0001
0000
0000
1001
0000
0000
,
1010
0000
0000
0100
0000
0001
1000
0000
0000
1001
0000
0000
,
0021
0230
2300
3001
,
2002
0000
3003
0000
;

//---------------dance-single - ----------------
#NOTES:
     dance-single:
     :
     Hard:
     12:
     0.543317,0.586472,0.562809,0.289932,0.643819,446.000000,380.000000,66.000000,34.000000,0.000000,0.000000,0.543317,0.586472,0.562809,0.289932,0.643819,446.000000,380.000000,66.000000,34.000000,0.000000,0.000000:
// measure 0
0000
0000
0000
0000
,  // measure 1
0000
0000
0000
0000
,  // measure 2
0000
0000
0000
0000
,  // measure 3
0000
0000
0000
0000
,  // measure 4
0000
0000
0000
0000
,  // measure 5
1001
0000
1000
0100
0000
0100
0001
0000
0001
0100
0000
0000
,  // measure 6
1100
0000
1000
0010
0000
0010
0001
0000
0001
0010
0000
0010
,  // measure 7
1000
0000
0000
1100
0000
0000
0011
0000
0000
1001
0000
1000
,  // measure 8
0010
0000
0100
0001
0000
1000
0001
0000
0000
0110
0000
0000
,  // measure 9
1001
0000
0001
0100
0000
0100
1000
0000
1000
0100
0000
0000
,  // measure 10
0101
0000
0001
0010
0000
0010
1000
0000
1000
0010
0000
0010
,  // measure 11
0001
0000
0000
0101
0000
0000
1010
0000
0000
1001
0000
0001
,  // measure 12
0010
0000
0100
1000
0000
0001
1000
0000
0000
0110
0000
0000
,  // measure 13
1001
0000
0000
1100
0000
0000
0011
0000
0000
1001
0000
1000
,  // measure 14
0010
0000
0010
0001
0000
0001
0010
0000
0010
1000
0000
1000
,  // measure 15
0001
0000
0000
1001
0000
1000
0100
0000
0100
0010
0000
0010
,  // measure 16
0001
0101
1010
0110
,  // measure 17
1001
0000
0000
0101
0000
0000
1010
0000
0000
1001
0000
0001
,  // measure 18
0010
0000
0010
1000
0000
1000
0010
0000
0010
0001
0000
0001
,  // measure 19
1000
0000
0000
1001
0000
0001
0100
0000
0100
0010
0000
0010
,  // measure 20
1000
0000
0000
1001
0000
0000
0001
0010
0100
0010
0100
1000
,  // measure 21
0001
0000
0001
0100
0000
0100
1000
0000
1000
0010
0000
0010
,  // measure 22
0001
0000
0001
1000
0010
1000
0010
0000
0100
0001
1000
0001
,  // measure 23
1000
0000
0000
1100
0000
0000
0011
0000
0000
1001
0000
1000
,  // measure 24
0010
0000
0100
0001
0000
1000
0100
1000
0100
0010
0000
0001
,  // measure 25
1000
0000
1000
0100
0000
0100
0001
0000
0001
0010
0000
0010
,  // measure 26
1000
0000
1000
0001
0010
0001
0010
0000
0100
1000
0001
1000
,  // measure 27
0001
0000
0000
0101
0000
0000
1010
0000
0000
1001
0000
0001
,  // measure 28
0010
0000
0100
1000
0000
0001
0100
0001
0100
0010
0000
0000
,  // measure 29
2010
0000
0000
0001
0000
0000
3100
0000
1000
0010
0000
0100
,  // measure 30
0002
0000
0000
1000
0000
0000
0013
0000
0001
0100
0000
0001
,  // measure 31
1000
0100
1000
0100
0000
0010
0001
1000
0001
1000
0000
0000
,  // measure 32
1010
0101
0011
1100
,  // measure 33
1001
0000
0001
0010
0000
0010
1000
0000
1000
0100
0000
0100
,  // measure 34
0001
0000
0001
1000
0100
1000
0100
0000
0010
0001
0010
0001
,  // measure 35
0100
0000
0100
1000
0000
1000
0001
0000
0001
0010
0000
0010
,  // measure 36
1000
1100
0011
0101
,  // measure 37
2002
0000
0000
3003
0000
1000
0020
0000
0000
0130
0000
0000
,  // measure 38
0202
0000
0000
0303
0000
0001
1000
0000
0000
1001
0000
0000
,  // measure 39
0001
0000
0010
0000
1000
0000
0010
0000
0001
0000
1000
0000
,  // measure 40
2002
3003
0101
1010
,  // measure 41
2200
0000
0000
3300
0000
0010
0002
0000
0000
1003
0000
0000
,  // measure 42
2020
0000
0000
3030
0000
0100
0001
0000
0001
1000
0000
0000
,  // measure 43
2002
0000
0000
3003
0000
0001
0020
0000
0000
0130
0000
0000
,  // measure 44
2200
0000
0000
3300
0000
1000
0001
0000
0001
0100
0000
0000
,  // measure 45
0202
0000
0000
0303
0000
0010
2000
0000
0000
3001
0000
0000
,  // measure 46
0022
0000
0000
0033
0000
0100
1000
0000
1000
0001
0000
0000
,  // measure 47
1001
0000
0000
1010
1010
0000
0000
0000
,  // measure 48
1001
0000
0000
0011
0011
0000
0110
0000
,  // measure 49
1002
0100
1000
0010
,  // measure 50
2003
0010
0001
0100
,  // measure 51
3020
0000
0000
0001
0000
0000
1000
0000
0000
0130
0000
0010
,  // measure 52
1000
0000
1000
0001
0000
0001
0010
0000
0010
0100
0000
0100
,  // measure 53
2000
0100
0001
0010
,  // measure 54
3002
0010
1000
0100
,  // measure 55
0023
0000
0000
1000
0000
0000
0001
0000
0000
0130
0000
0010
,  // measure 56
0001
0000
0001
1000
0000
1000
0001
0100
0010
1000
0100
0010
,  // measure 57
0002
0000
0000
1000
0000
0000
0103
0000
0001
0010
0000
0100
,  // measure 58
2000
0000
0000
0001
0000
0000
3010
0000
1000
0100
0000
1000
,  // measure 59
0001
0010
0001
0100
0000
0001
1000
0010
1000
0100
0000
0000
,  // measure 60
0011
1100
1010
0101
,  // measure 61
1001
0000
1000
0010
0000
0100
0001
0000
0001
1000
0001
1000
,  // measure 62
0100
0000
0010
0001
1000
0001
1000
0000
0010
0100
0001
1000
,  // measure 63
0001
0000
0001
0010
0000
0010
1000
0000
1000
0100
0000
0100
,  // measure 64
0001
0000
0001
0010
0100
1000
0001
0000
1000
0010
0100
0002
,  // measure 65
2000
0000
3003
0000
;
