#TITLE:Koko Soko;
#SUBTITLE:(AKIBA KOUBOU Eurobeat Remix);
#ARTIST:SMiLE.dk;
#TITLETRANSLIT:;
#SUBTITLETRANSLIT:;
#ARTISTTRANSLIT:;
#GENRE:;
#CREDIT:;
#BANNER:Koko Soko (AKIBA KOUBOU Eurobeat Remix).png;
#BACKGROUND:Koko Soko (AKIBA KOUBOU Eurobeat Remix)-bg.png;
#LYRICSPATH:;
#CDTITLE:;
#MUSIC:Koko Soko (AKIBA KOUBOU Eurobeat Remix).ogg;
#OFFSET:-0.421000;
#SAMPLESTART:33.560001;
#SAMPLELENGTH:12.631580;
#SELECTABLE:YES;
#BPMS:0.000000=152.000000
;
#STOPS:
;
#BGCHANGES:;
#KEYSOUNDS:;
#ATTACKS:;

//---------------dance-double - ----------------
#NOTES:
     dance-double:
     :
     Challenge:
     15:
     0.757459,0.805499,0.299256,0.122772,0.402845,691.000000,652.000000,39.000000,16.000000,0.000000,0.000000,0.757459,0.805499,0.299256,0.122772,0.402845,691.000000,652.000000,39.000000,16.000000,0.000000,0.000000:
// measure 0
00000000
00000000
00000000
00000000
,  // measure 1
00000000
00000000
00000000
00000000
,  // measure 2
00000000
00000000
00000000
00000000
,  // measure 3
10000000
10000000
00100000
01000000
00010000
00010000
00000010
00000100
,  // measure 4
00001000
00000010
00000001
00000010
00000100
00000110
00001001
00000000
,  // measure 5
00000010
00010000
00000010
00000000
00000100
00000000
00000010
00000000
00001000
00000000
00000100
00010000
00000000
00001000
00100000
00000000
,  // measure 6
01000000
00100000
00010000
01000000
00100000
00000000
10000000
00000000
01000000
00000000
01100000
00000000
00110000
00000000
00000000
00000000
,  // measure 7
00100000
00001000
00100000
00000000
01000000
00000000
00100000
00000000
00010000
01000000
00001000
00000000
00010000
00000000
00000100
00000000
,  // measure 8
00000001
00000100
00000010
00000000
00000001
00000010
00000100
00000000
00001000
00000000
00001010
00000000
00000110
00000000
00000000
00000000
,  // measure 9
00000010
00010000
00000010
00000000
00000100
00000000
00000010
00000000
00001000
00000000
00000100
00010000
00000000
00001000
00100000
00000000
,  // measure 10
01000000
10000000
00100000
01000000
00010000
00000000
00100000
00000000
00001000
00000000
00100000
00010000
00000000
00100000
01000000
00000000
,  // measure 11
00010000
01000000
00010000
00000000
00001000
00000000
00000100
00000000
00000001
00000010
00000100
00000000
00001000
00000000
00010000
00000000
,  // measure 12
00100000
01000000
10000000
00000000
11000000
00000000
11000000
00000000
12000000
00000000
00200000
00000000
03000000
00000000
00000000
00000000
,  // measure 13
01300000
10000000
01000000
10000000
00100000
00000000
00100000
10000000
,  // measure 14
01000000
00000000
01000000
00100000
20000000
00000000
00000000
00000000
,  // measure 15
30100000
00010000
00100000
00001000
00010000
00001000
00010000
00000100
,  // measure 16
00001000
00000000
00001000
00000001
00000020
00000000
00000000
00000000
,  // measure 17
00001030
00000010
00000001
00000010
00000001
00000100
00001000
00000100
,  // measure 18
00001000
00010000
01000000
10000000
00200000
00000000
00000000
10300000
,  // measure 19
00100000
10000000
00100000
01000000
00010000
01000000
00010000
00100000
,  // measure 20
00001000
00010000
00000100
00001000
00000001
00000000
00002100
00000000
,  // measure 21
00003001
00000010
00001000
00010000
00100000
10000000
01000000
00000000
,  // measure 22
00010000
00001000
01000000
00100000
20000000
01000000
31000000
00000000
,  // measure 23
10000000
00100000
00010000
00001000
00000010
00000001
00000100
00001000
,  // measure 24
00010000
01000000
00010000
00001000
00000100
00000101
00000101
00000000
,  // measure 25
00000001
00000010
00001000
00010000
00100000
10000000
01000000
00010000
,  // measure 26
00001000
00100000
00001000
00010000
00000010
00010000
01000000
00000000
,  // measure 27
10000000
00100000
00010000
00001000
00000010
00000001
00000100
00000010
,  // measure 28
00001000
00000010
00000100
00000001
00001000
00000010
00000100
00000001
00001000
00000000
00020000
00000000
01000000
00000000
00000000
00000000
,  // measure 29
10030000
00000000
00000000
00100000
01000000
00000000
00000000
00001000
00010000
00000000
00000000
00000010
00000100
00000000
00000001
00000000
,  // measure 30
00000010
00000000
00000000
00000100
00001000
00000000
00000000
00010000
00100000
00000000
01000000
00000000
10000000
00000000
00000000
00000000
,  // measure 31
10000000
00000000
00000000
00100000
01000000
00000000
00000000
00001000
00010000
00000000
00000000
00000010
00001000
00000000
00000100
00000000
,  // measure 32
00000010
00000001
00001000
00000010
00000100
00000101
00000101
00000000
,  // measure 33
00000001
00000000
00000000
00000010
00000100
00000000
00000000
00010000
00001000
00000000
00000000
00100000
01000000
00000000
10000000
00000000
,  // measure 34
00100000
00000000
00000000
01000000
00010000
00000000
00000000
00001000
00000010
00000000
00000100
00000000
00000001
00000000
00000000
00000000
,  // measure 35
00000001
00000000
00000000
00000010
00000100
00000000
00000000
00010000
00001000
00000000
00000000
00100000
00010000
00000000
01000000
00000000
,  // measure 36
00100000
10000000
01000000
10000000
00100000
10000000
01000000
10000000
00100000
00000000
01000000
00000000
01000000
00000000
00000000
00000000
,  // measure 37
01000000
00001000
01000000
00000000
00100000
00000000
01000000
00000000
00010000
00000000
00100000
00001000
00000000
00010000
00000100
00000000
,  // measure 38
00000010
00000100
00001000
00000010
00000100
00000000
00000001
00000000
00000010
00000000
00000110
00000000
00001100
00000000
00000000
00000000
,  // measure 39
00000100
00010000
00000100
00000000
00000010
00000000
00000100
00000000
00001000
00000010
00010000
00000000
00001000
00000000
00100000
00000000
,  // measure 40
10000000
00100000
01000000
00000000
10000000
01000000
00100000
00000000
00010000
00000000
01010000
00000000
01100000
00000000
00000000
00000000
,  // measure 41
01000000
00001000
01000000
00000000
00100000
00000000
01000000
00000000
00010000
00000000
00100000
00001000
00000000
00010000
00000100
00000000
,  // measure 42
00000010
00000001
00000100
00000010
00001000
00000000
00000100
00000000
00010000
00000000
00000100
00001000
00000000
00000100
00000010
00000000
,  // measure 43
00001000
00000010
00001000
00000000
00010000
00000000
00100000
00000000
10000000
01000000
00100000
00000000
00010000
00000000
00001000
00000000
,  // measure 44
00000100
00000010
00000001
00000000
00000011
00000000
00000011
00000000
00000021
00000000
00000200
00000000
00000030
00000000
00000000
00000000
,  // measure 45
00001300
00001000
00001000
00001000
00000001
00000001
00000100
00000010
,  // measure 46
00000100
00000001
00000010
00000000
00001000
00000010
00000100
00000000
,  // measure 47
00010000
00010000
00010000
00010000
00001000
00001000
00001000
01000000
,  // measure 48
00010000
00100000
01000000
00000000
10000000
10010000
10010000
00000000
,  // measure 49
00010000
00010000
00010000
00010000
10000000
01000000
00010000
01000000
,  // measure 50
10000000
00010000
00100000
00000000
00010000
00100000
01000000
00000000
,  // measure 51
00010000
00010000
00010000
00010000
00001000
00001000
00001000
00000100
,  // measure 52
00000001
00000010
00001000
00010000
01000000
10000000
10010000
00000000
,  // measure 53
10000000
00100000
00001000
00010000
00000100
00000001
00000010
00000000
,  // measure 54
00001000
00000010
00001000
00000000
00000010
00000000
00000001
00000000
00000100
00000000
00000010
00000000
00001000
00000000
00000000
00000000
,  // measure 55
00000001
00000010
00010000
00001000
01000000
10000000
00010000
01000000
,  // measure 56
10000000
01000000
10000000
00000000
01000000
00000000
00010000
00000000
10000000
00000000
11000000
00000000
11000000
00000000
00000000
00000000
,  // measure 57
10000000
00100000
00001000
00010000
00000100
00000001
00000010
00001000
,  // measure 58
00000001
00000100
00000001
00000000
00001000
00000000
00000010
00000000
00000002
00000000
00001000
00000000
00001003
00000000
00000000
00000000
,  // measure 59
00000001
00000010
00010000
00001000
01000000
00100000
00010000
10000000
,  // measure 60
00100000
01000000
00100000
10000000
00100000
01000000
00010000
01000000
00001000
00000000
00011000
00000000
00010100
00000000
00000000
00000000
,  // measure 61
00000010
00000000
00000001
00000100
00000001
00000000
00001000
00000100
00010000
00000000
00001000
01000000
00010000
00000000
10000000
00000000
,  // measure 62
00100000
00000000
10000000
01000000
10000000
00000000
00010000
01000000
00001000
00000000
00010000
00000000
00000100
00000000
00000010
00000000
,  // measure 63
00000001
00000000
00000100
00000010
00000100
00000000
00001000
00010000
00001000
00000000
00100000
01000000
00100000
00000000
00010000
00000000
,  // measure 64
01000000
00100000
10000000
00010000
00100000
01100000
20010000
00000000
,  // measure 65
30100000
00000000
10000000
01000000
10000000
00000000
00010000
00100000
00001000
00000000
00010000
00000100
00001000
00000000
00000001
00000000
,  // measure 66
00000010
00000000
00000001
00000100
00000001
00000000
00001000
00000010
00010000
00000000
00001000
00000000
01000000
00000000
00100000
00000000
,  // measure 67
10000000
00000000
00100000
01000000
00100000
00000000
00010000
00001000
00010000
00000000
00000010
00000100
00000010
00000000
00001000
00000000
,  // measure 68
00000100
00000010
00000001
00001000
00000100
00000010
00000001
00001000
00000100
00000000
00001100
00000000
00011000
00000000
00000000
00000000
,  // measure 69
00100000
00010000
00100000
00000000
00001000
00000000
00100000
00000000
01000000
00000000
00100000
10000000
00000000
00010000
01000000
00000000
,  // measure 70
10000000
00100000
01000000
00010000
00100000
00000000
00001000
00000000
00000010
00000000
00000100
00000000
00001000
00000000
00001000
00000000
,  // measure 71
00000010
00001000
00000010
00000000
00010000
00000000
00000010
00000000
00000001
00000010
00000100
00000000
00001000
00000000
00000200
00000000
,  // measure 72
00000010
00000301
00001000
00000100
00000010
00000110
00001001
00000000
,  // measure 73
00000100
00001000
00000100
00000000
00010000
00000000
00000100
00000000
00000010
00000000
00000100
00000001
00000000
00001000
00000010
00000000
,  // measure 74
00000001
00000100
00000010
00001000
00000100
00000000
00010000
00000000
01000000
00000000
00100000
00001000
00000000
01000000
00100000
00000000
,  // measure 75
01000000
00010000
01000000
00000000
00001000
00000000
01000000
00000000
10000000
01000000
00100000
00000000
00010000
00000000
00200000
00000000
,  // measure 76
01000000
10300000
10010000
10010000
10020000
00200000
00000000
00030000
,  // measure 77
01300000
01000000
10000000
10000000
00100000
00100000
00010000
00000000
,  // measure 78
00001000
00001000
00000010
00000010
00000001
00000000
00000001
00000000
,  // measure 79
00000100
00000100
00001000
00001000
00010000
01000000
10000000
00100000
,  // measure 80
01000000
00010000
00100000
00001000
00010000
00011000
00011000
00000000
;

//---------------dance-single - ----------------
#NOTES:
     dance-single:
     :
     Hard:
     15:
     0.762940,0.805499,0.429702,0.138118,0.410518,696.000000,640.000000,56.000000,18.000000,0.000000,0.000000,0.762940,0.805499,0.429702,0.138118,0.410518,696.000000,640.000000,56.000000,18.000000,0.000000,0.000000:
0000
0000
0000
0000
,
0000
0000
0000
0000
,
0000
0000
0000
0000
,
1100
1100
0000
0000
0101
0101
0000
0000
,
0001
0010
1000
0010
0100
0110
1001
0000
,
0010
1000
0010
0000
0100
0000
0010
0000
1000
0000
0001
0100
0000
0001
0010
0000
,
0001
1000
0010
0100
0002
0000
0010
0000
1003
0000
0100
0000
0110
0000
0000
0000
,
0010
0001
0010
0000
0100
0000
0010
0000
0001
0100
0001
0000
1000
0000
0100
0000
,
0001
0100
0010
0000
0001
0010
0100
0000
1000
0000
1010
0000
1001
0000
0000
0000
,
0010
0001
0010
0000
0100
0000
0010
0000
0001
0000
1000
0100
0000
1000
0010
0000
,
1000
0001
0010
0100
2000
0000
0010
0000
0100
0000
3100
0001
0000
0100
1000
0000
,
0010
1000
0010
0000
0100
0000
0010
0000
1000
0100
1000
0000
0001
0000
0010
0000
,
0100
0010
0011
0011
0011
2002
0000
3003
,
0001
0100
1000
0100
0010
0000
0001
0010
,
1000
0010
0100
0001
2000
0000
0000
3000
,
1000
0100
0001
0100
0010
1000
0010
0001
,
1000
0000
1000
0100
0020
0000
0000
0030
,
0001
0010
0100
1000
0010
1000
0100
0001
,
0100
1000
0001
0100
0020
0000
0000
1030
,
0010
0100
0001
0010
0001
0100
1000
0100
,
0001
1000
0100
0010
0100
0000
1001
0000
,
0001
0010
1000
0001
0100
1000
0001
0000
,
1000
0010
1000
0000
0001
0000
0010
0000
0100
0000
0000
0000
1100
0000
0000
0000
,
1000
0010
0001
1000
0100
0001
1000
0100
,
0001
0100
1000
0000
0001
0000
0100
0000
0010
0000
0110
0000
1001
0000
0000
0000
,
0001
0010
1000
0001
0100
1000
0001
0100
,
0010
0001
0010
0000
0100
0000
0010
0000
1000
0000
0000
0000
0101
0000
0000
0000
,
1000
0010
0001
1000
0100
0001
1000
0100
,
0010
0001
1000
0100
0010
0001
1000
0100
0010
0000
0011
0000
1001
0000
0000
0000
,
0001
0000
0000
0010
0100
0000
0000
1000
0010
0000
0000
0100
0001
0000
1000
0000
,
0010
0000
0000
1000
0001
0000
0000
0010
0100
0000
1000
0000
0001
0000
0000
0000
,
1000
0000
0000
0010
0100
0000
0000
0001
0010
0000
0000
0100
1000
0000
0001
0000
,
0100
1000
0100
0001
1000
1010
1001
0000
,
1000
0000
0000
0100
0010
0000
0000
0001
0100
0000
0000
0010
1000
0000
0001
0000
,
0100
0000
0000
0001
1000
0000
0000
0100
0010
0000
0001
0000
1000
0000
0000
0000
,
0001
0000
0000
0100
0010
0000
0000
1000
0100
0000
0000
0010
0001
0000
1000
0000
,
0010
1000
0010
0100
0010
1000
0010
0100
0001
0000
0101
0000
1001
0000
0000
0000
,
0010
0001
0010
0000
0100
0000
0010
0000
0001
0000
1000
0100
0000
1000
0010
0000
,
1000
0001
0010
0100
2000
0000
0010
0000
3001
0000
0100
0000
0110
0000
0000
0000
,
0010
1000
0010
0000
0100
0000
0010
0000
1000
0100
1000
0000
0001
0000
0100
0000
,
1000
0100
0010
0000
1000
0010
0100
0000
0001
0000
0011
0000
1001
0000
0000
0000
,
0010
1000
0010
0000
0100
0000
0010
0000
1000
0000
0001
0100
0000
0001
0010
0000
,
0001
1000
0010
0100
0002
0000
0010
0000
0100
0000
0103
1000
0000
0100
0001
0000
,
0010
0001
0010
0000
0100
0000
0010
0000
0001
0100
0001
0000
1000
0000
0010
0000
,
0100
0010
1010
1010
1010
2002
0000
3003
,
0001
0001
0100
0100
0001
0100
0001
1000
,
0100
1000
0010
0000
0100
0010
0100
0000
,
0100
0100
0001
0001
1000
0010
0010
1000
,
0000
0010
0100
0000
0001
0101
1001
0000
,
1000
1000
0100
0100
1000
0100
1000
0001
,
0100
0001
0010
0000
0100
0010
0100
0000
,
0100
0100
1000
1000
0001
0010
0010
1000
,
0001
0100
1000
0001
0100
0010
0110
0000
,
1000
1000
0001
0010
1000
0100
0001
0000
,
1000
0100
1000
0000
0010
0000
0100
0000
0001
0000
0000
0000
0101
0000
0000
0000
,
0001
0001
1000
0010
0001
0100
1000
0001
,
0010
1000
0010
0001
0100
0110
1010
0000
,
1000
1000
0001
0010
1000
0100
0001
1000
,
0010
1000
0010
0000
0100
0000
0010
0000
1000
0000
0000
0000
1100
0000
0000
0000
,
0001
0001
1000
0010
0001
0100
1000
0001
,
1000
0010
0100
0001
1000
0010
0100
0001
1000
0000
1100
0000
0110
0000
0000
0000
,
0001
0000
0010
0001
0010
0000
0100
0010
0100
0000
1000
0100
1000
0000
0001
0000
,
0010
0000
1000
0010
1000
0000
0001
0100
1000
0000
0002
0000
0100
0000
0000
0000
,
1003
0000
0010
1000
0010
0000
0100
0010
0100
0000
0001
0100
0001
0000
1000
0000
,
0100
0001
1000
0010
0001
0011
2001
0000
,
3010
0000
1000
0010
1000
0000
0001
0010
0001
0000
1000
0100
1000
0000
0001
0000
,
0010
0000
0001
0010
0001
0000
0100
0010
1000
0000
0200
0000
0001
0000
0000
0000
,
0310
0000
0001
0010
0001
0000
1000
0010
1000
0000
0001
0100
0001
0000
1000
0000
,
0100
0010
0100
1000
0100
0010
0100
1000
0001
0000
0101
0000
0110
0000
0000
0000
,
0010
1000
0010
0000
0100
0000
0010
0000
1000
0000
0001
0100
0000
0001
0010
0000
,
1000
0010
0001
0100
1000
0000
0100
0000
0001
0000
1000
0000
1100
0000
0000
0000
,
0010
0001
0010
0000
0100
0000
0010
0000
0001
0100
0001
0000
1000
0000
0100
0000
,
0001
0100
0010
0000
0001
0010
0100
0000
1000
0000
1010
0000
1002
0000
0000
0000
,
0013
0001
0010
0000
0100
0000
0010
0000
0001
0000
1000
0100
0000
1000
0010
0000
,
0001
0010
1000
0100
0001
0000
0200
0000
1300
0000
0010
0001
0000
0010
1000
0000
,
0010
1000
0010
0000
0100
0000
0010
0000
1000
0100
1000
0000
0001
0000
0010
0000
,
0100
0010
0011
1001
1010
0220
0000
0330
,
0100
0100
0001
0001
1000
0010
0010
0000
,
0101
1010
1100
0000
,
0100
0100
1000
1000
0001
0010
0010
0100
,
1000
0010
0001
0010
1000
1001
1001
0000
;

//---------------dance-single - ----------------
#NOTES:
     dance-single:
     :
     Medium:
     11:
     0.570012,0.557653,0.268564,0.237871,0.195668,520.000000,485.000000,35.000000,31.000000,0.000000,0.000000,0.570012,0.557653,0.268564,0.237871,0.195668,520.000000,485.000000,35.000000,31.000000,0.000000,0.000000:
0000
0000
0000
0000
,
0000
0000
0000
0000
,
0000
0000
0000
0000
,
0000
0000
0000
0000
,
0000
0000
0000
0000
,
1000
1000
0002
0100
2003
0010
3001
1000
,
0000
1000
0100
0010
0001
0000
0001
0001
,
1000
1000
0002
0100
2003
0010
3001
1000
,
0000
0100
0010
0001
0001
1001
1001
0000
,
0001
0001
2000
0100
3002
0010
1003
0001
,
0000
0000
0001
0000
0100
0000
0010
0000
1000
0000
0000
1000
0000
0000
1000
0000
,
0001
0001
2000
0100
3002
0010
1003
0001
,
0000
0100
0010
1000
0000
2002
0000
3003
,
0001
0000
0010
0001
2000
0000
0100
0000
,
3001
0100
0010
0100
0001
0000
0000
0000
,
1000
0000
0010
1000
0002
0000
0100
0000
,
1003
0100
0010
0100
1000
0000
0000
0000
,
0001
1000
0100
0000
1000
0001
0100
0000
,
0001
2000
0100
3001
1000
0000
0000
0000
,
0010
1000
0100
0000
0010
0001
0100
0000
,
0020
0001
0100
1030
0010
0000
0101
0000
,
0100
0100
0001
0001
1000
0010
0010
0000
,
0101
1010
1100
0000
,
0100
0100
1000
1000
0001
0010
0010
0100
,
1000
0010
0001
0010
1000
1001
2001
0000
,
3100
0100
1000
1000
0001
0010
0010
0000
,
1100
0011
0101
0000
,
0100
0100
0001
0001
1000
0010
0010
0100
,
0001
0010
1000
0010
0001
0000
1001
0000
,
1000
0000
0000
1000
0001
0000
0000
0001
0100
0000
0000
0100
0010
0000
0000
0010
,
1000
0000
0000
1000
0001
0000
0000
0001
0010
0000
0100
0000
1000
0000
0000
0000
,
0001
0000
0000
0001
0100
0000
0000
0100
0010
0000
0000
0010
1000
0000
0000
1000
,
0100
0000
0000
0100
0010
0000
0000
0010
0001
0000
0100
0000
0100
0000
0000
0000
,
0001
0000
0000
0001
1000
0000
0000
1000
0010
0000
0000
0010
0100
0000
0000
0100
,
0001
0000
0000
0001
1000
0000
0000
1000
0100
0000
0010
0000
0001
0000
0000
0000
,
1000
0000
0000
1000
0010
0000
0000
0010
0100
0000
0000
0100
0001
0000
0000
0001
,
0010
0000
0000
0010
0100
0000
0000
0100
2000
0000
0000
0000
3001
0000
0000
0000
,
0001
0001
2000
0100
3002
0010
1003
0001
,
0000
0001
0100
0010
1000
0000
0000
0000
,
0001
0001
2000
0100
3002
0010
1003
0001
,
0000
0100
0010
1000
1000
1001
1001
0000
,
1000
1000
0002
0100
2003
0010
3001
1000
,
0000
0000
1000
0000
0100
0000
0010
0000
0001
0000
0000
0001
0000
0000
0001
0000
,
1000
1000
0002
0100
2003
0010
3001
1000
,
0000
0100
0010
0001
0000
2002
0000
0003
,
0010
0010
0010
3010
0000
0100
0000
0001
,
0000
0001
0010
0000
0100
0000
0100
0000
,
0010
0010
0010
0010
0100
0100
0100
1000
,
0000
1000
0010
0000
0010
1010
1010
0000
,
1000
1000
1000
1000
0000
0001
0000
0100
,
0000
0100
0010
0000
1000
0000
1000
0000
,
0001
0001
0001
0001
1000
1000
1000
0100
,
0010
0100
0010
0000
1001
0000
0000
0000
,
0010
0010
1000
1000
0001
0100
0100
0000
,
1010
0101
0011
0000
,
0010
0010
0001
0001
1000
0100
0100
0010
,
0001
0100
1000
0100
0001
1001
1002
0000
,
0013
0010
0001
0001
1000
0100
0100
0000
,
0011
1100
1010
0000
,
0010
0010
1000
1000
0001
0100
0100
0010
,
1000
0100
0001
0100
1000
0000
1001
0000
,
0001
0000
0000
0001
1000
0000
0000
1000
0010
0000
0000
0010
0100
0000
0000
0100
,
0001
0000
0000
0001
1000
0000
0000
1000
0100
0000
0010
0000
0001
0000
0000
0000
,
1000
0000
0000
1000
0010
0000
0000
0010
0100
0000
0000
0100
0001
0000
0000
0001
,
0010
0000
0000
0010
0100
0000
0000
0100
1000
0000
0010
0000
0010
0000
0000
0000
,
1000
0000
0000
1000
0001
0000
0000
0001
0100
0000
0000
0100
0010
0000
0000
0010
,
1000
0000
0000
1000
0001
0000
0000
0001
0010
0000
0100
0000
1000
0000
0000
0000
,
0001
0000
0000
0001
0100
0000
0000
0100
0010
0000
0000
0010
1000
0000
0000
1000
,
0100
0000
0000
0100
0010
0000
0000
0010
0002
0000
0000
0000
1003
0000
0000
0000
,
0010
1000
0001
0010
0100
1000
0001
0100
,
0000
0010
0100
0010
0100
0000
0000
0000
,
0010
1000
0001
0010
0100
1000
0001
0100
,
0000
0010
0100
0001
1000
1001
1002
0000
,
0013
0001
1000
0010
0100
0001
1000
0100
,
0000
0000
0010
0000
0100
0000
0010
0000
0100
0000
0000
1000
0000
0000
0001
0000
,
0010
0001
1000
0010
0100
0001
1000
0100
,
0000
0010
0001
0100
0000
0220
0000
0330
,
0100
0100
0001
0001
0010
0010
0010
0000
,
1001
0110
1001
0000
,
0100
0100
1000
1000
0010
0010
0010
0000
,
0001
0010
1000
0100
0001
0000
0110
0000
;

//---------------dance-single - ----------------
#NOTES:
     dance-single:
     :
     Easy:
     6:
     0.342007,0.402749,0.168811,0.069059,0.000000,312.000000,290.000000,22.000000,9.000000,0.000000,0.000000,0.342007,0.402749,0.168811,0.069059,0.000000,312.000000,290.000000,22.000000,9.000000,0.000000,0.000000:
0000
0000
0000
0000
,
0000
0000
0000
0000
,
0000
0000
0000
0000
,
1000
0000
0001
0000
,
1000
0001
0100
0110
,
0010
1000
0010
0100
,
0001
0002
0100
0000
,
0013
0001
0010
0100
,
1000
0001
0100
1001
,
0010
0001
0010
0100
,
1000
1000
0100
1000
,
0010
1000
0010
0100
,
0001
0000
1000
0000
0000
1001
0000
0000
,
0001
0100
1000
0100
,
0001
0100
1000
0000
,
0001
0010
1000
0010
,
0001
0010
1000
0000
,
0001
0010
1000
0010
,
0001
0100
0001
0000
,
0010
0100
1000
0001
,
0100
0100
0100
0000
,
0010
1000
0100
0001
,
0010
0010
0102
0003
,
0010
0010
0001
0100
,
1000
0010
0001
1002
,
0013
0001
0100
1000
,
0010
0010
0101
0000
,
0010
0010
1000
0100
,
0001
0010
1000
1002
,
0013
0010
0100
0100
,
0010
0100
1000
0000
,
0010
0010
0100
0100
,
0001
1000
0100
2001
,
3010
0010
0100
0100
,
0010
0100
0001
0000
,
0010
0010
0100
0100
,
1000
0001
0100
0110
,
0010
0001
0010
0100
,
1000
2000
0100
0000
,
3010
1000
0010
0100
,
0001
1000
0100
1001
,
0010
1000
0010
0100
,
0001
0001
0100
0001
,
0010
0001
0010
0100
,
1000
0000
0001
0000
0000
1001
0000
0000
,
0100
0010
0100
0010
0000
0000
0000
0000
,
0000
0000
0000
0000
,
0001
1000
0001
1000
0001
1000
0001
0000
,
0000
0000
0000
0000
,
1000
0100
1000
0100
1000
0000
1000
0000
,
0001
0001
0100
0100
,
0001
0010
0001
0010
0001
0010
0001
0000
,
1000
1000
0100
1002
,
0013
0001
0100
1000
,
0010
0001
0101
0000
,
0010
1000
0100
0001
,
0010
0100
0010
2001
,
3010
1000
0100
0001
,
0010
1000
1100
0000
,
0010
0001
0100
1000
,
0010
0100
0001
1001
,
0010
0010
1000
1000
,
0010
0001
0010
0000
,
0100
0100
0001
0001
,
0100
1000
0100
1002
,
0013
0010
0001
0001
,
0010
1000
0010
0000
,
0100
0100
1000
1000
,
0001
0100
0010
1001
,
0010
1000
0001
0010
,
0100
1000
0001
0000
,
0010
0001
1000
0010
,
0100
0001
0100
0110
,
0010
1000
0001
0100
,
0001
1000
0010
0000
,
0010
0001
1000
0100
,
0001
0000
0010
0000
0000
0110
0000
0000
,
1000
1000
0001
0001
,
1000
0001
1001
0000
,
0100
0100
0010
0010
,
0100
0010
0100
1001
;
