#TITLE:気楽なCloudy;
#SUBTITLE:;
#ARTIST:technoplanet feat. はるの;
#TITLETRANSLIT:;
#SUBTITLETRANSLIT:;
#ARTISTTRANSLIT:;
#GENRE:;
#CREDIT:;
#MUSIC:Kiraku Na Cloudy.ogg;
#BANNER:;
#BACKGROUND:Kiraku Na Cloudy-bg.png;
#CDTITLE:;
#SAMPLESTART:40.358;
#SAMPLELENGTH:15.000;
#SELECTABLE:YES;
#OFFSET:0.655;
#BPMS:0.000=158.000;
#STOPS:;
#BGCHANGES:;
#FGCHANGES:;

//--------------- dance-single - Talkion ----------------
#NOTES:
     dance-single:
     Talkion:
     Medium:
     11:
     0,0,0,0,0:
0000
0000
0000
0000
,
0000
0000
0000
0000
,
0000
0000
0000
0000
,
1000
0000
0001
0000
0200
0000
0000
0000
0310
0000
0000
1010
0000
0000
2002
0000
,
0000
0000
3003
0000
0002
0003
2000
3000
,
0100
0000
0010
0000
0001
0000
0000
0000
1001
0000
0000
0101
0000
0000
0220
0000
,
0000
0330
1001
1000
,
1100
0000
0100
0000
0020
0000
0000
0000
0031
0000
0000
1001
0000
0000
1020
0000
,
0000
0001
0100
1030
,
0001
0000
0010
0000
0100
0000
0000
0000
0110
0000
0000
1001
0000
0000
2020
0000
,
0000
0000
3030
0000
2000
3000
0002
0003
,
1000
0000
0001
0000
1000
0100
0010
0000
,
1000
0000
0001
0000
0100
0010
0001
0000
,
1000
0000
0001
0000
0100
0010
1000
0000
,
0002
0010
1000
0103
,
0001
0000
1000
0000
0001
0010
0100
0000
,
0001
0000
1000
0000
0010
0100
1000
0000
,
0001
0000
1000
0000
0010
0100
0001
0000
,
2000
0000
0001
0000
0000
0010
3010
0000
,
0101
0000
0000
0000
0000
0001
1000
0000
,
0200
0000
0010
0000
0010
0310
0000
0000
,
1001
0011
2010
3001
,
1000
0000
0100
0000
0010
0000
0100
0000
0000
0000
1000
0001
1000
0000
0000
0000
,
1001
0000
0001
0000
0000
0100
0020
0000
,
1030
0000
0000
0001
0000
0000
0021
0000
0000
0000
0130
0000
0010
0000
0000
0000
,
0001
1000
0001
0100
0000
1000
0100
0002
,
0000
0000
2003
0000
0000
0000
3100
0000
0010
0000
0001
1000
0001
0000
0000
0000
,
1000
0000
0010
0000
1000
0000
0010
0000
0001
0000
0000
0010
0000
0000
1000
0000
,
0001
0010
0001
0010
2000
0000
3020
0000
,
0031
0000
0000
0000
1000
0001
0000
0000
0101
0000
0000
0101
0000
0000
0120
0000
,
0000
1030
0001
0000
1001
0000
1100
0000
,
0100
0010
0100
1000
0001
0100
0010
1000
,
0000
1001
0000
0021
0000
0130
0010
0000
,
0002
0000
0000
1000
0000
0000
0103
0000
,
0001
0000
0000
0001
0000
0000
0001
0000
1000
0000
0100
0000
0010
0000
0000
0000
,
0002
0000
0000
0000
0103
0000
0000
0000
1000
0000
0000
0100
0000
0000
0001
0000
,
1000
0100
1000
0100
0002
0000
0203
0000
,
1300
0000
0000
0000
0001
1000
0000
0000
1010
0000
0000
1010
0000
0000
0210
0000
,
0000
0301
1000
0000
1001
0000
0011
0000
,
0010
0100
0010
0001
1000
0010
0100
0001
,
0000
1001
0000
1100
0000
0110
0000
0012
,
0000
0000
0000
1003
0000
0010
0100
0000
,
0010
0000
0000
0010
0000
0000
0010
0000
1000
0000
0001
0000
0010
0000
0000
0000
,
0100
0000
0000
1000
0000
0000
0001
0000
,
0000
0100
0000
0020
0000
0000
0000
0000
,
1030
0000
2002
0000
3003
1100
0000
1100
,
0000
0001
0000
0100
0000
0010
1000
0010
,
0100
0100
0001
0100
0100
0010
1000
1000
,
0002
0023
2030
3200
,
0301
1000
0100
1000
0001
1000
0010
1000
,
0001
0000
0001
0000
1000
0000
0100
0020
0000
0000
0031
0000
1000
0000
0000
0000
,
0020
0000
0000
0030
,
0100
0010
1010
1001
,
0001
0000
0000
0000
0010
0000
0000
0000
0001
0000
0000
0001
0000
0000
0001
0000
,
1000
0000
0000
0000
0010
0000
0000
0000
1000
0000
0000
1000
0000
0000
1000
0000
,
0001
0000
1000
0000
0000
0100
0000
0000
0010
0000
0000
0001
0000
0000
1000
0000
,
0010
0100
0010
0000
0110
0000
1001
0000
,
1000
0000
0100
0000
1000
0000
0000
1000
0000
0000
1000
0000
0001
0000
0000
0000
,
0001
0000
0100
0000
0001
0000
0000
0001
0000
0000
0001
0000
1000
0000
0200
0000
,
0000
0000
0000
0010
0000
0010
0310
0000
,
0001
0000
0000
0001
0000
0000
0001
0000
1000
0000
0010
0000
0100
0000
0000
0000
,
0002
0000
0000
0000
,
2003
0000
0000
0000
,
3200
0000
0000
0000
0000
0000
0000
0310
,
0000
1001
1010
0110
,
0100
0010
0100
0001
1000
0100
0010
0001
,
0000
0101
0000
2100
0000
3001
1000
0000
,
0020
0000
0000
0100
0000
0000
1030
0000
,
0001
0000
0000
0001
0000
0000
0001
0000
1000
0000
0100
0000
0010
0000
0000
0000
,
0002
0000
0000
0000
1003
0000
0000
0000
0001
0000
0000
0100
0000
0000
1000
0000
,
0001
0010
0001
0010
2000
0000
3002
0000
,
0013
0000
0000
0000
0100
0010
0000
0000
0011
0000
0000
0011
0000
0000
2001
0000
,
0000
3010
0100
0000
0101
0000
1010
0000
,
0010
0100
0010
1000
0001
0010
0100
1000
,
0000
1010
0000
0011
0000
0101
0000
2100
,
0000
0000
0000
3001
0000
0100
0010
0000
,
1000
0000
0000
1000
0000
0000
1000
0000
0010
0000
0100
0000
0001
0000
0000
0000
,
1000
0000
0001
0000
0020
0000
0000
0000
0130
0000
0000
1100
0000
0000
2002
0000
,
0000
0000
3003
0000
0002
0003
2000
3000
,
0010
0000
0100
0000
0001
0000
0000
0000
1001
0000
0000
0011
0000
0000
0220
0000
,
0000
0330
1001
1000
,
1010
0000
0010
0000
0200
0000
0000
0000
0301
0000
0000
1001
0000
0000
1200
0000
,
0000
0001
0010
1300
,
0001
0000
0100
0000
0010
0000
0000
0000
0110
0000
0000
1001
0000
0000
2200
0000
,
0000
0000
3300
0000
2000
3000
0002
0003
;

//--------------- dance-single - Talkion ----------------
#NOTES:
     dance-single:
     Talkion:
     Hard:
     14:
     0,0,0,0,0:
0000
0000
0000
0000
,
0000
0000
0000
0000
,
0000
0000
0000
0000
,
0001
0000
0010
0000
0200
0000
0000
0000
1300
0000
0000
1010
0000
0000
0012
0000
,
0000
0000
1003
0010
0000
0010
0100
0001
2000
0000
3000
0000
0002
0000
0003
0000
,
1000
0000
0100
0000
1000
0001
0000
0001
0100
0000
0000
0110
0000
0000
2001
0000
,
0000
3100
0010
0001
0101
0000
0010
0000
,
1010
0000
0010
0000
0200
0000
0000
0000
0301
0000
0000
0011
0000
0000
1010
0000
,
1000
0001
0020
1030
0020
0031
0020
0130
,
1000
0000
0001
0000
0100
0010
0000
0010
1000
0000
0000
1100
0000
0000
0102
0000
,
0000
1003
0100
0010
0002
0003
2000
3000
,
0001
0100
1000
0001
0010
1000
0001
0010
,
0100
1000
1001
0000
0001
1000
0110
0000
,
1000
0001
0110
0000
1000
0100
0010
0001
,
0200
1000
0010
0301
,
1000
0100
0001
1000
0010
0001
1000
0010
,
0100
0001
1001
0000
1000
0001
0110
0000
,
0001
0010
0100
1000
0000
1000
0001
0100
,
0020
0000
0001
0000
0000
1000
1030
0000
,
1001
0000
0000
0000
0000
0001
0010
1000
,
0002
0000
0000
0000
0100
0103
0000
1000
,
1100
0000
0101
0000
1001
0001
0010
0100
,
1000
0000
0001
0000
0100
0000
0010
0000
1000
0000
0001
0010
0001
0000
1000
0000
,
1010
0000
0100
0000
0000
0001
0100
1000
,
0001
0000
0000
0011
0000
0000
2010
0000
0000
0000
0001
0000
3001
0000
1000
0000
,
0100
0010
0001
1001
0000
1010
0000
0120
,
0000
0000
0001
0000
0000
0000
1000
0000
1030
0000
0001
1000
0100
0000
0000
0000
,
1000
0000
0100
0010
0000
0010
0001
0000
0001
0100
0000
0100
0010
0000
1000
0000
,
0001
0000
1000
0100
0000
0100
0010
0000
0010
0001
0000
0001
1000
0000
0001
0000
,
0100
0010
0000
0010
1000
0001
1000
0000
0100
0000
0000
0110
0000
0000
1002
0000
,
0000
0103
0110
0010
1010
1000
1001
0001
,
0010
0100
1000
0100
0010
0001
0100
0110
,
0000
1010
0000
0012
0000
1003
0020
0000
,
0230
0000
0000
1000
0000
0000
0301
0000
,
1000
0010
0001
0100
1000
0100
0001
0010
,
2000
0000
0000
0000
3001
0000
0000
0000
0010
0000
0100
0010
0100
0000
1000
0000
,
0001
0000
0100
0010
0000
0010
1000
0000
1000
0100
0000
0100
0010
0000
0001
0000
,
0010
0100
0000
0100
1000
0001
1000
0000
0010
0000
0000
0110
0000
0000
1002
0000
,
0000
0013
0110
0100
1100
1000
1001
0001
,
0100
0010
1000
0010
0100
0001
0010
0110
,
0000
1100
0000
0101
0000
0011
0000
2010
,
0000
0000
0000
3001
0000
0100
0110
0000
,
1000
0000
0000
1000
0000
0000
1000
0000
0001
0000
0010
0000
0100
0000
0000
0000
,
1100
0000
0000
1000
0000
0000
0001
0000
,
0000
0000
0100
0000
0100
0000
0001
1000
0200
0000
0000
0000
0310
0001
0010
0001
,
1000
0000
2001
0000
3000
1010
0001
0010
,
0000
0011
1000
0010
0000
0100
0001
1000
,
0001
0010
0001
0010
0100
0000
1000
0100
1000
0100
0010
0000
0001
1000
0010
0100
,
0002
0000
1000
0000
0010
0000
2003
0000
0001
0000
0010
0000
,
3001
0000
1000
0001
0000
0010
0000
0100
0000
1000
0000
0001
0000
0100
0010
1000
,
0001
0010
0001
0010
0100
1000
0001
0100
0000
0000
0010
0000
1010
0000
0000
0000
,
0200
0000
0000
0300
,
1001
0110
1010
0011
,
0001
0010
0100
0020
0000
1000
1030
0000
,
0001
0100
0010
0200
0000
1000
1300
0000
,
0001
0000
1000
0000
0001
0100
0000
0000
0110
0000
0000
1010
0000
0000
1000
0000
,
0001
0010
0100
1000
1001
0000
0110
0000
,
1000
0100
0010
0002
0000
0100
0103
0000
,
1000
0100
0001
0020
0000
0130
0010
0002
,
0000
0000
0000
1000
0000
0100
0103
0000
,
0010
0000
0000
0010
0000
0000
0010
0000
1000
0000
0001
0000
0010
0000
0100
0000
,
2000
0000
0000
0001
0000
0000
0010
0000
0000
0001
0000
0000
3100
0000
0010
0000
,
0002
0000
0000
1000
0000
0000
0100
0000
0000
1000
0000
0000
0013
0000
0100
0000
,
2000
0000
0000
0001
0000
0000
0010
0000
0000
0001
0000
0000
3010
0000
0220
0000
,
0000
0330
1001
0000
1100
0000
0101
0001
,
0100
0010
1000
0010
0100
0001
0010
0110
,
0000
1100
0000
0102
0000
1003
0200
0000
,
0320
0000
0000
1000
0000
0000
0031
0000
,
1000
0100
0001
0010
1000
0010
0001
0100
,
2000
0000
0000
0000
3001
0000
0000
0000
0100
0000
0010
0100
0010
0000
1000
0000
,
0001
0000
1000
0100
0000
0100
0001
0000
0001
0100
0000
0100
1000
0000
0001
0000
,
1000
0010
0000
0010
0001
0010
0100
0000
0010
0000
0000
1010
0000
0000
0021
0000
,
0000
0130
1100
1000
1001
0001
0101
0100
,
0010
1000
0001
0010
0100
1000
0010
0110
,
0000
0101
0000
1100
0000
1010
0000
0012
,
0000
0000
0000
1003
0000
0100
0110
0000
,
0001
0000
0000
0001
0000
0000
0001
0000
1000
0000
0010
0000
0100
0000
0000
0000
,
0001
0000
0100
0000
0020
0000
0000
0000
1030
0000
0000
1100
0000
0000
0102
0000
,
0000
0000
0013
0001
0000
0001
1000
0010
0200
0000
0300
0000
0020
0000
0030
0000
,
1000
0000
0010
0000
0001
0010
0000
0010
0100
0000
0000
0110
0000
0000
2001
0000
,
0000
3100
0010
0001
0101
0000
1000
0000
,
1100
0000
0100
0000
0020
0000
0000
0000
0031
0000
0000
0101
0000
0000
1100
0000
,
1000
0001
0200
1300
0200
0301
0200
1300
,
0001
0000
0010
0000
1000
0001
0000
0001
0010
0000
0000
0110
0000
0000
2001
0000
,
0000
3010
0100
0001
0020
0030
0200
0300
;

//--------------- dance-single - Talkion ----------------
#NOTES:
     dance-single:
     Talkion:
     Challenge:
     16:
     0,0,0,0,0:
0000
0000
0000
0000
,
0000
0000
0000
0000
,
0000
0000
0000
0000
,
1000
0000
0100
0000
0040
0000
0000
0000
0131
0000
0000
0110
0000
0000
1002
0000
,
0000
0000
0103
0001
0000
0001
1000
0100
0020
0000
0030
0000
2002
0000
3003
0000
,
1000
0010
1000
0000
0010
0100
0000
0100
0011
0000
0000
0110
0000
0000
1002
0000
,
0000
0000
0013
0100
1000
0001
0100
0010
1000
0000
0000
0000
0010
0000
0000
0000
,
0101
0000
0100
0000
0040
0000
0000
0000
1130
0000
0000
0110
0000
0000
1001
0000
,
1000
0000
0100
0010
0001
0000
0010
0001
0100
0000
0001
0100
0010
0000
1000
0000
,
0001
1000
0001
0000
0010
0100
0000
0100
1010
0000
0000
0110
0000
0000
2001
0000
,
0000
0000
3010
0100
0001
0100
0010
1000
0002
0000
0003
0000
2000
0000
3000
0000
,
0001
0000
0010
0001
0000
0010
0001
1000
0010
0000
0100
0000
0001
0000
1000
0000
,
1200
0000
0000
0320
0000
0000
0032
0000
0000
0000
1003
0000
0001
0000
0100
0000
,
0120
0000
0000
2030
0000
0000
3002
0000
0000
0000
0013
0000
0100
0000
1000
0000
,
0020
0000
0000
0000
0001
0000
0000
0000
1000
0000
0000
0000
0130
0000
0010
0100
,
0010
0000
0100
0001
0000
0100
0001
1000
0100
0000
0010
0000
0001
0000
1000
0000
,
1020
0000
0000
0230
0000
0000
0302
0000
0000
0000
0103
0000
0001
0000
1000
0000
,
1200
0000
0310
0012
0000
1003
0010
0100
,
0002
0000
0000
0000
1003
0001
0010
0100
1000
0000
0001
0000
1001
0000
0000
0000
,
1020
0000
0000
0000
0130
0010
0100
0010
1000
0000
0001
0000
0010
0000
0100
0000
,
2000
0000
0010
0000
0100
3100
0000
1000
,
1001
0000
0000
0000
0101
0000
0000
0000
1100
0000
0001
0100
0001
0100
0001
0100
,
0010
0000
1000
0000
0010
0000
0100
0000
0010
0000
1000
0001
1000
0000
0001
0000
,
0021
0000
0130
0000
0020
0031
2000
3010
,
1010
0000
0000
0011
0000
0000
2001
0000
0000
0000
3100
1000
0001
0000
1000
0000
,
0010
0100
0001
1001
0000
1100
0010
0012
,
0000
0000
4003
0000
0000
0000
3010
0000
0100
0000
0010
0100
0001
0000
0000
0000
,
1000
0100
1000
0100
1000
0001
1000
0001
0100
0010
0000
1000
0000
0001
0000
0010
,
0100
1000
0100
1000
0001
1000
0001
1000
0010
0100
0000
0001
0000
1000
0001
1000
,
0100
0000
0000
0100
0010
0001
0000
0000
0101
0000
0000
1001
0000
0000
1200
0000
,
0000
0000
0310
0000
0011
0000
0001
0000
1001
0000
1000
0000
1010
0000
0010
0100
,
0001
1000
0100
0001
1000
0010
0001
0101
,
0000
0000
0110
0000
0000
0000
1002
0000
0000
0000
0013
0000
1000
0010
0100
1000
,
0002
0000
0000
0100
0000
0103
0101
0000
,
0001
0000
0010
0001
0000
0010
0001
0000
1000
0000
0010
0000
0100
0000
0001
0000
,
2000
0000
0000
0000
3001
1000
0001
1000
0100
0010
0000
0001
0000
1000
0000
0010
,
0100
0001
0100
0001
1000
0001
1000
0001
0010
0100
0000
1000
0000
0001
0100
0010
,
1000
0001
0000
1000
0001
0010
0100
1000
0001
0000
0000
1010
0000
0000
0201
0000
,
0000
0000
0310
0000
1010
0000
1000
0000
1001
0000
0001
0000
0011
0000
0010
0100
,
1000
0001
0100
1000
0001
0010
1000
1100
,
0000
0110
0000
0011
0000
1001
0000
1020
,
0000
0000
0000
0130
0000
0001
1001
0000
,
1200
0000
0000
0001
0000
0000
1300
0000
0001
0000
1000
0010
0100
0001
0010
0100
,
1000
0000
0000
0001
0000
0000
0100
0000
,
0000
0000
0010
0000
0010
0000
1000
0001
0020
0000
0000
0000
0031
0010
0100
1000
,
0002
0003
0201
0000
0300
1010
0010
1001
,
0000
0000
1000
0000
0100
0000
0002
0000
0000
0000
0103
0010
0001
1000
0010
0100
,
0001
1000
0001
1000
0100
0000
0M01
1000
0001
1000
0100
0000
0M01
1000
0010
0100
,
0002
0000
0000
0000
0000
0000
0000
0000
2003
0000
0000
0000
0000
0000
0000
0000
3200
0000
0000
0000
0000
0000
0000
0000
0302
0000
0000
0000
0000
0000
0000
0000
0103
0000
0000
0000
0010
0000
0000
0001
0000
0000
0010
0000
0000
0001
0000
0000
,
1000
0010
0100
0001
0000
001M
0100
0001
0000
001M
1000
0001
0000
1000
0001
0100
,
0010
1000
0010
1000
0001
0010
0100
2000
0000
0000
3001
0000
0100
0010
0001
0000
,
0220
0000
0000
0330
,
1010
0011
0101
1100
,
1000
0001
0100
2000
0000
3001
0010
1000
,
0001
1000
0100
0002
0000
1003
0010
0001
,
1000
0000
0001
0100
0000
0001
0100
0010
1000
0000
0000
1001
0000
0000
0011
0000
,
0010
0000
0001
0000
1001
0000
0000
0000
1010
0000
0000
0000
1000
0010
0100
0001
,
1000
0001
0010
2000
0000
3001
0100
1000
,
0001
1000
0010
0002
0000
0013
1000
0200
,
0000
0000
0000
0310
0000
0100
0100
0000
,
1000
0000
0000
1000
0000
0000
1000
0000
0001
0000
0100
0000
1000
0000
0100
0000
,
0020
0000
0000
1000
0000
0000
0001
0000
0000
0100
0000
0000
1030
0000
0001
0000
,
0020
0000
0000
0001
0000
0000
1000
0000
0000
0100
0000
0000
0031
0000
1000
0000
,
0200
0000
0000
0001
0000
0000
1000
0000
0000
0001
0000
0000
0310
0000
0120
0000
,
0000
0000
0031
0000
1001
0000
1000
0000
1010
0000
0000
0000
0101
0000
0100
0001
,
1000
0001
0010
1000
0001
0100
1000
1010
,
0000
0000
0110
0000
0000
0000
2001
0000
0000
0000
3100
0000
0001
0100
0010
0001
,
2000
0000
0000
0010
0000
3010
1010
0000
,
1000
0000
0100
1000
0000
0100
1000
0000
0001
0000
0100
0000
0010
0000
1000
0000
,
0002
0000
0000
0000
0013
0001
0010
0001
1000
0010
0000
0100
0000
0001
0000
1000
,
0001
0010
0001
0010
0100
1000
0100
1000
0001
0100
0000
0010
0000
1000
0001
1000
,
0100
0000
0000
0100
0010
0001
0000
0000
1001
0000
0000
1010
0000
0000
0210
0000
,
0000
0000
0301
0000
1001
0000
1000
0000
1100
0000
0100
0000
0101
0000
0001
0100
,
0010
1000
0001
0010
1000
0001
0100
1100
,
0000
1001
0000
0101
0000
0110
0000
2010
,
0000
0000
0000
3001
0000
0010
0011
0000
,
0201
0000
0000
1000
0000
0000
0301
0000
1000
0000
0001
0010
0100
1000
0010
0100
,
0001
0000
1000
0000
0400
0000
0000
0000
1310
0000
0000
0011
0000
0000
2001
0000
,
0000
0000
3010
0100
0000
0100
0001
1000
0200
0000
0300
0000
2002
0000
3003
0000
,
0001
1000
0001
0000
0100
0010
0000
0010
1100
0000
0000
0101
0000
0000
2001
0000
,
0000
0000
3100
0010
0001
0100
0010
1000
0001
0000
0000
0000
0010
0000
0000
0000
,
1100
0000
1000
0000
0040
0000
0000
0000
1130
0000
0000
0101
0000
0000
1001
0000
,
0001
0000
1000
0100
0010
0000
1000
0010
0100
0000
0010
0001
0100
0000
0010
0000
,
1000
0001
1000
0000
0010
0100
0000
0100
0011
0000
0000
1010
0000
0000
1002
0000
,
0000
0000
0103
0001
0010
0001
0100
0010
2000
0000
3000
0000
0002
0000
0003
0000
;

//--------------- dance-double - Talkion ----------------
#NOTES:
     dance-double:
     Talkion:
     Edit:
     16:
     0,0,0,0,0:
00000000
00000000
00000000
00000000
,
00000000
00000000
00000000
00000000
,
00000000
00000000
00000000
00000000
,
10000000
00000000
01000000
00000000
00400000
00000000
00000000
00000000
01310000
00000000
00000000
00101000
00000000
00000000
00010200
00000000
,
00000000
00000000
00000310
00000100
00000000
00000100
00001000
00000001
00000200
00000000
00000300
00000000
00000020
00000000
00000030
00000000
,
00010000
00001000
01000000
00000000
00010000
01000000
00000000
01000000
00110000
00000000
00000000
10100000
00000000
00000000
20010000
00000000
,
00000000
00000000
30010000
00100000
00001000
00010000
00000100
00001000
00000001
00000000
00000000
00000000
00001000
00000000
00000000
00000000
,
00000101
00000000
00000100
00000000
00000040
00000000
00000000
00000000
00001130
00000000
00000000
00010010
00000000
00000000
01001000
00000000
,
01000000
00010000
00000100
00010000
01000000
00010000
00000100
00000010
,
00010000
00001000
00100000
00000000
00010000
00100000
00000000
00100000
01010000
00000000
00000000
11000000
00000000
00000000
20010000
00000000
,
00000000
00000000
30010000
01000000
00001000
00010000
00000010
00001000
00000002
00000000
00000003
00000000
00002000
00000000
00003000
00000000
,
00000001
00000000
00000100
00000001
00000000
00000100
00000001
00001000
00000100
00000000
00010000
00000000
01000000
00000000
10000000
00000000
,
00020000
00000000
00000000
00230000
00000000
00000000
00302000
00000000
00000000
00000000
00003100
00000000
00000010
00000000
00001000
00000000
,
00020000
00000000
00000000
02030000
00000000
00000000
03200000
00000000
00000000
00000000
00301000
00000000
00000100
00000000
00010000
00000000
,
00002000
00000000
00000000
00000000
00100000
00000000
00000000
00000000
00000010
00000000
00000000
00000000
00103000
00000000
00010000
10000000
,
00100000
00000000
01000000
00010000
00000000
01000000
00010000
00100000
00001000
00000000
00000010
00000000
00000001
00000000
00001000
00000000
,
00000020
00000000
00000000
00002030
00000000
00000000
02003000
00000000
00000000
00000000
03100000
00000000
00001000
00000000
00010000
00000000
,
00000200
00000000
00010300
00200000
00000000
10300000
00100000
01000000
,
00002000
00000000
00000000
00000000
00013000
00000100
00010000
00000100
00001000
00000000
00000001
00000000
00001001
00000000
00000000
00000000
,
00001020
00000000
00000000
00000000
00010030
00001000
00010000
00001000
00100000
00000000
00010000
00000000
10000000
00000000
00100000
00000000
,
02000000
00000000
00001000
00000000
00100000
03100000
00000000
00010000
,
00011000
00000000
00000000
00000000
00010100
00000000
00000000
00000000
00000110
00000000
00000001
00001000
00000001
00001000
00000001
00001000
,
00000100
00000000
00010000
00000000
01000000
00000000
00100000
00000000
00010000
00000000
10000000
00010000
10000000
00000000
00100000
00000000
,
10200000
00000000
01300000
00000000
00000000
00002000
00013000
00000200
,
00000310
00000000
00000000
00000011
00000000
00000000
00001200
00000000
00000000
00000000
00010300
00001000
01000000
00000000
00100000
00000000
,
01000000
00001000
00010000
00010100
00000000
00000110
00000001
00002001
,
00000000
00000000
00003020
00000000
00000000
00000000
00010030
00000000
00100000
00000000
01000000
00100000
10000000
00000000
00000000
00000000
,
00010000
00100000
00010000
00100000
00001000
00100000
00001000
00010000
00000100
00001000
00000000
00000001
00000000
00000100
00000000
00000001
,
00001000
00000100
00001000
00000100
00010000
00000100
00010000
00001000
00100000
00010000
00000000
10000000
00000000
00100000
01000000
00100000
,
00010000
00000000
00000000
00001000
00000100
00000010
00000000
00000000
00000110
00000000
00000000
00001001
00000000
00000000
00001200
00000000
,
00000000
00000000
00010300
00000000
00011000
00000000
00001000
00000000
00101000
00000000
00100000
00000000
00110000
00000000
00010000
00100000
,
01000000
10000000
00010000
00100000
00001000
00000010
00000001
00000101
,
00000000
00000000
00001100
00000000
00000000
00000000
00021000
00000000
00000000
00000000
01030000
00000000
00100000
00010000
10000000
00100000
,
02000000
00000000
00000000
00100000
00000000
00001000
03001000
00000000
,
00010000
00000000
00000100
00001000
00000000
00000100
00001000
00000000
00000010
00000000
00010000
00000000
00100000
00000000
00010000
00000000
,
00000020
00000000
00000000
00000000
00010030
00001000
00010000
00001000
00100000
00010000
00000000
10000000
00000000
00100000
00000000
10000000
,
00010000
00100000
00010000
00100000
00001000
00100000
00001000
00010000
00000100
00001000
00000000
00000001
00000000
00000100
00000010
00000100
,
00001000
00000000
00000000
00010000
00100000
01000000
00000000
00000000
01100000
00000000
00000000
10010000
00000000
00000000
00210000
00000000
,
00000000
00000000
00301000
00000000
00011000
00000000
00010000
00000000
00010100
00000000
00000100
00000000
00001100
00000000
00001000
00000100
,
00000010
00000001
00001000
00000100
00010000
01000000
10000000
10100000
,
00000000
00110000
00000000
00011000
00000000
00001010
00000000
00000012
,
00000000
00000000
00000000
00000100
00000000
00000010
00000013
00000000
,
00000210
00000000
00000000
00000001
00000000
00000000
00001300
00000000
00000100
00000000
00010000
00001000
00100000
00010000
10000000
00100000
,
00010000
00000000
00000000
00001000
00000000
00000000
00000001
00000000
,
00000000
00000000
00001000
00000000
00001000
00000000
00010000
00001000
02000000
00000000
00000000
00000000
03100000
01000000
00100000
01000000
,
00020000
00030000
00210000
00000000
00300000
00101000
00001000
00010100
,
00000000
00000000
00000100
00000000
00000010
00000000
00000002
00000000
00000000
00000000
00001003
00000001
00000100
00000010
00001000
00000001
,
00001000
00000100
00001000
00000100
00010000
00000000
000M1000
00000100
00001000
00000100
00010000
00000000
000M1000
00000100
00010000
00001000
,
00200000
00000000
00320000
00000000
20030000
00000000
30020000
00000000
00032000
00000000
00003200
00000000
,
00000310
00000100
00001000
00000001
00000000
0000010M
00001000
00000001
00000000
0000010M
00010000
00000010
00000000
00010000
00001000
00100000
,
00010000
10000000
00010000
10000000
00100000
01000000
00001000
00020000
00000000
00000000
00030100
00000000
00001000
00000100
00000010
00000000
,
00002002
00000000
00000000
00003003
,
00000101
00010100
01010000
01100000
,
10000000
00100000
00010000
00002000
00000000
00000100
00003100
00000001
,
00001000
00000100
00000001
00002000
00000000
00010000
00013000
00000000
,
00001000
00000000
00100000
00010000
00000000
00100000
00010000
10000000
00100000
00000000
00000000
01100000
00000000
00000000
01001000
00000000
,
00001000
00000000
00010000
00000000
00010100
00000000
00000000
00000000
00001001
00000000
00000000
00000000
00000001
00000010
00000100
00001000
,
00000001
00000100
00001000
00020000
00000000
00100000
00130000
10000000
,
00010000
00100000
10000000
00020000
00000000
00031000
00010000
00000020
,
00000000
00000000
00000000
00000130
00000000
00000001
00000001
00000000
,
00001000
00000000
00000000
00001000
00000000
00000000
00001000
00000000
00000001
00000000
00000010
00000000
00000100
00000000
00001000
00000000
,
00020000
00000000
00000000
01000000
00000000
00000000
10000000
00000000
00000000
00100000
00000000
00000000
01030000
00000000
00010000
00000000
,
00002000
00000000
00000000
00000010
00000000
00000000
00000001
00000000
00000000
00000100
00000000
00000000
00003010
00000000
00001000
00000000
,
00020000
00000000
00000000
00100000
00000000
00000000
10000000
00000000
00000000
01000000
00000000
00000000
00031000
00000000
00001020
00000000
,
00000000
00000000
00000130
00000000
00000101
00000000
00000000
00000000
00001001
00000000
00000000
00000000
00001100
00000000
00000100
00010000
,
00001000
00100000
00010000
10000000
00100000
00001000
00000010
00000110
,
00000000
00000000
00001001
00000000
00000000
00000000
00001200
00000000
00000000
00000000
00000301
00000000
00000100
00000010
00000001
00001000
,
00000020
00000000
00000000
00000100
00000000
00000130
00000110
00000000
,
00001000
00000000
00000100
00010000
00000000
00000100
00010000
00000000
01000000
00000000
00100000
00000000
00010000
00000000
10000000
00000000
,
00200000
00000000
00000000
00000000
01300000
00001000
01000000
00001000
00010000
00000100
00000000
00000010
00000000
00001000
00000000
00010000
,
00001000
00100000
00001000
00100000
00010000
10000000
00010000
10000000
00100000
01000000
00000000
00001000
00000000
00010000
00000100
00010000
,
00001000
00000000
00000000
00000010
00000001
00001000
00000000
00000000
00001001
00000000
00000000
00010100
00000000
00000000
02001000
00000000
,
00000000
00000000
03100000
00000000
01100000
00000000
01000000
00000000
01001000
00000000
00001000
00000000
00101000
00000000
00100000
00001000
,
00010000
00000100
00001000
00000001
00000100
00010000
01000000
01100000
,
00000000
10010000
00000000
00101000
00000000
00010100
00000000
00001002
,
00000000
00000000
00000000
00000010
00000000
00000100
00000103
00000000
,
00000120
00000000
00000000
00000001
00000000
00000000
00001030
00000000
00000010
00000000
00010000
00001000
01000000
00010000
10000000
01000000
,
00010000
00000000
00001000
00000000
00000040
00000000
00000000
00000000
00000131
00000000
00000000
00000110
00000000
00000000
00020100
00000000
,
00000000
00000000
00031000
00100000
00000000
00100000
00010000
10000000
00200000
00000000
00300000
00000000
02000000
00000000
03000000
00000000
,
00001000
00010000
00001000
00000000
00100000
01000000
00000000
01000000
10100000
00000000
00000000
01100000
00000000
00000000
00102000
00000000
,
00000000
00000000
00013000
00000010
00001000
00000001
00000100
00000010
00001000
00000000
00000000
00000000
00000010
00000000
00000000
00000000
,
00011000
00000000
00010000
00000000
04000000
00000000
00000000
00000000
13100000
00000000
00000000
01100000
00000000
00000000
00101000
00000000
,
00001000
00000010
00001000
00100000
00001000
00000010
00000001
00001000
,
00000100
00010000
00000100
00000000
00010000
00001000
00000000
00001000
01010000
00000000
00000000
00011000
00000000
00000000
00010200
00000000
,
00000000
00000000
00000301
00000100
00000010
00000001
00001000
00000100
00020000
00000000
00030000
00000000
00002000
00000000
00003000
00000000
;
