#TITLE:カラテ家メドレー;
#SUBTITLE:;
#ARTIST:おタチ伝;
#TITLETRANSLIT:Karateka Medley;
#SUBTITLETRANSLIT:;
#ARTISTTRANSLIT:Otachiden;
#GENRE:;
#CREDIT:vincentw;
#MUSIC:Karateka Medley.ogg;
#BANNER:Karateka Medley.png;
#BACKGROUND:Karateka Medley-bg.png;
#CDTITLE:cdtitle.png;
#SAMPLESTART:8.000;
#SAMPLELENGTH:12.800;
#SELECTABLE:YES;
#OFFSET:0.000;
#BPMS:0.000=150.000
,101.000=172.000
,102.000=235.000
,194.000=117.500
,209.000=235.000
,290.000=118.200
,296.000=238.000
,298.000=119.000
,335.500=107.500
,337.000=148.000
,350.000=140.100
;
#STOPS:209.000=0.064
,209.250=0.064
,209.500=0.064
,209.750=0.064
,296.000=0.063
,296.250=0.063
,296.500=0.063
,296.750=0.063
,297.000=0.063
,297.250=0.063
,297.500=0.063
,297.750=0.063
,349.979=1.621
;
#DISPLAYBPM:119.000:235.000;
#BGCHANGES:;
#FGCHANGES:;

//--------------- dance-single - ----------------
#NOTES:
     dance-single:
     :
     Beginner:
     4:
     0,0,0,0,0:
0000
0000
0000
0000
,
0000
0000
0000
0000
,
0000
0000
0000
0000
,
0000
0000
0000
0000
,
0000
0000
0000
0000
,
1000
0000
0001
0000
,
1000
1000
0000
0000
,
0100
0000
0010
0000
,
0100
0100
0000
0000
,
0010
0000
0100
0000
,
0010
0010
0000
0000
,
0001
0000
1000
0000
,
0001
0001
0001
0000
,
0100
0000
0010
0000
,
0100
0010
0000
0000
,
1000
0000
0001
0000
,
1000
0001
0000
0000
,
0010
0000
0100
0000
,
0010
0100
0000
0000
,
0100
0000
1000
0000
,
0001
0000
1001
0000
,
1000
0000
0100
0000
,
1000
0000
0100
0000
,
0010
0000
0010
0000
,
0001
0000
0002
0000
,
0000
0003
0000
0000
,
0000
0000
1000
0000
,
0100
0000
1000
0000
,
0100
0000
0010
0000
,
0010
0000
0002
0000
,
0003
0000
1000
0000
,
0010
0000
1000
0000
,
0010
0000
0100
0000
,
0100
0000
0002
0000
,
0003
0000
1000
0000
,
0100
0000
1000
0000
,
0100
0000
1000
0000
,
0001
0000
1000
0000
,
0000
0000
0001
0000
,
0100
0000
0001
0000
,
0100
0000
0001
0000
,
1000
0000
0001
0000
,
0000
0000
1000
0000
,
0100
0000
0001
0000
,
0100
0000
2000
0000
,
0000
0000
0000
0000
,
0000
0000
0002
0000
,
0000
0000
0000
0000
,
0000
0000
3003
0000
,
0000
0000
0000
0000
,
0000
0000
0001
0000
,
1000
0000
0001
1000
,
0002
0000
1003
0000
,
1000
0000
1000
0000
,
1000
1000
0010
0000
,
0010
0000
0010
0000
,
0010
0000
1000
0000
,
1000
0000
1000
0000
,
1000
1000
0001
0000
,
0001
0000
0002
0000
,
0003
0000
0010
0000
,
0010
0000
0010
0000
,
0010
0010
0001
0000
,
0001
0000
0002
0000
,
0000
0003
0100
0000
,
0100
0000
0100
0000
,
0000
0000
0001
0000
,
0010
0000
0100
0000
,
1000
0000
0001
0000
,
0010
0000
0100
0000
,
1000
0000
0001
0000
,
0010
0000
0100
0000
,
1000
0000
0001
0010
,
0100
1000
0001
2000
,
0000
0000
3001
0001
,
0010
0000
0002
0000
,
0003
0000
1000
1000
,
0010
0000
2000
0000
,
3000
0000
0001
1000
,
0001
0000
2002
0000
,
3003
0000
1000
0100
,
1000
0000
0001
0100
,
0001
0000
0010
0010
,
0100
0000
0000
0000
0020
0000
0000
0030
,
0000
0000
0001
0100
,
0001
0000
1000
0100
,
1000
0000
0010
0100
,
0010
0000
0000
0000
,
0000
1001
0000
0000
;

//--------------- dance-single - ----------------
#NOTES:
     dance-single:
     :
     Easy:
     7:
     0,0,0,0,0:
0000
0000
0000
0000
,
0000
0000
0000
0000
,
0000
0000
0000
0000
,
0000
0000
0000
0000
,
0000
0000
0000
0000
,
1000
0100
1000
0001
,
0100
0001
0001
0000
,
1000
0010
1000
0001
,
0010
0001
0001
0000
,
1000
0100
0010
0001
,
1000
0001
0100
0000
,
0001
0100
0010
1000
,
0001
0001
0001
1000
,
0001
0010
0001
1000
,
0100
1000
1000
0000
,
0001
0100
0001
1000
,
0010
1000
1000
0000
,
0001
0010
0100
0010
,
1000
0010
0001
0000
,
1000
0010
0001
0010
,
1000
0001
1001
0000
,
1000
0002
0010
0000
,
1003
0001
0010
0000
,
0001
0001
0001
1000
,
0200
0000
0020
0000
,
0300
0030
0000
0000
,
0000
0000
0001
0020
,
0100
0000
0031
0010
,
0100
0000
0020
0000
,
0230
0000
2300
0000
,
3002
0000
1003
0020
,
0100
0000
1030
0010
,
0100
0000
0020
0000
,
0230
0000
0302
0000
,
2003
0000
3000
0001
,
0200
0010
0000
0301
,
0100
0010
0000
0100
,
0100
0001
0002
0000
,
0000
0000
2003
3000
,
2000
3000
1000
0010
,
0100
0001
0020
0000
,
0230
0000
0310
0000
,
0010
0000
0002
0000
,
0000
1003
0002
0000
,
0023
0000
0230
0000
,
0000
0000
0000
0000
,
0000
0000
2000
0000
,
0000
0000
0000
0000
,
0000
0000
3300
0000
,
0000
0000
0000
0000
,
0000
0000
1000
0001
,
0100
0100
0001
1000
,
0100
0100
1000
0000
,
0100
0000
1000
0001
,
0100
0000
0001
0000
,
0100
0000
0001
1000
,
0100
0000
1000
0000
,
0010
0000
1000
0001
,
0010
0000
0001
0001
,
0001
0000
1000
0001
,
1000
0000
0001
0100
,
0010
1000
0010
0100
,
0001
0000
1000
0100
,
0010
0002
0000
0000
,
0003
0000
1000
0010
,
0100
0001
1000
0000
,
0001
0000
1000
0100
,
0001
0000
0001
0100
,
1000
0000
0001
0100
,
1000
0000
1000
0100
,
0001
0000
1000
0010
,
0001
0000
0001
0010
,
1000
0000
0001
0010
,
1000
0010
0001
0002
,
0000
0000
1003
0100
,
0010
0001
1000
0010
,
0000
1000
1000
0000
0001
0000
0010
0000
,
0100
1000
0001
0001
,
1000
1000
0010
0100
,
0001
1000
0200
0000
,
0320
0000
0031
1000
,
0020
0000
1030
0001
,
0020
0000
0031
1000
,
0100
0000
0000
1000
0001
0000
1000
0001
,
0000
0000
1000
0010
,
0001
0100
1000
0010
,
0001
0100
1000
0010
,
0001
0200
0300
0010
,
0000
1001
0000
0000
;

//--------------- dance-single - ----------------
#NOTES:
     dance-single:
     :
     Medium:
     11:
     0,0,0,0,0:
0000
0000
0000
0000
,
0000
0000
0000
0000
,
0000
0000
0000
0000
,
0000
0000
0000
0000
,
0000
0000
0000
0000
,
1000
0100
1000
0010
,
1000
0100
1000
0010
0000
0000
0100
0000
,
0001
1000
0001
0010
,
0001
1000
0001
0010
0000
0000
0100
0000
,
1000
0010
0100
0001
,
1000
0010
0100
0001
0000
0000
1000
0000
,
0010
0010
0010
1000
,
0010
0100
0010
0100
0001
0000
1001
0000
,
1000
0000
0001
0010
0000
0001
1000
0000
,
0001
0010
0100
1000
0000
0100
0000
1000
,
0000
0001
0100
0000
0010
0000
1000
0000
,
0001
0100
0001
1000
0000
0100
0000
1000
,
0000
0001
0100
0010
0000
0100
0001
0000
,
0010
0001
1000
0100
0000
0100
0000
2000
,
0000
0100
0001
0010
,
3001
0000
1000
0010
1000
0000
0000
0000
,
0001
0000
0010
0000
0200
0000
0300
1000
,
0000
0010
0000
0010
0200
0000
0300
0000
,
0001
1000
0001
1000
0001
0000
0100
0000
,
0020
0000
2000
0000
,
3030
0000
2000
0000
,
0000
3000
0100
0010
,
0001
0000
0000
0100
0000
0010
0000
0000
,
1000
0000
0001
0001
,
0001
1000
0020
0000
,
0230
0000
0301
1000
,
0100
0000
0000
0100
0000
1000
0000
0000
,
0001
0000
1000
1000
,
1000
0000
0001
0000
0200
0000
0000
0320
,
0000
0000
1030
0100
,
0010
0001
0100
0001
,
1000
0010
1000
1000
,
0001
0001
0200
0000
,
0010
0310
1000
0100
,
0010
0100
1000
0010
,
0100
0010
0001
0010
,
0100
0010
2000
0000
,
3001
1000
0001
0010
,
0001
0100
0010
1000
,
0100
1000
0001
0100
,
0001
0010
0100
1000
,
0010
2000
0001
0001
,
0001
0001
0001
0001
,
0001
3001
1001
0000
,
0000
0000
0000
0000
,
1000
0010
0000
1000
0010
0000
0000
0000
0100
0000
0000
0000
0001
0000
0000
0010
,
0000
0000
0010
0000
0001
0000
1000
0000
0100
0000
0000
0000
1000
0000
0000
0010
,
0000
0000
0010
0000
0200
0000
0000
0300
0001
0000
0000
0000
0010
0000
0000
0000
,
0100
0001
0100
0010
,
0001
1000
0001
0000
1000
0000
0010
0000
,
0100
1000
0100
0010
,
1000
0000
0001
0100
,
0010
1000
0010
0100
,
0001
0010
0001
0000
1000
0000
1000
0000
,
1000
0010
0100
0001
,
0101
0000
1000
0100
,
0001
1000
0010
0001
,
1000
0001
1000
0000
0001
0000
0100
0000
,
1000
0000
0001
0000
0010
0000
0000
0110
,
0000
0110
1000
0010
,
0001
0010
1000
0000
,
0001
0001
1000
0010
,
0100
0001
1000
0100
,
1000
0000
0001
0100
,
0010
1000
0001
0010
,
0001
0000
1000
0100
,
0010
0001
1000
0010
,
1000
0000
0000
0000
0001
0010
0100
1000
,
0001
0100
0001
0000
0100
1000
0010
0002
,
0000
0000
0000
0000
0103
0000
0001
1000
,
0010
1000
0000
2000
0000
0000
0001
0000
,
3010
1000
1000
0000
0100
0000
1000
0001
,
0010
0001
0000
0002
0010
0000
0100
0000
,
1000
0000
0013
0000
0001
0000
1000
0010
,
0100
0010
0000
0020
0000
0000
0100
0000
,
0001
0000
0000
0000
1030
0000
0000
0000
0001
0000
0000
0010
0000
0000
2000
0000
,
0000
0000
0000
0000
0010
0000
0000
0000
3001
0000
0000
0100
0000
0000
2000
0000
,
0100
0000
3010
0000
1010
0000
1000
0001
,
1000
0010
0000
0100
0010
1000
0100
0010
,
0000
0000
0001
0010
,
0001
0100
0010
0000
1000
0000
0100
0000
,
1000
0010
0100
0000
0001
0000
0100
0000
,
0001
0010
0100
1000
0000
0000
0110
0000
,
0001
1001
0000
0000
;

//--------------- dance-single - ----------------
#NOTES:
     dance-single:
     :
     Hard:
     15:
     0,0,0,0,0:
0000
0000
0000
0000
,
0000
0000
0000
0000
,
0000
0000
0000
0000
,
0000
0000
0000
0000
,
0000
0000
0000
0000
,
1000
0010
0100
0001
0000
0010
0100
0010
,
0001
1000
0010
1000
0000
0001
0100
0010
,
0000
0010
0010
1000
1000
0001
0010
0100
,
0010
0001
1000
0001
0000
0100
0010
1000
,
0000
0010
0100
0001
0000
1000
0100
1000
,
0100
0010
0001
1000
0000
0100
1000
0010
,
0000
1000
1000
0100
0100
1000
0001
0100
,
0010
0010
0100
0100
0001
1000
0001
1000
,
1001
0000
0000
0000
0001
0000
0100
0001
0000
0000
0010
0000
0100
0000
1000
0000
,
0001
0000
0001
0000
0100
0000
0000
0010
0000
0000
1000
0000
0001
0000
0000
0000
,
0010
0000
0001
0000
0100
0000
0001
1000
0000
0000
0100
0000
0100
0000
1000
0000
,
0010
0000
0100
0000
0010
0000
1000
0000
0001
1000
0000
0001
1000
0000
0001
1000
,
0100
0000
0010
0000
0001
0000
0000
0100
0000
0100
0001
0000
1000
0000
0100
0000
,
1000
0000
0001
0000
0010
0000
0000
0100
0000
0100
1000
0000
0001
0000
0100
0000
,
0010
0000
1000
0000
0001
0000
0000
0010
0000
0010
0001
0000
0100
0000
0010
1000
,
0000
1000
0100
0000
0010
0000
0001
0000
0011
0000
0000
0000
1000
0000
0000
0000
,
0002
0000
0203
0000
0320
0000
0130
0002
,
0000
0200
0303
0200
0320
0000
1030
0000
,
0001
0001
0001
0001
0001
0010
0100
1000
,
0020
0000
0000
0000
1030
0000
0020
0000
0000
0000
1030
0000
0001
0000
1000
0100
,
1000
0001
1000
1000
,
1000
1000
0200
0320
,
0031
1000
0001
0200
0000
0320
0000
0130
,
0001
1000
0001
0000
0100
0100
0001
0001
,
1000
0001
0010
0100
1000
0000
0010
0100
,
0110
1001
2000
3002
,
0013
0100
0010
2000
0000
3002
0000
1003
,
0010
0100
0010
0000
0001
0001
0100
0100
,
0010
1000
0001
0100
0001
0010
0010
1000
,
0000
0010
0010
0001
0000
0101
0000
1010
,
0000
0101
0000
1010
0000
0011
0000
1100
,
0000
0011
0000
1100
0000
0101
0000
0011
,
0000
1010
0000
1100
0000
0100
0100
0001
,
0000
0100
0100
1000
0002
0000
1003
0001
,
1000
0001
1000
1000
0001
0010
0100
0010
,
1000
0010
0100
0010
0001
0100
0010
0100
,
1000
0100
0010
0100
0001
0000
1000
0100
,
1100
0000
0101
0000
1000
0010
0100
0001
,
0010
0100
1000
0000
0001
0100
0010
1000
,
0100
0010
0001
0000
1000
0100
0010
0100
,
1000
0001
0100
0001
1000
0100
0010
0001
,
0000
1000
0001
0000
0001
0100
0010
0100
,
0001
1000
0100
1000
0001
0010
1000
0010
,
0001
0100
1000
0100
0001
0000
1000
0000
,
1000
0000
0000
0000
1000
0000
0000
0000
1000
0000
0000
0000
1000
0000
0000
0100
,
1000
0100
0000
0010
0100
0000
0001
0100
0010
0001
0000
1000
0010
0000
0100
0001
,
0000
1000
0000
0001
0100
0000
0100
0000
0010
1000
0000
0010
1000
0000
0100
0000
,
0010
0000
0000
0000
0000
0000
0000
0000
0000
0000
0000
0000
0100
0000
0000
0000
0000
0000
0000
0000
0000
0000
0000
0000
0000
0000
0000
0000
0000
0000
0000
0000
0000
0000
0000
0000
1000
0000
0000
0000
0000
0000
0000
0000
0000
0000
0000
0000
0002
0000
0000
0000
0000
0000
0000
0000
0000
0000
0000
0000
0000
0000
0000
0000
0000
0000
0000
0000
0000
0000
0000
0000
0000
0000
0000
0000
0000
0000
0000
0000
0000
0000
0000
0000
0000
0000
0000
0000
0000
0000
0000
0000
0000
0000
0000
0003
0001
0000
0000
0000
0000
0000
0000
0000
0000
0000
0000
0000
0000
0000
0000
0000
0000
0000
0000
0000
0000
0000
0000
0000
0010
0000
0000
0000
0000
0000
0000
0000
0000
0000
0000
0000
0000
0000
0000
0000
0000
0000
0000
0000
0000
0000
0000
0000
0100
0000
0000
0000
0000
0000
0000
0000
0000
0000
0000
0000
0000
0000
0000
0000
0000
0000
0000
0000
0000
0000
0000
0000
1000
0000
0000
0000
0000
0000
0000
0000
0000
0000
0000
0000
0000
0000
0000
0000
0000
0000
0000
0000
0000
0000
0000
0000
,
0010
0100
0001
0010
0100
1000
0010
0100
,
0001
0001
0010
0100
1000
0100
0010
0001
,
0100
0010
1000
0100
0010
0001
0100
0010
,
1000
0001
0000
0001
1000
0010
0100
1000
,
0100
0010
1000
0100
0010
1000
0010
0100
,
1000
1000
0001
0000
1000
1000
0010
0010
,
0100
0100
0001
0010
0011
0000
0101
0000
,
1100
0000
1010
0000
1000
0100
0001
1000
,
0010
0001
1000
0100
0001
1000
0010
0001
,
1000
1000
0100
0010
0001
0010
1000
0001
,
0100
1000
0001
0010
1000
0000
0010
0110
,
0000
0001
1001
0000
1000
0010
0001
1000
,
0100
0001
1000
0010
0100
0000
0100
0000
,
0001
1000
0001
0100
0010
0000
1000
0000
,
0100
0000
1000
0000
0010
0000
0100
0001
,
0000
0100
0001
0001
1000
0000
0010
0000
,
0001
0100
0001
0010
,
1000
0001
0100
0000
0001
0000
0010
0000
,
1000
0100
1000
0010
,
0001
1000
0100
1000
0001
0100
1000
0010
,
1000
0100
0001
0010
0001
1000
0100
0020
,
0000
0000
0000
0000
0031
0000
0101
0100
,
0001
0000
1000
0000
0100
0000
0020
0000
0000
0000
0031
1000
0001
0000
0100
0010
,
0000
0010
1000
0000
1000
0000
0000
0000
0010
0000
0000
0000
1010
0000
1000
0000
,
0001
0010
0100
2000
0100
0002
3100
2003
,
0010
3002
0010
1003
0001
0000
1100
1000
,
0010
0000
0100
0000
0001
0000
0010
0000
0011
0000
0000
0001
1000
0100
1000
0010
,
0000
0100
0010
0100
0001
1000
0010
1000
0200
0000
0000
2300
0000
0000
3020
0000
,
1000
0000
1030
0000
0001
0000
0000
0000
0020
0000
0000
0032
0000
0000
0203
0001
,
0000
0010
0000
1300
0100
0010
1000
1000
0001
0000
0000
0000
1000
0000
0001
0000
,
0100
0101
0000
1000
0100
0001
0100
0101
,
0000
0000
1000
0000
0001
1000
0100
0010
,
1000
0001
0010
0100
0001
1000
0100
0010
,
1000
0001
0010
0100
0001
1000
0100
0010
,
1000
0000
0000
0001
0000
0000
0010
0000
0000
0100
0000
0000
0001
0000
0000
0000
0001
0000
0100
0000
0000
0000
0100
0000
,
0010
1001
0000
0000
;
