#TITLE:鴉;
#SUBTITLE:;
#ARTIST:L.E.D.-G;
#TITLETRANSLIT:KARASU;
#SUBTITLETRANSLIT:;
#ARTISTTRANSLIT:;
#GENRE:Crossbreed;
#CREDIT:;
#BANNER:KARASU.png;
#BACKGROUND:KARASU-bg.png;
#LYRICSPATH:;
#CDTITLE:cdtitle.png;
#MUSIC:KARASU.ogg;
#OFFSET:-0.064750;
#SAMPLESTART:20.275276;
#SAMPLELENGTH:10.065262;
#SELECTABLE:YES;
#BPMS:0.000000=190.000000
,223.000000=95.000000
,239.000000=190.000000
;
#STOPS:159.500000=0.316000
;
#BGCHANGES:;
#KEYSOUNDS:;
#ATTACKS:;

//---------------dance-single - ----------------
#NOTES:
     dance-single:
     :
     Challenge:
     15:
     0.763093,0.858938,0.538439,0.282039,0.153840,625.000000,562.000000,63.000000,33.000000,177.000000,0.000000,0.763093,0.858938,0.538439,0.282039,0.153840,625.000000,562.000000,63.000000,33.000000,177.000000,0.000000:
// measure 0
0000
0000
0000
0000
,  // measure 1
0000
0000
0000
0000
,  // measure 2
0000
0000
0000
0000
,  // measure 3
0000
0000
0000
0000
,  // measure 4
1000
0100
0010
0100
1000
0010
1000
1000
,  // measure 5
0001
0100
0010
0100
0001
0020
0000
0130
,  // measure 6
1000
0010
0100
0010
1000
0100
0010
0010
,  // measure 7
0001
0010
0100
0010
0001
0200
0000
0310
,  // measure 8
1000
0000
1000
0010
0001
0010
1000
0000
,  // measure 9
0001
0100
1000
0100
0001
0010
0100
0010
,  // measure 10
0001
0000
0001
0010
1000
0010
0001
0000
,  // measure 11
1000
0100
0001
0100
1000
0010
0100
0010
,  // measure 12
1000
1000
0100
0100
,  // measure 13
0001
0001
0010
0010
,  // measure 14
1000
0000
0100
0000
0010
0000
0001
0000
1000
0100
1000
0100
1000
0100
0010
0001
,  // measure 15
2000
0000
0000
0000
0000
0000
0000
0000
0000
0000
3010
0100
0001
0000
0000
0000
,  // measure 16
0101
0001
1000
1100
1000
0001
0101
0001
,  // measure 17
1000
0100
0010
0011
0001
1000
1010
1000
,  // measure 18
0001
0010
0100
0010
1000
0010
1000
0010
,  // measure 19
0001
0100
1000
0100
0001
0010
0110
0000
,  // measure 20
1100
1000
0010
1010
0010
1000
1100
1000
,  // measure 21
0001
0100
0001
0011
0010
0001
0101
0100
,  // measure 22
0001
0010
0100
0010
1000
0010
1000
0010
,  // measure 23
0001
0000
0100
0000
1000
0000
0100
0000
0001
0000
1000
0100
0010
0000
0001
0000
,  // measure 24
0011
0001
0100
1001
0100
1000
1010
1000
,  // measure 25
0010
1000
0100
1001
0100
0001
0011
0010
,  // measure 26
0001
0100
1000
0001
0010
0001
0010
1000
,  // measure 27
0100
0000
0001
0000
1000
0000
0010
0000
0100
0000
0010
0001
0100
0000
0010
0000
,  // measure 28
1010
0100
0001
0011
0100
1000
1010
0100
,  // measure 29
0001
0010
0100
1100
0010
0001
0101
0010
,  // measure 30
1000
0000
0100
0000
0001
0000
1000
0000
0010
0000
0001
0000
1000
0100
0010
0001
,  // measure 31
2000
0000
0000
0000
0000
0000
0000
0000
3001
0000
0100
0000
0001
1000
0001
0000
,  // measure 32
1000
MMMM
0100
0001
MMMM
0100
1000
MMMM
,  // measure 33
0100
0001
MMMM
0100
1000
0100
0010
0001
,  // measure 34
1000
MMMM
0010
0001
MMMM
0010
1000
MMMM
,  // measure 35
0010
0001
0100
1000
0100
0001
0010
0001
,  // measure 36
0100
MMMM
1000
0100
MMMM
0001
0010
MMMM
,  // measure 37
1000
0010
MMMM
0001
0100
0010
1000
0001
,  // measure 38
0010
MMMM
1000
0010
MMMM
0001
0100
MMMM
,  // measure 39
1000
0100
0110
0001
0100
0110
1000
2000
,  // measure 40
3001
0010
MMMM
0001
0100
MMMM
0001
0010
,  // measure 41
MMMM
0001
0100
0001
0100
1000
0010
MMMM
,  // measure 42
1000
0100
MMMM
1000
0010
MMMM
1000
0100
,  // measure 43
1000
0100
0001
0010
1000
0010
0001
MMMM
,  // measure 44
0010
0001
MMMM
0100
0001
MMMM
0100
1000
,  // measure 45
MMMM
0010
1000
0001
0100
1000
0010
0010
,  // measure 46
0100
0000
0100
0000
0001
0000
1000
0100
0010
0000
0001
0100
0010
0000
0000
0000
,  // measure 47
0110
1001
0000
1100
0011
0000
0102
1000
,  // measure 48
1003
2100
0001
3001
0201
0310
0102
1000
,  // measure 49
0013
2100
0001
3010
0110
0010
2001
0100
,  // measure 50
3100
1002
0100
0103
1002
0013
0100
0100
,  // measure 51
1000
0010
1000
0010
0100
0000
0001
0000
1000
0000
0100
0000
0120
0000
0001
0000
,  // measure 52
0031
0210
1000
1300
1100
0010
0012
1000
,  // measure 53
0103
2010
0001
3100
0110
0001
1000
1000
,  // measure 54
0001
0000
0001
0000
0010
0000
0001
1000
0010
0000
1000
0001
0010
0000
1000
0000
,  // measure 55
0010
0000
0001
0000
0100
0000
0100
0000
0010
1000
0010
1000
0200
0000
0000
0000
,  // measure 56
0000
0000
0000
0000
,  // measure 57
000M
0000
0000
0000
,  // measure 58
M000
0000
0000
0000
,  // measure 59
M0MM
0000
0000
0000
0300
0000
1200
0310
,  // measure 60
0100
0201
0310
0100
1200
0310
0100
0001
,  // measure 61
0100
0010
0100
1000
0001
1000
1020
0130
,  // measure 62
0010
0021
0130
0010
1020
0130
0010
0001
,  // measure 63
0010
1000
0100
0010
0001
0100
0210
0301
,  // measure 64
1000
2001
3100
0010
0210
1300
0001
0100
,  // measure 65
0010
0000
1000
0000
0100
0000
0010
0000
0001
1000
0001
0000
0101
0000
1010
0000
,  // measure 66
0000
0000
1100
0000
0011
0000
0000
0000
0110
0000
1000
0001
1000
0000
0000
0000
,  // measure 67
0010
1000
0000
1000
0100
0010
0001
MMMM
,  // measure 68
0100
1000
MMMM
0100
0001
MMMM
0010
1000
,  // measure 69
MMMM
0000
0010
0000
0001
0000
1000
0000
0001
0100
0010
1000
0001
0000
MMMM
0000
,  // measure 70
0010
1000
MMMM
0100
0001
MMMM
0100
1000
,  // measure 71
MMMM
0000
0010
0000
0001
0000
0001
0000
1000
0100
0010
0001
1000
0000
MMMM
0000
,  // measure 72
0100
0001
MMMM
0100
1000
MMMM
0010
0001
,  // measure 73
MMMM
0000
0010
0000
1000
0000
0001
0000
1000
0100
0010
0001
0200
0000
0000
0000
,  // measure 74
1300
0000
0210
0000
0000
0000
0301
0000
0210
0000
0000
0000
1300
0100
1000
0100
,  // measure 75
0010
0000
0010
0000
0100
0000
0001
1000
0001
1000
0100
0010
0200
0000
1000
0000
,  // measure 76
0310
0001
MMMM
0010
0001
MMMM
0100
0010
,  // measure 77
MMMM
0000
0001
0000
0100
0000
1000
0000
0100
0010
0100
0001
1000
0000
MMMM
0000
,  // measure 78
0010
0100
MMMM
1000
0010
MMMM
1000
0100
,  // measure 79
MMMM
0000
0001
0000
0010
0000
1000
0000
0010
0100
0010
0001
1000
0000
0000
0000
,  // measure 80
0001
0100
0000
0100
0010
0000
1000
0100
,  // measure 81
0000
0010
0000
0001
0101
1000
2100
0001
,  // measure 82
3010
0102
1000
0013
0110
1000
0001
0001
,  // measure 83
1000
0000
1000
0000
0001
0000
0010
0001
0100
0000
0000
0000
1001
0000
0000
0000
;

//---------------dance-single - ----------------
#NOTES:
     dance-single:
     :
     Hard:
     13:
     0.671522,0.679992,0.487159,0.358959,0.000000,550.000000,493.000000,57.000000,42.000000,0.000000,0.000000,0.671522,0.679992,0.487159,0.358959,0.000000,550.000000,493.000000,57.000000,42.000000,0.000000,0.000000:
0000
0000
0000
0000
,
0000
0000
0000
0000
,
0000
0000
0000
0000
,
0000
0000
0000
0000
,
1000
0000
0001
0100
0000
0001
0100
0000
,
0001
0000
0010
0001
0000
1002
0000
0103
,
0001
0000
1000
0100
0000
1000
0100
0000
,
1000
0000
0010
1000
0000
2001
0000
3100
,
1000
0000
1000
0010
0100
0010
1000
0000
,
1000
0010
0001
0010
1000
0000
0100
0010
,
0001
0000
0001
0010
0100
0010
0001
0000
,
0001
0010
1000
0010
0001
0000
0100
0010
,
1000
1000
0100
0100
,
0001
0001
0010
0010
,
1000
0100
1000
0100
0010
0001
0100
0010
,
2000
0000
0000
0000
0000
3010
0110
0000
,
0102
0000
1003
2100
0000
3001
0101
0000
,
0110
0000
1000
2010
0000
3001
0012
0000
,
1003
0100
1000
0100
0010
0100
0010
0100
,
0001
0100
0010
0100
0001
0100
1000
0000
,
2100
0000
3001
0102
0000
1003
1100
0000
,
0110
0000
0001
0012
0000
1003
2010
0000
,
3001
0100
0001
0100
0010
0100
0010
0100
,
1000
0100
0001
0100
1000
0100
0001
0010
,
0021
0000
0130
0120
0000
1030
1010
0000
,
0011
0000
0010
2100
0000
3010
0101
0000
,
0001
0100
0001
0100
1000
0100
1000
0100
,
0001
0010
1000
0010
0001
0100
0010
1000
,
1020
0000
0130
0120
0000
0031
0011
0000
,
1010
0000
0010
0102
0000
0013
1100
0000
,
1000
1000
0100
0010
0001
0100
0010
1000
,
2002
0000
3003
0000
0001
1000
0001
1000
,
0001
0000
0001
0100
0000
0100
1000
0000
,
1000
0100
0010
0100
0001
1000
0100
0010
,
0001
0000
0001
0010
0000
0010
1000
0000
,
0010
1000
0010
0001
1000
0001
0100
0010
,
1000
0000
1000
0100
0000
0100
0001
0000
,
0001
0100
0010
0100
1000
0001
0100
0010
,
1000
0000
1000
0010
0000
0010
0001
0000
,
0010
1000
0100
0001
1000
0010
0001
0100
,
0201
0010
0000
0010
1300
0000
1000
0100
,
0001
1000
0100
0001
0100
0010
0021
0000
,
0001
0100
0000
0100
1030
0000
1000
0010
,
0001
0100
1000
0100
0001
0010
0210
0000
,
1000
0010
0000
0010
0301
0000
0001
0100
,
1000
0001
0100
1000
0100
0010
1000
1000
,
0001
0001
0010
0001
1000
0010
1002
0000
,
0013
2001
0000
3001
1001
0000
1000
0010
,
0100
1000
0100
0010
1000
0001
1000
0100
,
0010
1000
0010
0100
1000
1000
0001
0100
,
0010
0001
0010
0100
0001
1000
0001
0010
,
0100
0100
1000
0100
0001
0100
1000
0010
,
0001
1000
0100
0001
1000
0010
1000
0100
,
0001
1000
0010
0001
1000
0001
0100
0100
,
0010
0010
1000
0100
0001
0100
1000
0010
,
1000
0010
0100
0001
1000
0100
0220
0000
,
0000
0000
0000
0000
,
0000
0000
0000
0000
,
0000
0000
0000
0000
,
0000
0000
0000
0000
0330
0000
0012
0010
,
0003
1002
1000
0003
0102
0100
0003
0001
,
0010
0000
0001
0010
0001
1000
2010
0010
,
3000
2001
0001
3000
2100
0100
3000
1000
,
0010
0000
1000
0010
0001
0010
0120
1000
,
0030
2001
0100
3000
0210
0001
0300
0001
,
0100
1000
0001
0001
1000
0100
0120
0001
,
0030
1002
0100
0003
0100
0010
2002
0000
,
0000
0000
0000
0000
3003
0000
0001
1000
,
0001
0100
1000
0001
0010
0100
0001
1000
,
0010
0001
0010
0001
0010
1000
0100
0001
,
1000
0010
0100
1000
0001
1000
0010
0001
,
0010
1000
0100
0010
0001
0100
0001
1000
,
0001
0010
1000
0001
0100
0010
0001
1000
,
0100
0001
0100
0001
0100
0010
0012
0000
,
0103
2010
0000
3010
1001
0000
1000
0100
,
0001
0100
1000
0010
0001
0010
2000
0000
,
3001
1000
0100
0001
1000
0001
0100
1000
,
0010
0001
0010
0001
1000
0100
0001
0100
,
1000
0001
1000
0100
0001
1000
0001
0010
,
1000
0010
1000
0001
0100
1000
1100
0000
,
1000
0010
0000
0010
0100
0000
0001
0010
,
0000
0100
0000
1000
0010
0100
0101
0000
,
1010
1001
0000
0011
1001
0000
1000
1000
,
0001
0001
0100
0001
0010
0000
1001
0000
;

//---------------dance-single - ----------------
#NOTES:
     dance-single:
     :
     Medium:
     10:
     0.455414,0.536836,0.307679,0.324772,0.000000,373.000000,337.000000,36.000000,38.000000,0.000000,0.000000,0.455414,0.536836,0.307679,0.324772,0.000000,373.000000,337.000000,36.000000,38.000000,0.000000,0.000000:
0000
0000
0000
0000
,
0000
0000
0000
0000
,
0000
0000
0000
0000
,
0000
0000
0000
0000
,
1000
0100
0001
0100
,
1000
0000
0100
0000
1000
0010
0000
0000
,
0001
0100
1000
0100
,
0001
0000
0100
0000
0001
0010
0000
0000
,
1000
0000
0100
0010
0000
0010
0001
0000
,
0001
0100
0000
0100
0010
0000
1000
0000
,
0001
0000
0100
0010
0000
0010
1000
0000
,
1000
0100
0000
0100
0010
0000
0001
0000
,
1000
1000
0100
0100
,
0001
0001
0010
0010
,
1000
0100
0010
0001
2000
0000
3200
0000
,
0310
0000
0000
0110
,
1002
0000
0000
0100
0000
0000
0013
0000
,
2001
0000
0000
0100
0000
0000
3010
0000
,
1000
0000
0010
0100
0000
0010
0000
0001
,
0010
0000
0100
0010
0000
1000
0100
0000
,
0012
0000
0000
1000
0000
0000
0103
0000
,
2010
0000
0000
0001
0000
0000
3100
0000
,
1000
0000
0100
0010
0000
0010
0100
0000
,
0001
0100
0000
0010
0100
0000
1000
0000
,
1020
0000
0000
0100
0000
0000
0031
0000
,
0021
0000
0000
0100
0000
0000
1030
0000
,
0001
0000
0010
0100
0000
0010
0000
1000
,
0010
0000
0100
0010
0000
0001
0100
0000
,
0201
0000
0000
0010
0000
0000
1300
0000
,
1200
0000
0000
0010
0000
0000
0301
0000
,
0100
0001
1000
0000
0100
1000
0001
0000
,
2002
0000
3003
0000
,
0001
0010
0001
1000
,
0001
0000
0100
0000
0001
0100
0001
1000
,
0010
1000
0001
1000
,
0100
0000
1000
0000
0100
1000
0100
0010
,
0001
1000
0010
0100
,
0001
0000
1000
0000
0001
0010
0100
1000
,
0001
0100
0010
1000
,
0001
0000
1000
0100
0000
0100
0010
0000
,
0001
0100
0010
1000
,
0001
0000
1000
0100
0001
0100
1000
0000
,
0010
0100
0001
0010
,
0100
0000
1000
0010
0001
0010
1000
0000
,
0001
0010
0100
1000
,
0001
0000
0100
1000
0100
0001
0100
0000
,
0010
1000
0001
0000
0010
0001
1000
0000
,
0000
0110
0000
0000
1001
0000
1000
0100
,
0000
0100
1000
0000
0110
0000
0001
0010
,
0000
0010
0001
0000
0110
0000
0001
0100
,
0000
0100
0001
0000
0110
0000
1000
0010
,
1000
0010
1000
0000
1000
0000
0001
0010
,
0000
0001
0100
0000
1001
0000
1000
0010
,
0000
1000
0100
0000
1001
0000
0001
0100
,
0001
1000
0100
0000
0100
0000
0011
0000
,
1100
0000
0001
1000
0001
0000
2002
0000
,
0000
0000
0000
0000
,
0000
0000
0000
0000
,
0000
0000
0000
0000
,
0000
0000
3003
0022
,
0033
2002
0000
3003
0202
0000
0303
0000
,
0001
0000
0001
0100
0010
0000
2020
0000
,
3030
2002
0000
3003
2200
0000
3300
0000
,
1000
0000
1000
0100
0010
0000
0022
0000
,
0033
2020
0000
3030
2200
0000
3300
0000
,
1000
0000
0001
1000
0001
0000
2020
0000
,
3030
0022
0000
0033
0101
0000
2002
0000
,
0000
0000
3003
1000
,
0100
0001
0100
1000
,
0100
0000
0010
0001
0100
0010
1000
0000
,
0010
0001
0010
1000
,
0010
0000
0100
0001
1000
0100
0010
0000
,
0001
0010
1000
0010
,
0001
0000
0010
0100
1000
0001
0100
0000
,
0010
1000
0000
1000
0001
0000
0100
0001
,
0010
0000
0100
1000
0010
0000
1000
0000
,
0010
0001
0010
1000
,
0100
0000
0001
0100
1000
0100
0001
0000
,
0100
1000
0001
1000
,
0010
0000
0001
0010
1000
0010
0001
0000
,
0000
0010
0000
0000
1000
0000
0000
0100
,
0000
0100
0000
0100
1000
0001
0100
0000
,
0000
0110
0000
0000
1001
0000
0001
0010
,
1000
0010
0001
0000
0010
0000
1001
0000
;

//---------------dance-single - ----------------
#NOTES:
     dance-single:
     :
     Easy:
     7:
     0.322331,0.465258,0.358959,0.119653,0.000000,264.000000,222.000000,42.000000,14.000000,0.000000,0.000000,0.322331,0.465258,0.358959,0.119653,0.000000,264.000000,222.000000,42.000000,14.000000,0.000000,0.000000:
0000
0000
0000
0000
,
0000
0000
0000
0000
,
0000
0000
0000
0000
,
0000
0000
0000
0000
,
1000
0000
0010
0000
,
1000
0010
1000
0000
,
0001
0000
0010
0000
,
0001
0010
0001
0000
,
1000
1000
0010
0010
,
0100
0010
1000
0000
,
0001
0001
0010
0010
,
0100
0010
0001
0000
,
1000
0001
1000
0001
,
0100
0010
0100
0010
,
1000
0100
0010
0001
,
0200
0000
0000
0310
,
1000
0000
0000
0110
0000
0000
0110
0000
,
1000
0000
0000
0110
0000
0000
0110
0000
,
1000
1000
0010
0000
,
1000
1000
0100
0000
,
0001
0000
0000
0110
0000
0000
0110
0000
,
0001
0000
0000
0110
0000
0000
0110
0000
,
0001
0001
0010
0000
,
0001
0001
0100
0000
,
1000
0000
0000
0110
0000
0000
1001
0000
,
0010
0000
0000
1001
0000
0000
0110
0000
,
0001
0001
0010
0000
,
1000
1000
0010
0000
,
0001
0000
0000
0110
0000
0000
1001
0000
,
0010
0000
0000
1001
0000
0000
0110
0000
,
1000
1000
0001
0001
,
2002
0000
3003
0000
,
0001
0000
0010
0000
,
0001
0010
0100
1000
,
0010
0000
1000
0000
,
0010
1000
0100
0010
,
0001
0000
0100
0000
,
0001
0100
0010
1000
,
0100
0000
1000
0000
,
0100
1000
0010
0010
,
1000
1000
0000
1000
,
0100
0001
0100
1000
,
0000
0001
0000
1000
,
0010
0001
0010
1000
,
0000
0001
0000
1000
,
0100
0010
0001
0100
,
0100
0010
0010
1001
,
0000
1001
0000
0000
1001
0000
1000
0000
,
0000
1000
0000
0000
0100
0000
0001
0000
,
0000
0001
0000
0000
0100
0000
1000
0000
,
0000
1000
0000
0000
0100
0000
0010
0000
,
0001
1000
1000
0001
,
0000
0001
0000
0000
0100
0000
1000
0000
,
0000
1000
0000
0000
0100
0000
0001
0000
,
0001
1000
1000
0001
,
0010
0100
1000
2002
,
0000
0000
0000
0000
,
0000
0000
0000
0000
,
0000
0000
0000
0000
,
0000
0000
3003
0101
,
0000
0101
0000
0000
0202
0000
0303
0000
,
0000
0000
0000
1010
,
0000
1010
0000
0000
2020
0000
3030
0000
,
0000
0000
0000
1100
,
0000
1100
0000
0000
2200
0000
3300
0000
,
0000
0000
0000
0011
,
0000
0011
0000
0000
0011
0000
2002
0000
,
0000
0000
3003
0001
,
0000
0001
0000
0100
,
0010
1000
0001
0010
,
0000
0010
0000
0100
,
1000
0001
0100
0010
,
0000
0010
0000
1000
,
0001
0010
0100
0110
,
0000
0110
0000
0000
0110
0000
1000
0000
,
1000
0001
0001
1000
,
0000
0010
0000
0001
,
0010
1000
0100
0001
,
0000
0100
0000
0001
,
0100
1000
0010
0200
,
0000
0000
0000
0000
,
0000
0000
0310
1001
,
0000
0110
0000
0000
1001
0000
0010
0000
,
0010
0100
1001
0110
;

//---------------dance-single - ----------------
#NOTES:
     dance-single:
     :
     Beginner:
     4:
     0.211224,0.286313,0.170933,0.358959,0.000000,173.000000,153.000000,20.000000,42.000000,0.000000,0.000000,0.211224,0.286313,0.170933,0.358959,0.000000,173.000000,153.000000,20.000000,42.000000,0.000000,0.000000:
0000
0000
0000
0000
,
0000
0000
0000
0000
,
0000
0000
0000
0000
,
0000
0000
0000
0000
,
2000
0000
3000
0000
,
0200
0000
0300
0000
,
0020
0000
0030
0000
,
0002
0000
0003
0000
,
1000
0000
1000
0000
,
1000
1000
1000
0000
,
0001
0000
0001
0000
,
0001
0001
0001
0000
,
1000
0000
1000
0000
,
0001
0000
0001
0000
,
0100
0100
0100
0100
,
0200
0000
0300
0000
,
2002
0000
0000
3000
0000
0000
0003
0000
,
2002
0000
0000
3000
0000
0000
0003
0000
,
1000
1000
1000
0000
,
0001
0001
0001
0000
,
0220
0000
0000
0030
0000
0000
0300
0000
,
0220
0000
0000
0030
0000
0000
0300
0000
,
0001
0001
0001
0000
,
1000
1000
1000
0000
,
2002
0000
0000
3000
0000
0000
0003
0000
,
0220
0000
0000
0300
0000
0000
0030
0000
,
0100
0100
0100
0000
,
0010
0010
0010
0000
,
0220
0000
0000
0030
0000
0000
0300
0000
,
2002
0000
0000
0003
0000
0000
3000
0000
,
0010
0010
0010
0000
,
2002
0000
3003
0000
,
0001
0000
0010
0000
,
0001
0001
0001
0000
,
1000
0000
0010
0000
,
1000
1000
1000
0000
,
0001
0000
0100
0000
,
0001
0001
0001
0000
,
1000
0000
0100
0000
,
1000
1000
1000
1000
,
0000
0010
0000
1000
,
1000
1000
0000
0100
,
0000
0010
0000
0001
,
0001
0001
0000
1000
,
0000
0010
0000
0100
,
0100
0100
0000
0010
,
0010
0010
0000
2002
,
0000
3000
0000
0000
0003
0000
1000
0000
,
0000
1000
0000
0100
,
0000
0100
0000
0001
,
0000
0001
0000
0010
,
0010
0010
0000
1000
,
0000
0100
0000
0001
,
0000
0010
0000
1000
,
1000
1000
0000
0001
,
0001
0001
0000
2002
,
0000
0000
0000
0000
,
0000
0000
0000
0000
,
0000
0000
0000
0000
,
0000
0000
3003
0202
,
0000
0300
0000
0000
0003
0000
0000
0000
,
0000
0000
0000
2200
,
0000
0300
0000
0000
3000
0000
0000
0000
,
0000
0000
0000
2020
,
0000
0030
0000
0000
3000
0000
0000
0000
,
0000
0000
0000
0022
,
0000
0030
0000
0000
0003
0000
2002
0000
,
0000
0000
3003
0001
,
0000
0001
0000
0100
,
0100
0100
0000
1000
,
0000
1000
0000
0010
,
0010
0010
0000
0001
,
0000
0001
0000
0100
,
0100
0100
0000
2002
,
0000
0003
0000
0000
3000
0000
0001
0000
,
1000
0001
0000
1000
,
0000
1000
0000
0100
,
0010
0100
0000
0001
,
0000
0001
0000
0010
,
0100
0010
0000
2000
,
0000
0000
0000
3000
,
0000
0000
1001
2002
,
0000
3000
0000
0000
0003
0000
1000
0000
,
0001
1000
0000
1001
;
