#VERSION:0.83;
#TITLE:Jettison;
#SUBTITLE:(Radio Edit);
#ARTIST:James Egbert;
#TITLETRANSLIT:;
#SUBTITLETRANSLIT:;
#ARTISTTRANSLIT:;
#GENRE:;
#ORIGIN:;
#CREDIT:;
#BANNER:Jettison (Radio Edit).png;
#BACKGROUND:Jettison (Radio Edit)-bg.png;
#PREVIEWVID:;
#JACKET:Jettison (Radio Edit)-jacket.png;
#CDIMAGE:;
#DISCIMAGE:;
#LYRICSPATH:;
#CDTITLE:;
#MUSIC:Jettison (Radio Edit).ogg;
#OFFSET:-0.400000;
#SAMPLESTART:37.893177;
#SAMPLELENGTH:14.531250;
#SELECTABLE:YES;
#BPMS:0.000=128.000;
#STOPS:;
#DELAYS:;
#WARPS:;
#TIMESIGNATURES:0.000=4=4;
#TICKCOUNTS:0.000=4;
#COMBOS:0.000=1;
#SPEEDS:0.000=1.000=0.000=0,
111.000=0.250=1.000=0,
112.000=1.250=0.500=0,
112.500=1.000=0.500=0;
#SCROLLS:0.000=1.000,
47.000=0.000,
47.250=1.000,
47.500=0.000,
47.750=1.000,
79.000=0.500,
80.000=1.000,
94.083=0.000,
94.167=1.000,
94.250=0.000,
94.333=1.000,
94.417=0.000,
94.500=1.000,
126.083=0.000,
126.167=1.000,
126.250=0.000,
126.333=1.000,
126.417=0.000,
126.500=1.000,
143.000=0.000,
143.500=1.000,
175.000=0.000,
175.250=1.000,
175.500=0.000,
175.750=1.000;
#FAKES:;
#LABELS:0.000=Song Start;
#BGCHANGES:;
#KEYSOUNDS:;
#ATTACKS:
;

//---------------dance-single - ----------------
#NOTEDATA:;
#CHARTNAME:;
#STEPSTYPE:dance-single;
#DESCRIPTION:;
#CHARTSTYLE:;
#DIFFICULTY:Challenge;
#METER:14;
#RADARVALUES:0.542569,0.635823,0.214767,0.237374,0.582131,336.000000,317.000000,19.000000,21.000000,60.000000,0.000000,0.000000,0.000000,0.000000,0.542569,0.635823,0.214767,0.237374,0.582131,336.000000,317.000000,19.000000,21.000000,60.000000,0.000000,0.000000,0.000000,0.000000;
#CREDIT:;
#OFFSET:-0.400000;
#BPMS:0.000000=128.000000
;
#STOPS:;
#DELAYS:;
#WARPS:;
#TIMESIGNATURES:0.000000=4=4
;
#TICKCOUNTS:0.000000=4
;
#COMBOS:0.000000=1
;
#SPEEDS:0.000000=1.000000=0.000000=0
,111.000000=0.250000=1.000000=0
,112.000000=1.250000=0.500000=0
,112.500000=1.000000=0.500000=0
;
#SCROLLS:0.000000=1.000000
,47.000000=0.000000
,47.250000=1.000000
,47.500000=0.000000
,47.750000=1.000000
,79.000000=0.500000
,80.000000=1.000000
,94.083336=0.000000
,94.166664=1.000000
,94.250000=0.000000
,94.333336=1.000000
,94.416664=0.000000
,94.500000=1.000000
,126.083336=0.000000
,126.166664=1.000000
,126.250000=0.000000
,126.333336=1.000000
,126.416664=0.000000
,126.500000=1.000000
,143.000000=0.000000
,143.500000=1.000000
,175.000000=0.000000
,175.250000=1.000000
,175.500000=0.000000
,175.750000=1.000000
;
#FAKES:;
#LABELS:0.000000=Song Start
;
#NOTES:
// measure 0
0000
0000
0000
0000
,  // measure 1
0000
0000
0000
0000
,  // measure 2
0000
0000
0000
0000
,  // measure 3
0000
0000
0000
0000
,  // measure 4
0002
0000
0000
0000
,  // measure 5
2003
0000
0000
3020
0000
0230
0000
0000
,  // measure 6
0302
0000
0000
0000
0000
0000
0000
0000
1003
0001
0010
0100
0001
1000
0010
0100
,  // measure 7
2000
0000
0000
3002
0000
2000
0000
3003
,  // measure 8
MMMM
MMMM
MMMM
MMMM
,  // measure 9
MMMM
MMMM
MMMM
MMMM
,  // measure 10
MMMM
MMMM
MMMM
MMMM
,  // measure 11
MMMM
0000
MMMM
0000
MMMM
0000
1000
1000
,  // measure 12
1002
0000
0000
0000
1003
0010
0100
1000
0000
1000
0100
0010
0000
0010
1000
0000
,  // measure 13
0001
0000
1000
0000
0001
0010
0100
0001
0000
0001
0100
0010
0000
0010
0001
0000
,  // measure 14
0001
0000
1000
0000
0001
0100
0010
0001
0000
0001
0010
0100
0000
0100
0001
0000
,  // measure 15
1000
0100
0010
1000
0001
1000
0010
0100
,  // measure 16
1000
0000
0100
0000
1000
0000
0001
0000
0000
0000
0000
0000
1000
0000
0000
0010
0000
0000
0100
0000
0000
1000
0000
0000
0000
0000
0000
1000
0000
0000
0100
0000
0000
0010
0000
0000
0000
0000
0000
0010
0000
0000
1000
0000
0000
0000
0000
0000
,  // measure 17
0001
0000
1000
0000
0001
0010
0100
0001
0000
0001
0100
0010
0000
0010
0001
0000
,  // measure 18
0001
0000
1000
0000
0001
0100
0010
0001
0000
0001
0010
0100
0000
0100
0001
0000
,  // measure 19
0101
0010
0110
1000
1010
0001
1000
0100
,  // measure 20
0010
0000
0000
0000
0110
0000
0000
0000
0010
0100
1000
0010
0100
0000
1000
0000
,  // measure 21
0100
0010
0001
0010
0100
1000
0100
0010
,  // measure 22
0100
0000
0000
0000
0110
0000
0000
0000
0100
0010
1000
0100
0000
0010
0000
0100
,  // measure 23
0001
0000
0000
0000
0000
0000
0100
0000
0000
0010
0000
0000
0000
0000
0000
0100
0000
0000
1000
0000
0000
0000
0000
0000
0100
0000
1000
0000
0100
0000
0010
0000
0000
0001
0000
0000
0000
0000
0000
1000
0000
0000
0010
0000
0000
0000
0000
0000
,  // measure 24
0100
0000
0000
0000
0110
0000
0000
0000
0100
0010
1000
0100
0010
0000
1000
0000
,  // measure 25
0010
0100
0001
0100
0010
1000
0010
0100
,  // measure 26
0010
0000
0000
0000
0110
0000
0000
0000
0010
0100
1000
0010
0000
0100
0000
0000
,  // measure 27
0110
1000
1001
0100
0110
0001
2000
0000
,  // measure 28
0000
0000
0000
0000
3020
0000
0000
0000
1030
0010
0100
1000
0001
0000
1000
0000
,  // measure 29
0200
0010
0301
0020
0001
0230
0010
1300
,  // measure 30
0001
0000
0000
0000
1001
0000
0000
0000
0001
1000
0010
0001
0000
1000
0000
0100
,  // measure 31
0010
0000
0000
0000
0000
0000
0100
0000
0000
0001
0000
0000
0000
0000
0000
0010
0000
0000
0100
0000
0000
0000
0000
0000
0010
0000
0100
0000
0010
0000
0001
0000
0000
1000
0000
0000
0000
0000
0000
0001
0000
0000
0100
0000
0000
0000
0000
0000
,  // measure 32
0010
0000
0000
0000
0210
0000
0000
0000
0301
0100
0010
0001
1000
0000
0001
0000
,  // measure 33
0020
0100
1030
0200
1000
0320
0100
0031
,  // measure 34
1000
0000
0000
0000
1001
0000
0000
0000
1000
0001
0100
1000
0000
0001
0000
0010
,  // measure 35
0100
0001
1000
0100
0010
0001
1000
0000
,  // measure 36
2001
0000
0000
0000
3001
0100
0010
0001
0000
0001
0010
0100
0000
0100
0001
0000
,  // measure 37
1000
0000
0001
0000
1000
0100
0010
1000
0000
1000
0010
0100
0000
0100
1000
0000
,  // measure 38
1000
0000
0001
0000
1000
0010
0100
1000
0000
1000
0100
0010
0000
0010
1000
0000
,  // measure 39
0001
0010
0100
0001
1000
0001
0100
0010
,  // measure 40
0001
0000
0010
0000
0001
0000
1000
0000
0000
0000
0000
0000
0001
0000
0000
0100
0000
0000
0010
0000
0000
0001
0000
0000
0000
0000
0000
0001
0000
0000
0010
0000
0000
0100
0000
0000
0000
0000
0000
0100
0000
0000
0001
0000
0000
0000
0000
0000
,  // measure 41
1000
0000
0001
0000
1000
0100
0010
1000
0000
1000
0010
0100
0000
0100
1000
0000
,  // measure 42
1000
0000
0001
0000
1000
0010
0100
1000
0000
1000
0100
0010
0000
0010
1000
0000
,  // measure 43
1010
0100
0110
0001
0101
1000
0001
0001
,  // measure 44
2002
0000
0000
0000
,  // measure 45
3003
0000
0000
0000
;

//---------------dance-single - ----------------
#NOTEDATA:;
#CHARTNAME:;
#STEPSTYPE:dance-single;
#DESCRIPTION:;
#CHARTSTYLE:;
#DIFFICULTY:Hard;
#METER:11;
#RADARVALUES:0.418230,0.477856,0.101732,0.146946,0.084776,259.000000,250.000000,9.000000,13.000000,0.000000,0.000000,0.000000,0.000000,0.000000,0.418230,0.477856,0.101732,0.146946,0.084776,259.000000,250.000000,9.000000,13.000000,0.000000,0.000000,0.000000,0.000000,0.000000;
#CREDIT:;
#OFFSET:-0.400000;
#BPMS:0.000000=128.000000
;
#STOPS:110.979164=0.937500
;
#DELAYS:;
#WARPS:;
#TIMESIGNATURES:0.000000=4=4
;
#TICKCOUNTS:0.000000=4
;
#COMBOS:0.000000=1
;
#SPEEDS:0.000000=1.000000=0.000000=0
;
#SCROLLS:0.000000=1.000000
,47.000000=0.000000
,47.250000=1.000000
,47.500000=0.000000
,47.750000=1.000000
,79.000000=0.500000
,80.000000=1.000000
,141.000000=0.000000
,141.500000=1.000000
,173.000000=0.000000
,173.250000=1.000000
,173.500000=0.000000
,173.750000=1.000000
;
#FAKES:;
#LABELS:0.000000=Song Start
;
#NOTES:
0000
0000
0000
0000
,
0000
0000
0000
0000
,
0000
0000
0000
0000
,
0000
0000
0000
0000
,
0002
0000
0000
0000
,
2003
0000
0000
3020
0000
0230
0000
0000
,
0302
0000
0000
0000
1003
0001
1000
1000
,
0002
0000
0000
0023
0000
0200
0000
0330
,
0000
0000
0000
0000
,
0000
0000
0000
0000
,
0000
0000
0000
0000
,
0000
0000
0000
0000
0000
0000
1000
0001
,
2000
0000
3001
0100
1000
0100
0001
0001
,
1000
0010
0001
0010
1000
0001
0010
0100
,
1000
0010
1000
0100
0001
0100
1000
1000
,
0001
0100
1000
0010
1000
0100
0001
1000
,
0001
0001
1000
0100
0001
0100
1000
1000
,
0001
0010
1000
0010
0001
1000
0010
0100
,
0001
0010
0001
0100
1000
0100
0001
0001
,
1000
0100
0010
0100
0001
0100
0010
0001
,
1000
0000
1001
0000
0001
0100
1000
0100
,
0010
0100
0010
1000
0001
1000
1000
0000
,
0001
0000
1001
0000
1000
0100
0001
0100
,
0010
0000
0000
0010
0000
0000
0010
0000
0001
0000
0000
0001
0000
0001
1000
0000
,
0001
0000
1001
0000
1000
0010
0001
0010
,
0100
0010
0100
0001
1000
0001
0001
0000
,
1000
0000
1001
0000
0001
0010
1000
0010
,
0001
0100
0001
0010
0001
0100
0110
0000
,
0010
0100
0000
0010
0100
0000
0010
0000
1000
0000
0100
0000
0001
0000
0100
0000
,
1000
0010
0100
0001
1000
0000
1001
0000
,
0001
0000
1000
0100
0000
0010
0000
0000
0001
0000
0010
0100
0000
0010
0001
0000
,
1000
0000
0010
0100
0000
0010
1000
0000
0100
0000
0000
0000
0110
0000
0000
0000
,
0010
0100
0000
0010
0100
0000
0010
0000
0001
0000
0100
0000
1000
0000
0100
0000
,
0001
0010
0100
1000
0001
0000
1001
0000
,
1000
0000
0001
0100
0000
0010
0000
0000
1000
0000
0100
0000
1000
0000
0010
0000
,
1000
0100
0020
0000
0032
0000
1003
0010
,
0001
0010
1000
1000
0001
0100
1000
0100
,
0001
1000
0100
0010
0001
0100
0001
0010
,
1000
0010
0001
0001
1000
0010
0001
0100
,
0001
0010
1000
0001
1000
1000
0001
0010
,
1000
0010
0001
0001
1000
0100
0001
0100
,
1000
0001
0100
0010
1000
0100
1000
0010
,
0001
0010
1000
1000
0001
0010
0100
0010
,
1000
0010
0100
0100
0220
0000
0000
0000
,
0000
0000
0330
0000
;
