#TITLE:Jam;
#SUBTITLE:(Turn It Up);
#ARTIST:Kim Kardashian;
#TITLETRANSLIT:;
#SUBTITLETRANSLIT:;
#ARTISTTRANSLIT:;
#GENRE:;
#CREDIT:;
#BANNER:banner.png;
#BACKGROUND:Jam (Turn It Up)-bg.png;
#LYRICSPATH:;
#CDTITLE:;
#MUSIC:Jam (Turn It Up).ogg;
#OFFSET:-0.000962;
#SAMPLESTART:51.552345;
#SAMPLELENGTH:12.000000;
#SELECTABLE:YES;
#BPMS:0.000000=128.000000
;
#STOPS:
;
#BGCHANGES:;
#KEYSOUNDS:;
#ATTACKS:;

//---------------dance-single - ----------------
#NOTES:
     dance-single:
     :
     Beginner:
     2:
     0.104193,0.147627,0.035149,0.000000,0.000000,83.000000,79.000000,4.000000,0.000000,0.000000,0.000000,0.104193,0.147627,0.035149,0.000000,0.000000,83.000000,79.000000,4.000000,0.000000,0.000000,0.000000:
0000
0000
0000
0000
,
0000
0000
0000
0000
,
0000
0000
0000
0000
,
0000
0000
0000
0000
,
0010
0000
0010
0000
,
0010
0000
0010
0000
,
0001
0000
0001
0000
,
0001
0000
0001
0000
,
0010
0000
0010
0000
,
0010
0000
0010
0000
,
0001
0000
0001
0000
,
0001
0000
0001
0000
,
1000
0000
0000
0000
,
0010
0000
0000
0000
,
0100
0000
0000
0000
,
0001
0000
0000
0000
,
0010
0000
0000
0000
,
0100
0000
0000
0000
,
1000
0000
0000
0000
,
0001
0000
0000
0000
,
1000
0000
1000
0000
,
0010
0000
0000
0000
,
0100
0000
0100
0000
,
0001
0000
0000
0000
,
0010
0000
0010
0000
,
0100
0000
0000
0000
,
1000
0000
1000
0000
,
1001
0000
0000
0000
,
0001
0000
0000
0000
,
0010
0000
0000
0000
,
0100
0000
0000
0000
,
1000
0000
0000
0000
,
0010
0000
0000
0000
,
0100
0000
0000
0000
,
0001
0000
0000
0000
,
1000
0000
0000
0000
,
0010
0000
0010
0000
,
0010
0000
0010
0000
,
0010
0000
0010
0000
,
1001
0000
0000
0000
,
0010
0000
0010
0000
,
0010
0000
0010
0000
,
0010
0000
0010
0000
,
1001
0000
0000
0000
,
0010
0000
0010
0000
,
0010
0000
0010
0000
,
1000
0000
1000
0000
,
1000
0000
1000
0000
,
0010
0000
0010
0000
,
0010
0000
0010
0000
,
0100
0000
0100
0000
,
0100
0000
0100
0000
,
0001
0000
0000
0000
,
1000
0000
0000
0000
,
0100
0000
0000
0000
,
0010
0000
0000
0000
,
1001
0000
0000
0000
;

//---------------dance-single - ----------------
#NOTES:
     dance-single:
     :
     Easy:
     6:
     0.276174,0.362917,0.351494,0.017575,0.000000,220.000000,180.000000,40.000000,2.000000,0.000000,0.000000,0.276174,0.362917,0.351494,0.017575,0.000000,220.000000,180.000000,40.000000,2.000000,0.000000,0.000000:
0000
0000
0000
0000
,
0000
0000
0000
0000
,
0000
0000
0000
0000
,
0000
0000
0000
0010
,
0010
0010
0010
0010
,
0010
0010
0010
1000
,
1000
1000
1000
1000
,
1000
1000
1000
0010
,
0010
0010
0010
0010
,
0010
0010
0010
0100
,
0100
0100
0100
0100
,
0100
0100
0100
0000
,
0001
0000
0110
0100
,
1000
0000
1010
0010
,
0100
0000
0101
0001
,
1000
0000
1010
0001
,
0010
0000
0110
1000
,
0001
0000
1010
0001
,
0100
0000
0110
0001
,
1000
0000
0011
0000
,
1010
0000
0101
1000
,
0001
0000
1100
0001
,
1000
0000
0011
1000
,
0001
0000
1010
0001
,
1000
0000
0110
0001
,
1000
0000
0011
0100
,
1000
0000
0110
0100
,
2001
0000
0100
3100
,
1001
0000
0100
0010
,
1010
0000
0010
1000
,
1001
0000
1000
0001
,
0011
0000
0001
1000
,
1010
0000
0010
0100
,
0101
0000
0001
1000
,
1010
0000
1000
0001
,
0011
0000
0001
1000
,
0010
0010
0010
0010
,
0010
0010
0010
0010
,
0010
0010
0010
0110
,
0110
0000
0000
0001
,
0010
0010
0010
0010
,
0010
0010
0010
0100
,
1000
0000
0010
0110
,
0101
0000
1001
1000
,
0010
0010
0010
0010
,
0010
0010
0010
0110
,
0100
0110
0100
0110
,
0100
0110
0100
0110
,
0010
0010
0010
0010
,
0010
0010
0010
1001
,
1000
1001
1000
1001
,
1000
1001
1000
1001
,
0001
0100
0010
1000
,
1000
0100
0010
0001
,
0001
1000
0010
0100
,
0100
0001
0010
0100
,
0200
0000
0000
0000
,
0000
0000
0000
0000
,
0000
0000
0000
0000
,
0300
0000
0000
0000
;

//---------------dance-single - ----------------
#NOTES:
     dance-single:
     :
     Medium:
     8:
     0.397941,0.440685,0.606327,0.043937,0.000000,317.000000,248.000000,69.000000,5.000000,0.000000,0.000000,0.397941,0.440685,0.606327,0.043937,0.000000,317.000000,248.000000,69.000000,5.000000,0.000000,0.000000:
0000
0000
0000
0000
,
0000
0000
0000
0000
,
0000
0000
0000
0000
,
0000
0000
0000
0000
0000
0000
1000
0001
,
0010
0000
0001
1000
0010
0000
1000
0000
,
1000
1000
0010
1010
,
1010
0101
0101
1010
,
1010
0000
0101
0000
0101
0000
0001
1000
,
0010
0000
1000
0001
0010
0000
0001
0000
,
0001
0001
0010
0011
,
0011
1100
1100
0011
,
0011
1100
2100
3001
,
1000
0000
0001
0000
1010
0000
0001
0100
,
0010
0000
0100
0000
0011
0000
0001
0100
,
0010
0000
0100
0000
1001
0000
1000
0100
,
0010
0000
0100
0000
1100
0000
1000
0010
,
0100
0000
0010
0000
1001
0000
0001
0010
,
0100
0000
0010
0000
1001
0000
0001
1000
,
0010
0000
0100
0000
0101
0000
0001
0010
,
0200
0000
0000
0300
,
1000
0001
0011
0001
,
1000
0010
1010
0100
,
0001
0010
0011
0100
,
1000
0010
1010
0100
,
0001
0000
1000
0100
1100
0000
1000
0000
,
0001
0000
0010
0001
0011
0000
0001
1000
,
0010
0000
0010
1000
0001
0000
0001
1000
,
0200
0000
0300
0000
1000
0001
1000
0001
,
0110
0000
0000
0000
0001
1000
0001
1000
,
0110
0000
0000
0000
0100
0001
0100
0001
,
0011
0000
0000
0000
0100
1000
0100
1000
,
1010
0000
0000
0000
0010
1000
0100
0010
,
0011
0000
0000
0000
0010
0001
0100
0010
,
1010
0000
0000
0000
1000
0001
0010
0001
,
1100
0000
0000
0000
0001
1000
0010
1000
,
0101
0000
0000
0000
0001
0000
1000
0010
,
0010
0000
1000
0010
0010
0000
0100
0010
,
0010
0000
0100
0010
0010
0000
0001
0010
,
0010
0000
0100
0010
0010
0000
1010
0000
,
0101
0000
1010
0000
0101
0000
0001
0010
,
0010
0000
0100
0010
0010
0000
1000
0010
,
0010
0000
0100
0010
0010
0000
0001
0000
,
1001
0000
1100
1010
,
0101
0000
0011
0000
1001
0000
1000
0001
,
0010
0000
0001
1000
0010
0000
1000
0001
,
0010
0010
0010
0011
,
1100
0011
1100
0011
,
1100
0000
0011
0000
1100
0000
0001
1000
,
0010
0000
1000
0001
0010
0000
0001
1000
,
0010
0010
0010
1010
,
0101
1010
0101
1010
,
0101
1010
0101
0000
,
0001
0000
1000
0000
0100
0000
1001
1000
,
0001
0000
1001
0001
1000
0000
0010
0000
,
1000
0000
0001
0000
0100
0000
1001
0001
,
1000
0000
1001
1000
0001
0000
1100
0000
,
2002
0000
0000
0000
,
0000
0000
0000
0000
,
0000
0000
0000
0000
,
3003
0000
0000
0000
;

//---------------dance-single - ----------------
#NOTES:
     dance-single:
     :
     Hard:
     10:
     0.488325,0.518453,0.905097,0.043937,0.008787,389.000000,286.000000,103.000000,5.000000,0.000000,0.000000,0.488325,0.518453,0.905097,0.043937,0.008787,389.000000,286.000000,103.000000,5.000000,0.000000,0.000000:
// measure 0
0000
0000
0000
0000
,  // measure 1
0000
0000
0000
0000
,  // measure 2
0000
0000
0000
0000
,  // measure 3
0000
0000
0000
0000
0000
0000
1000
0001
,  // measure 4
0011
0000
0001
1000
1010
0000
1000
0001
,  // measure 5
1000
0001
1000
0001
1010
0000
0011
0000
,  // measure 6
0011
1100
1100
1010
,  // measure 7
1010
0000
0101
0000
0101
0000
0001
1000
,  // measure 8
1010
0000
1000
0001
0011
0000
0001
1000
,  // measure 9
0001
1000
0001
1000
0011
0000
1010
0000
,  // measure 10
1010
0101
0101
0011
,  // measure 11
0011
1100
2100
3001
,  // measure 12
1000
0000
0001
1000
1010
0000
1000
0000
,  // measure 13
0001
0000
1000
0001
0011
0000
0001
0000
,  // measure 14
1000
0000
0001
1000
1100
0000
1000
0000
,  // measure 15
0001
0000
1000
0001
0101
0000
0001
0000
,  // measure 16
1000
0000
0100
1000
1001
0000
1000
0000
,  // measure 17
0001
0000
0100
0001
1001
0000
0001
0000
,  // measure 18
0010
0000
0001
0010
1100
0000
1000
0000
,  // measure 19
2010
0000
0000
0100
0000
0001
0001
3001
,  // measure 20
1000
0001
0100
0010
1010
0000
0010
0000
,  // measure 21
0100
0001
0010
0100
0011
0000
1000
0000
,  // measure 22
0001
0100
0010
0100
1001
0000
1000
0000
,  // measure 23
0010
0100
0001
0010
1100
0000
0001
0000
,  // measure 24
1000
0010
0100
0100
0101
0000
0001
0000
,  // measure 25
0001
0010
0100
0100
1100
0000
1000
0001
,  // measure 26
0100
0000
0001
1000
0100
0000
0110
0010
,  // measure 27
2001
0000
0000
0000
3100
1000
0100
1000
,  // measure 28
1001
0000
1001
0000
0001
0100
0001
0100
,  // measure 29
1001
0000
1001
0000
0001
1000
0010
1000
,  // measure 30
1010
0000
1010
0000
1000
0001
0010
0001
,  // measure 31
0011
0000
0011
0000
0001
1000
0010
0100
,  // measure 32
0101
0000
1010
0000
0001
0010
0100
1000
,  // measure 33
1100
0000
0011
0000
1000
0001
0100
0010
,  // measure 34
0110
0000
1001
0000
0001
0010
0100
1000
,  // measure 35
1010
0000
0000
0000
0101
0000
0000
0000
0001
0010
0001
0010
0001
0000
1000
0000
,  // measure 36
1010
0000
1000
0001
0011
0000
0001
1000
,  // measure 37
1010
0000
1000
0001
0011
0000
0001
1000
,  // measure 38
1010
0000
1000
0001
0011
0000
1010
0000
,  // measure 39
0011
0000
1010
0000
0011
0000
0100
1000
,  // measure 40
1010
0000
0100
0001
0011
0000
0100
1000
,  // measure 41
1010
0000
0100
0001
0011
0100
1000
0001
,  // measure 42
0101
0000
1010
0101
,  // measure 43
0011
0000
1100
0000
0110
0000
1000
0001
,  // measure 44
0011
0000
0001
1000
1010
0000
1000
0001
,  // measure 45
0010
0001
1000
0001
0011
0000
1010
0000
,  // measure 46
0101
0101
1010
1100
,  // measure 47
0011
0000
0011
0000
1100
0000
0001
0100
,  // measure 48
1010
0000
1000
0100
0011
0000
0001
0100
,  // measure 49
0010
1000
0100
0010
0011
0000
1010
0000
,  // measure 50
1010
0101
0101
0011
,  // measure 51
0011
1100
1100
1001
,  // measure 52
1000
0000
0001
0000
0010
0000
1001
0001
,  // measure 53
1000
0000
1001
1000
0001
0000
0100
0000
,  // measure 54
0010
0000
1000
0000
0001
0000
1100
0001
,  // measure 55
1000
0000
0011
1000
0001
0000
0110
0000
,  // measure 56
2002
0000
0000
0000
,  // measure 57
0000
0000
0000
0000
,  // measure 58
0000
0000
0000
0000
,  // measure 59
3003
0000
0000
0000
;
