#VERSION:0.83;
#TITLE:Jack-the-Ripper◆;
#SUBTITLE:;
#ARTIST:有形ランペイジ;
#TITLETRANSLIT:;
#SUBTITLETRANSLIT:;
#ARTISTTRANSLIT:;
#GENRE:;
#CREDIT:;
#MUSIC:Jack-The-Ripper.ogg;
#BANNER:Jack-The-Ripper.png;
#BACKGROUND:Jack-The-Ripper-bg.png;
#CDTITLE:;
#SAMPLESTART:63.570;
#SAMPLELENGTH:15.000;
#SELECTABLE:YES;
#OFFSET:1.144;
#BPMS:0.000=210.000
,48.000=70.000
,51.000=140.000
,52.000=210.000
,100.000=105.000
,133.000=140.000
,134.000=210.000
,186.500=228.000
,226.500=114.000
,232.500=228.000
,246.000=120.000
,312.000=114.000
,315.750=92.000
,317.000=250.000
,322.000=228.000
,323.000=240.000
,575.000=70.000
,578.000=140.000
,579.000=210.000
;
#STOPS:;
#SPEEDS:0.000=1.000=0.000=0;
#SCROLLS:0.000=1.000;
#TICKCOUNTS:0.000=4;
#TIMESIGNATURES:0.000=4=4;
#LABELS:0.000=Song Start;
#COMBOS:0.000=1;
#ORIGIN:;
#PREVIEWVID:;
#JACKET:;
#CDIMAGE:;
#DISCIMAGE:;
#BGCHANGES:1.750=Jack-The-Ripper.avi=1.000=0=0=0=StretchNoLoop====,
99999.000=-nosongbg-=1.000=0=0=0=StretchNoLoop====
;
#FGCHANGES:;

//--------------- dance-single - Talkion ----------------
#NOTEDATA:;
#STEPSTYPE:dance-single;
#DESCRIPTION:Talkion;
#DIFFICULTY:Beginner;
#METER:7;
#RADARVALUES:0,0,0,0,0;
#NOTES:
0000
0000
0000
0000
,
0000
0000
0000
0000
,
0000
0000
0000
0000
,
0000
0000
0000
0000
,
0000
0000
0000
0000
,
0000
0000
0000
0000
,
0000
0000
0000
0000
0001
0000
0000
0001
,
0000
0001
0000
1000
,
0000
1000
0000
0000
1000
0000
0000
0000
,
0001
0000
0000
0001
0000
0000
0001
0000
,
0000
0000
1000
0000
0000
0010
0000
0000
,
0100
0000
0000
0001
0000
0000
1000
0000
,
0002
2003
3002
1003
,
2002
0000
0000
0000
,
3003
0000
0001
0000
0000
0100
0000
0000
,
0001
0000
0000
0000
1000
0000
0000
0100
,
0000
1000
0000
0002
,
0003
0200
0300
0020
,
0030
0000
1000
0000
0000
0010
0000
0000
,
1000
0000
0000
0000
0001
0000
0000
0010
,
0000
0001
0000
1000
,
0000
0010
0000
0000
1000
0000
0000
0000
,
0002
0003
0020
0030
,
0200
0000
0300
0000
1000
0000
0000
1000
,
0000
0000
1000
0000
0000
1000
0000
0000
,
0002
0000
0000
0103
0000
0000
2000
0000
,
0000
3100
0000
0000
0002
0000
0000
0013
,
0000
0000
2000
0000
0000
3010
0000
0000
,
0002
0000
0000
0103
0000
0000
2000
0000
,
0000
3100
0000
0000
0002
0000
0000
0013
,
0000
0000
2000
0000
0000
3010
0000
0000
,
0001
0000
0000
1000
0000
0000
0001
0000
,
0000
1000
0000
0000
0010
0000
0000
0100
,
0000
0010
2002
0000
,
0000
0000
3003
1000
,
0000
0100
0000
0000
1000
0000
1000
0000
,
0001
0000
0000
0100
0000
0000
0001
0000
,
0001
0000
1000
0000
0000
0100
0000
0000
,
0010
0000
0000
0001
0000
0000
1000
0000
,
0000
0010
0000
0000
1000
0000
1000
0000
,
0001
0000
0000
0010
0000
0000
0001
0000
,
0001
0000
1000
0000
0000
0010
0000
0000
,
1000
0000
1000
0000
0001
0000
0000
0010
,
0000
0000
0100
0000
0000
1000
0000
0000
,
0001
0000
0000
0001
0000
0000
0001
0000
,
0000
0001
0000
0000
0001
0000
0000
0001
,
0000
0000
0001
0000
0000
0100
0000
0000
,
0100
0000
0000
0010
0000
0000
0000
1000
,
0000
0000
1000
0000
0000
0001
0000
0000
,
0000
0010
0000
0000
0010
0000
0000
0001
,
0000
0000
0000
2000
0000
0000
0000
0001
,
0000
3001
0000
0000
0000
0010
0000
0000
,
0010
0000
0000
0100
0000
0000
0000
1000
,
0000
0000
1000
0000
0000
0001
0000
0000
,
0000
0100
0000
0000
0100
0000
0000
0001
,
0000
0000
0000
2000
0000
0000
0000
0001
,
0000
3001
0000
0000
0000
1000
0000
0000
,
0001
0000
0000
1000
0000
0000
0001
0000
,
0000
1000
0000
1000
0000
0000
0000
0001
,
0000
0001
0000
0000
0000
1001
0000
0000
,
0000
0000
0000
0000
,
0000
0000
2000
0000
,
0000
0000
0000
0000
,
0000
0000
3002
0000
,
0203
0000
0320
0000
,
0000
0000
0030
0000
,
2000
0000
3002
0000
,
0023
0000
0000
0000
,
0230
0000
1300
0000
,
0001
0000
1001
0000
,
0100
0000
1001
0000
,
0010
0000
1001
0000
,
0100
0000
1001
0000
,
0010
0000
1000
0000
,
0200
0300
0001
0000
,
0100
0000
1000
0000
,
0020
0030
0001
0000
,
0020
0000
0000
0000
,
0030
0000
0000
0000
,
0000
0000
0000
0000
,
0000
0000
0000
0001
,
0000
0000
0000
0000
0100
0000
0000
0100
,
0000
0010
0000
1000
,
0001
0000
1000
0100
,
0000
0000
1000
0000
0001
0000
0000
0001
,
0000
0100
0000
0010
,
1000
1000
0000
0001
,
0000
0000
0000
0000
0010
0000
0000
0010
,
0000
0100
0000
1000
,
0001
0000
1000
0010
,
0000
0010
0000
0000
0100
0000
0000
0100
,
0000
0001
1000
0001
,
1000
0001
1000
0001
,
0000
0000
0100
0000
,
0000
0001
0000
0000
,
0010
0000
0000
0001
,
0000
0000
0100
0000
,
0000
0001
0000
0000
,
0010
0000
0000
0100
,
0000
0000
1000
0000
,
0000
0010
0000
0000
,
1000
0000
0000
0100
,
0000
0000
1000
0000
,
0000
0010
0000
0000
,
0100
0100
0000
0001
,
0000
0001
0000
0000
0001
0000
0000
0000
,
0000
0000
1000
0000
0000
1000
0000
0000
,
1000
0000
0000
0001
,
0000
1000
0000
0000
0001
0000
0000
1000
,
0000
0000
0001
0000
0000
0100
0000
0000
,
0010
0010
0000
1000
,
0000
0100
0000
0000
0010
0000
0000
0000
,
0000
0000
0001
0000
0000
0010
0000
0000
,
0100
0000
0000
1000
,
0000
0001
0000
0000
1000
0000
0000
0001
,
0000
0000
1000
0000
0000
0001
0000
0000
,
1000
0000
0000
0001
0000
0000
0200
0000
,
0000
0000
0320
0000
,
0000
0230
0000
0000
,
0310
0000
0000
2000
,
0000
0000
3002
0000
,
0000
2003
0000
0000
,
0001
3001
0000
0200
,
0000
0000
0320
0000
,
0000
0230
0000
0000
,
0310
0000
0000
2000
,
0000
0000
0000
0000
3001
0000
0000
1000
,
0000
0000
0010
0000
0000
0100
0000
0000
,
0010
0000
0000
0100
0000
0000
0002
0000
,
0000
0000
2003
0000
,
0000
3100
0000
1000
,
0001
0000
0000
0200
,
0000
0000
0320
0000
,
0000
1030
0000
0010
,
0100
0100
0000
0002
,
0000
0000
0000
0000
1003
0000
0000
0100
,
0000
0000
1000
0000
0000
0100
0000
0000
,
1000
0000
0000
0001
0000
0000
0100
0000
,
0000
0010
0000
0000
1000
0000
0000
0001
,
0000
0000
0010
0000
0000
0100
0000
0000
,
1000
0000
0000
0010
0000
0000
0100
0000
,
0000
0001
0000
0000
0010
0000
0000
0100
,
0000
0000
0000
0000
,
0000
0000
0000
2000
,
3002
2003
3001
1001
,
0000
0000
0000
0000
,
1001
0000
0000
0000
,
0000
1001
0000
0001
,
0001
0000
1001
0000
,
0110
0000
1001
0000
,
1000
0000
1000
0000
,
1000
0001
0001
0001
,
0100
0000
0001
0000
1000
0000
0000
1000
,
0000
1000
0000
0001
,
0000
0001
0000
0000
0001
0000
0010
0000
,
0001
1000
1000
0001
,
1000
0000
0001
0001
,
1000
0000
0000
0001
0000
0000
1000
0000
,
1000
0001
1000
0000
,
0001
0000
0000
0100
0000
0000
0010
0000
,
0000
1000
0000
0000
0001
0000
0010
0000
,
0001
0010
0001
1000
,
0010
1000
0010
1000
,
0001
0010
0001
0010
,
0001
0000
1000
0000
0000
0010
0000
0000
,
0100
0000
0000
0001
0000
0000
1000
0000
,
0000
0001
0000
0000
1000
0000
0000
0001
,
0000
0000
1000
0000
0000
0001
0000
0000
,
2000
0000
0000
0000
,
0000
0000
3020
0000
,
0000
0000
0000
0000
,
0000
0000
0000
0000
,
0000
0000
0000
0000
,
0000
0000
0000
0000
,
0030
0000
0000
0000
;

//--------------- dance-single - Talkion ----------------
#NOTEDATA:;
#STEPSTYPE:dance-single;
#DESCRIPTION:Talkion;
#DIFFICULTY:Easy;
#METER:11;
#RADARVALUES:0,0,0,0,0;
#NOTES:
0000
0000
0000
0000
,
0000
0000
0000
0000
,
0000
0000
0000
0000
,
0000
0000
0000
0000
,
0000
0000
0000
0000
,
0000
0000
0000
0000
,
0000
0000
0000
0000
0001
0000
0000
0100
,
0000
0010
1000
0001
,
0000
0010
0000
0000
0100
0000
1000
0000
,
0001
0000
0000
0100
0000
0000
1000
0000
,
0100
0000
0001
0000
0000
1000
0000
0000
,
0100
0010
0001
1000
,
0020
0230
0302
1003
,
2001
0000
0000
0100
0000
0000
3001
0000
,
1000
0000
0020
0000
0000
1000
0000
0000
,
0130
0000
0001
0000
0020
0000
0000
0001
,
0000
0130
1000
0001
,
0000
0100
0000
0000
0010
0000
0100
0000
,
0001
0000
2000
0000
0000
0010
0000
0000
,
3001
0000
1000
0000
0200
0000
0000
1000
,
0000
0310
0001
0200
,
0000
0001
0000
0000
0310
0000
1000
0000
,
0001
0000
0000
0010
0001
0000
1000
0000
,
0010
0000
0100
0000
0101
0000
0000
1100
,
0000
0000
0101
0000
0000
1100
0000
0000
,
1002
0000
0000
0000
0000
0000
0103
0000
0000
0000
0100
0000
0010
0000
0000
0010
,
0000
0000
1000
0000
0000
0000
0000
0000
0001
0000
0000
0001
0000
0000
1000
0000
,
0000
1000
0000
0000
0100
0000
0000
0100
0000
0000
0010
0000
0000
0000
0000
0000
,
0001
0000
0000
0001
0000
0000
1000
0000
0000
0000
0010
0000
0100
0000
0000
0100
,
0000
0000
0001
0000
0001
0000
0000
0000
1000
0000
0000
1000
0000
0000
0100
0000
,
0000
0000
0010
0000
0001
0000
0000
0001
0000
0000
1000
0000
0010
0000
0100
0000
,
0002
0000
0000
2003
0000
0000
3200
0000
,
0000
0320
0000
0000
0031
0010
0100
1000
,
0010
0000
0000
0100
0000
0000
0001
0000
0000
0000
1000
0000
0200
0000
0000
0000
0000
0000
0000
0000
0000
1000
0000
0000
,
0000
0310
0011
0002
,
0000
0010
0000
0000
1003
0000
1010
0000
,
0020
0000
0000
1000
0000
0000
0130
0000
,
0101
0000
0001
0000
0000
1000
0100
1000
,
0001
1000
0001
0201
,
0000
0001
0000
0000
0310
0000
1010
0000
,
2000
0000
0000
0010
0000
0000
3001
0000
,
0011
0000
0020
0000
0000
0001
0000
0000
,
0130
0000
1100
0000
1000
0000
0000
0001
,
0100
0001
1000
0000
0100
0000
0010
0000
,
0011
0000
0000
1010
0000
0000
0011
0000
,
0000
1010
0000
0000
1001
0000
0000
0110
,
0000
0000
1001
0000
0000
1000
0000
0100
,
0000
0010
0000
0100
0000
0001
0000
2000
,
0000
0000
0000
3010
0000
0001
0000
1000
,
0000
0010
0000
0100
0000
1000
0000
0100
,
0000
0010
0000
2000
0000
0000
0000
3001
,
1000
0001
1000
0001
0000
1000
0000
0010
,
0000
0100
0000
0010
0000
0001
0000
2000
,
0000
0000
0000
3100
0000
0001
0000
1000
,
0000
0100
0000
0010
0000
1000
0000
0010
,
0000
0100
0000
2000
0000
0000
0000
3001
,
1000
0001
1000
0001
0000
0200
0000
0310
,
2000
0000
0000
0000
3001
0000
0010
0000
0000
0010
0000
0000
0200
0000
0000
0000
,
1300
0001
0000
0100
0010
0100
0000
0001
,
0000
1000
0100
1000
0000
1001
0000
0000
,
0000
0000
0000
0000
,
0000
0000
0201
0000
,
0000
0010
0010
0310
,
2000
0000
3002
0010
,
0023
0100
0230
0000
,
2300
0100
3002
0000
,
0100
0100
1003
0100
,
0001
0100
2000
0000
,
3020
0000
0100
0100
,
0130
0001
1001
1000
,
0100
0000
1001
0001
,
0100
0000
1001
1000
,
0010
0000
1001
0001
,
0010
0000
0000
0010
0000
0000
0010
0000
0100
0000
0000
0000
1000
0000
0000
0000
,
0002
0000
0103
0010
,
1000
0001
0010
0200
,
1000
0000
1300
0001
,
0200
0000
0000
0000
,
0300
0000
0000
0000
,
0000
0000
0000
0000
,
0000
0000
0000
0100
,
0001
1000
0100
1000
,
0001
0000
0100
0000
0000
0100
0000
0000
,
0010
0001
0010
1000
,
0001
0010
1000
0010
,
0001
0000
0100
0000
0000
0100
0000
0000
,
0010
1000
0001
0010
,
0001
1000
0010
1000
,
0001
0000
0010
0000
0000
0010
0000
0000
,
0100
0001
0100
1000
,
0001
0100
1000
0100
,
0001
1000
1000
1000
,
0001
0010
0100
1000
,
0000
0001
0000
0000
0100
0000
0000
0000
,
0000
0000
0001
0000
0000
1000
0000
0000
,
0100
0000
0000
1000
,
0000
0001
0000
0000
0010
0000
0000
0001
,
0000
0000
1000
0000
0000
0010
0000
0100
,
0001
0000
0000
0100
0001
0000
1000
0000
,
0000
0100
0000
0000
0010
0000
0000
0010
,
0000
0000
0001
0000
0000
1000
0000
0000
,
0010
0000
0000
0100
0000
0000
0001
0000
,
0000
0001
0000
0000
1000
0000
0000
1000
,
0000
0000
0100
0010
0000
0010
0000
0001
,
1000
0010
1000
0010
1000
0000
0001
0000
,
0000
0010
0000
0000
0100
0000
0000
1000
,
0000
0001
0100
0010
,
1000
0001
0010
0200
,
0000
2300
0000
0000
3020
0000
0000
0032
,
0000
0000
2003
0000
0000
3200
0000
0000
,
0301
1000
0100
0010
,
0000
0001
0000
0000
1000
0000
0010
0000
,
0100
0000
0001
1000
0000
0010
0000
1000
,
0001
0010
0100
2000
,
0000
3020
0000
0000
0032
0000
0000
0023
,
0000
0000
1030
0000
0001
1000
0100
0000
,
1000
0100
1000
0100
1000
0000
0002
0000
,
0000
0100
2003
0000
,
0100
3001
1000
0010
,
0001
0010
1000
0200
,
0000
0310
0002
0000
,
1003
0001
0100
0010
,
1000
0001
1000
0001
1000
0000
0200
0000
,
0000
0001
0000
0000
0320
0000
0000
0000
,
0130
0001
1000
0010
,
0001
0010
1000
0100
,
0000
0110
0000
0000
0010
0000
0001
0000
,
1000
0000
0001
0000
0100
0001
0000
0000
,
1000
0000
0100
1000
0000
0000
1002
0000
,
0000
0100
2003
0000
,
0010
3001
1000
0100
,
0001
1000
0010
0002
,
0000
0010
0000
0000
0203
0000
0000
0000
,
0001
0310
1000
0001
,
0010
0100
0010
0100
0010
0000
0001
0000
,
0000
1000
0000
0000
0010
0000
0000
0110
,
0000
0100
0001
1000
,
0100
0001
1000
0010
,
0000
0011
0000
0000
0001
0000
0000
1001
,
0000
0000
1000
0000
0010
0100
0000
0000
,
0001
0000
0010
0100
0000
0000
1000
0000
,
0010
0001
0010
0000
1000
0000
0100
0001
,
0100
2000
0000
0000
,
0000
0000
0000
3002
,
0203
0320
1030
1001
,
0000
0000
0001
0000
0000
0010
0010
0000
,
1001
0000
0000
0000
1000
0010
1000
0000
,
0001
0010
0001
0000
0000
0000
0100
0000
,
0100
0010
1000
0001
0010
0000
0000
0010
,
0001
0000
1000
0010
0100
0001
1000
0010
,
0100
0000
0010
1000
0001
0000
0010
0001
,
1000
0001
0100
0000
0110
0000
0110
0000
,
1000
0000
0000
0000
1000
0000
0001
0000
0000
0000
0001
0000
1000
0000
0000
0000
0000
0000
0000
0000
0000
0100
0000
0000
,
0000
1000
1000
0001
,
0000
0100
0000
0000
0001
0000
1000
0000
,
0100
0000
0010
0001
0010
0001
0010
0001
,
0010
0001
0010
0000
0001
0000
1001
0000
,
1000
0010
0000
1000
0010
0000
0100
0000
,
0010
0000
0010
0000
1000
0001
0010
0001
,
1000
0001
0100
0001
,
1000
0000
0100
0000
0010
0001
1000
0001
,
0100
0001
1000
0001
0010
0000
0001
1000
,
0100
1000
0001
0000
1000
0001
0100
0000
,
0001
1000
0100
0000
1100
0000
1000
0010
,
0100
0001
1000
0000
0001
0010
0100
0000
,
1000
0010
0100
0000
0001
1000
0100
0000
,
0000
0011
0000
0000
1100
0000
0000
0011
,
0000
0000
1001
0000
0000
0110
0000
0000
,
0001
0010
0001
0000
0100
0000
1000
0100
,
0001
0010
0100
0000
1000
0002
0000
0000
,
0000
0000
0000
0000
,
0000
0000
0000
0000
,
0000
0000
0000
0000
,
0000
0000
0000
0000
,
0003
0000
0000
0000
;

//--------------- dance-single - Talkion ----------------
#NOTEDATA:;
#STEPSTYPE:dance-single;
#DESCRIPTION:Talkion;
#DIFFICULTY:Medium;
#METER:14;
#RADARVALUES:0,0,0,0,0;
#NOTES:
0000
0000
0000
0000
,
0000
0000
0000
0000
,
0000
0000
0000
0000
,
0000
0000
0000
0000
,
0000
0000
0000
0000
,
0000
0000
0000
0000
,
0000
0000
0000
0000
0002
0000
0000
0100
,
0000
1000
0013
2000
,
0000
0100
0000
0000
0001
0000
3010
0000
,
0002
0000
0000
0100
0000
0000
1000
0000
,
0013
0000
1000
0000
0001
0100
0000
1000
,
0100
0000
0001
1000
0000
0100
0010
0001
,
0200
0000
0310
2000
0000
3001
0020
0000
0130
1001
0000
0000
,
1002
0000
0000
0100
0000
0000
1003
0001
,
0010
0100
2000
0000
0000
0100
0000
0000
,
3001
1000
0010
0100
0002
0000
0000
0100
,
0000
0000
1003
0001
0010
0100
2000
0000
,
3001
1000
0020
0000
0031
0010
2000
0000
,
3001
1000
0200
0000
0000
0010
0000
0000
,
1300
0010
0100
0001
0020
0000
0000
0100
,
0000
0000
0031
0100
0010
1000
0200
0000
,
0000
0010
0000
0000
1300
0010
0100
0001
,
0020
0000
0031
1000
0200
0000
0301
0100
,
2000
0000
3001
1000
0010
0101
0000
0010
,
0101
0000
0100
1010
0000
0100
1010
0000
,
1001
0001
0010
0100
0010
0001
0200
0000
,
0310
1000
0001
0010
0100
0010
0001
1000
,
0020
0000
0130
0000
0002
0000
0000
0000
1003
0000
0100
0000
0010
0000
0001
1000
,
0010
0100
0010
1000
0001
0010
0200
0000
,
1300
0001
0100
0010
1000
0100
0010
0100
,
2000
0000
3001
0000
0200
0000
0000
0000
0310
0000
1000
0000
0001
0010
0100
1000
,
0002
0000
0000
0203
0000
0000
2300
0000
,
0000
3200
0000
0000
0301
1000
0100
0001
,
0100
0000
0000
0010
0000
0000
0001
0000
0000
0000
1000
0000
1020
0000
0000
0000
0000
0000
0000
0000
0000
0100
0000
0000
,
0000
0000
1030
0010
0100
0001
0021
0000
,
0000
0100
0000
0000
0031
0010
0100
1000
,
1020
0000
0000
0100
0000
0000
1030
0010
,
0100
0001
0010
0100
1000
0010
0100
0001
,
0010
0100
0001
0100
0010
0001
2001
0000
,
0000
0010
0000
0000
3100
0010
0100
1000
,
1002
0000
0000
0100
0000
0000
0013
0100
,
0010
0001
2001
0000
0000
0010
0000
0000
,
3100
0010
0100
1000
1001
0000
0001
0100
,
0010
0001
0010
0100
0001
0010
0100
1000
,
0001
0110
0000
0001
0110
0000
1000
0110
,
0000
1000
0110
0000
0010
1001
0000
0100
,
1001
0000
0010
1001
0000
1100
0000
1000
,
0001
0200
0000
1000
0000
0310
0000
0100
,
0000
0001
1000
0200
0000
0001
0000
0310
,
0000
0001
0000
1000
0010
0200
0000
0001
,
0000
0310
0000
1000
0000
0001
0010
0100
,
0010
0001
1000
1001
0000
1000
0000
0001
,
1000
0020
0000
0001
0000
0130
0000
0001
,
0000
1000
0001
0020
0000
1000
0000
0130
,
0000
1000
0000
0001
0100
0020
0000
1000
,
0000
0130
0000
0001
0000
1000
0100
0010
,
0100
1000
0001
1001
0000
0001
0100
0010
,
1000
0100
0010
0100
1000
0010
0100
0001
,
0010
0100
0000
1000
0001
0100
0000
0010
,
0001
0000
0000
0000
0000
0000
0000
0000
0000
0000
0000
0000
0010
0000
0000
0000
0000
0000
0000
0000
0000
0000
0000
0000
0100
0000
0000
0000
0000
0000
0000
0000
0000
0000
0000
0000
0001
0000
0000
0000
0000
0000
0000
0000
0000
0000
0000
0000
0000
0000
0000
0000
0000
0000
0000
0000
0000
0000
0000
0000
1000
0000
0000
0000
0000
0000
0000
0000
0000
0000
0000
0000
0000
0000
0000
0000
0000
0000
0000
0000
0000
0000
0000
0100
0000
0000
0000
0000
0000
0000
0000
0000
0000
0000
0000
0000
,
0000
0000
0000
0000
0000
0000
0000
0000
0000
0000
0010
0000
0000
0000
0000
0000
0000
0000
0000
0000
0000
0000
0000
0000
0000
0000
0000
0000
0000
0000
0000
0000
0000
0001
0000
0000
0000
0000
0000
0000
0000
0000
0000
0000
0000
0000
0000
0000
0000
0000
0000
0000
0000
0000
1000
0000
0000
0000
0000
0000
0000
0000
0000
0000
0000
0000
0000
0000
0000
0000
0000
0000
0010
0000
0000
0000
0000
0000
0000
0000
0000
0000
0000
0000
0000
0000
0000
0000
0000
0000
0000
0100
0000
0000
0000
0000
,
0000
0000
0000
0000
0000
0000
0000
0001
0000
0000
0000
0000
0000
0000
0000
1000
0000
0000
0000
0000
0000
0000
0000
0000
1002
0000
0000
0000
0000
0000
0000
0000
0000
0000
0000
0000
0000
0000
0000
0000
0000
0000
0000
0000
0000
0000
0000
0000
,
0000
0000
0000
0000
0023
0000
0000
0000
0230
0000
0000
0010
0000
0000
0000
0000
,
0000
0000
1000
0000
0000
2300
0000
0000
3002
0000
0000
1000
0000
0000
0203
0000
,
0320
0000
0000
0100
0000
0000
1030
0001
0020
0000
0000
0000
0130
0000
2000
0000
,
0000
0000
3001
0100
0020
0000
0000
0000
1030
0000
0000
0000
0000
0000
0001
0000
,
2000
0000
0000
0000
0000
0000
0000
0000
0000
0100
0000
0000
0000
0000
0000
0000
0000
0000
3002
0000
0000
0000
0000
0000
0000
0000
0000
0000
0103
0000
0000
0000
0010
0000
0000
0000
1000
0000
0000
0000
0001
0000
0000
0000
0010
0000
0000
0000
,
0100
0000
0000
0000
0000
0000
0000
0000
0200
0000
0000
0000
0000
0000
0000
0000
0000
0000
0000
0000
0000
0000
0000
0000
0000
0000
0000
0000
0000
0000
1300
0000
0000
0001
0000
0000
0100
0000
0000
0000
0010
0000
0000
0000
1000
0000
0000
0000
,
0002
0000
0000
0000
0000
0000
0000
0000
0013
0001
1000
0000
0010
0000
0100
0000
,
0001
0000
1000
0100
0010
0001
2000
0000
0000
3010
0000
0000
,
1001
1000
0002
0013
,
1001
0001
2000
3100
,
1001
0000
0000
0000
1000
0000
0000
0000
0002
0000
0000
0000
0103
0000
0010
0100
,
0010
0000
0000
1010
0000
0000
1001
0000
0011
0000
0000
0001
1000
0000
0010
1000
,
0010
0000
0000
0010
1000
0000
0001
0000
1000
0000
0000
1000
0001
0000
0100
0001
,
0100
0000
0000
0100
0010
0000
1000
0000
1001
0000
0000
1000
0001
0000
0010
0001
,
0010
0000
0000
0010
0001
0000
1000
0000
0001
0000
0000
0001
1000
0000
0010
0000
,
0200
0000
0000
0302
0000
0000
2003
0000
0000
0000
0000
0000
0000
0000
0000
0000
,
0000
0000
0000
0000
,
0000
0000
3001
0100
0001
0100
0001
0100
,
0001
0100
0001
0100
0001
0100
0010
0000
,
1000
0001
1000
0001
0010
0000
0001
0100
,
0000
1000
0100
0000
0000
0100
0010
1000
,
0001
0000
1000
0100
1000
0000
0001
0000
,
0100
0010
0001
0000
0010
0000
0001
0010
,
0100
0000
0001
1000
0100
0010
0001
1000
,
0010
0100
0001
1000
1001
0000
0001
0000
,
0010
0001
0010
0001
1000
0000
0010
0001
,
0000
0010
1000
0000
0000
1000
0001
0010
,
0100
0000
1000
0001
1000
0000
0100
0000
,
0010
1000
0010
0000
0100
0000
1000
0001
,
0100
0010
2000
3000
0012
0003
2010
3000
,
0012
0003
1000
0010
0100
0001
2000
0000
,
0000
3100
0000
0100
0020
0000
0000
0000
,
0031
0000
0200
0000
0000
0310
0000
0010
,
2000
0000
3001
0020
,
0000
0130
0000
0100
2000
0000
0000
0000
,
3001
0000
0100
0000
0010
0100
0000
0100
,
0001
0000
1000
0100
0010
0000
0002
0000
,
0000
0103
0000
0100
0020
0000
0000
0000
,
1030
0000
0200
0000
0000
0310
0000
0010
,
0002
0000
1003
0010
,
0000
0100
0000
0000
0001
0000
0000
0001
,
0000
1000
0100
0010
0000
0010
0000
0010
,
0001
1000
0010
1000
1001
0000
0002
0000
,
0000
0013
0000
0010
0100
1000
0000
1000
,
0001
0000
0100
0010
0000
0010
1000
0001
,
0010
0100
0010
0001
1000
0000
0001
0100
,
0001
1000
0100
1000
0001
0100
0001
1000
,
0100
1000
0001
0000
1000
0010
0100
0010
,
1000
0001
0010
0001
1001
0000
1000
0000
,
0100
0010
0000
0010
0001
0000
1000
0000
,
0010
0000
0100
0010
0000
1001
0000
0010
,
0100
0000
0001
0000
1001
0000
1000
0010
,
1000
0001
0010
0001
1000
0010
1000
0001
,
0010
0001
1000
0000
0100
0001
0000
0100
,
1000
0000
0010
0001
0000
0010
2000
0000
,
0000
0100
3002
0000
,
0100
0000
1003
0000
0001
0010
1000
0000
,
0001
0100
0010
0002
,
0000
0100
2003
0000
,
0100
3001
1000
0010
,
0100
0010
1000
0001
1001
0000
1000
0000
,
0000
0100
0000
0100
0010
0000
0001
1000
,
0010
0000
0100
0000
0001
0100
0010
0000
,
1000
0001
0010
0100
,
0000
1100
0000
0000
1000
0000
0001
0000
,
0100
0000
0110
0000
0000
1001
0000
0000
,
0110
0000
0000
1001
0000
0000
0011
0000
,
0000
0001
1000
0001
1000
0010
0100
0001
,
1000
0000
0100
0000
0010
0100
1000
0000
,
0001
0100
0010
1000
,
0000
0001
1000
0001
1000
0100
0010
0001
,
1000
0000
0010
0100
0010
1000
0000
0000
,
0001
0010
0001
1000
1001
0000
0101
0000
,
0000
0100
0010
0100
0010
0000
1000
0001
,
0000
0010
0001
0000
1000
0001
0000
0100
,
0001
0100
0010
1000
0000
0000
1001
0000
,
0000
0110
0000
0000
1001
0000
0000
0110
,
0000
0000
0001
0000
0010
1000
0000
0001
,
0100
0000
0000
1100
0000
0000
0001
0100
,
1000
0100
0001
1000
0100
0010
0001
0100
,
0020
0030
0000
0000
,
0000
0000
0000
0000
0000
0000
0000
0000
0000
2000
0000
3100
,
0020
0000
0031
2000
0000
3010
0110
0000
0000
0110
0000
0000
,
0000
0000
0001
1000
0100
0010
0001
1000
,
1010
0000
0000
0010
0100
0001
0010
0100
,
1000
0001
0101
0000
0100
0010
1010
0000
,
1010
0010
0100
0001
1001
0000
1000
0100
,
0001
0000
0001
0100
1000
0001
0100
0010
,
1010
0000
1000
0100
0010
0000
0001
0100
,
0001
1000
1100
0000
0110
0000
0011
0000
,
0001
0000
1000
0000
0001
0000
1000
0000
0001
0000
1000
0000
0010
0000
0000
0000
0000
0000
0100
0000
0000
0101
0000
0000
,
0000
0001
1001
0000
1000
0100
0010
0000
,
0001
1001
0000
1000
1010
0000
0101
0000
,
1001
0000
1000
0100
0001
0100
0010
1000
,
0010
0001
1000
0100
0010
0001
1000
0010
,
0001
0010
0100
1000
0100
0001
1000
0100
,
0001
1000
0001
0100
1000
0001
0100
0010
,
1000
0100
0001
0100
1000
0010
0001
0010
,
1000
0100
0010
0001
1000
0010
0001
0010
,
0100
1000
0100
0001
1000
0010
0100
0001
,
1000
0100
0001
0100
0010
1000
0010
0001
,
1000
0010
0001
1000
0100
0001
1000
0010
,
0100
0010
1000
0001
0010
0100
1000
0010
,
0100
0001
0010
0100
1000
0001
0100
1010
,
0000
0100
1010
0000
0010
0101
0000
0010
,
0101
0000
1000
0110
0000
0001
0110
0000
,
1000
0100
0010
0001
0100
0010
0100
0001
,
0010
0100
1000
0010
0100
0002
0000
0000
,
0000
0000
0000
0000
,
0000
0000
0000
0000
,
0000
0000
0000
0000
,
0000
0000
0000
0000
,
0003
0000
0000
0000
;

//--------------- dance-single - Talkion & VanEden ----------------
#NOTEDATA:;
#STEPSTYPE:dance-single;
#DESCRIPTION:Talkion & VanEden;
#DIFFICULTY:Hard;
#METER:16;
#RADARVALUES:0,0,0,0,0;
#NOTES:
0000
0000
0000
0000
,
0000
0000
0000
0000
,
0000
0000
0000
0000
,
0000
0000
0000
0000
,
0000
0000
0000
0000
,
0000
0000
0000
0000
,
0000
0000
0000
0000
0001
0100
0010
0001
,
0100
0010
0001
0100
0010
1000
0001
0010
,
0100
0001
0010
0100
0001
0010
0100
1000
,
0001
0100
0010
0001
0100
0010
0001
0100
,
0010
1000
0001
0010
1000
0010
0001
1000
,
0010
0001
0010
1000
0001
0010
0100
1000
,
0002
0000
0103
0020
0000
1030
0002
0000
0013
0110
0000
0100
,
2001
0000
0000
0001
3010
0000
1000
0100
,
0010
0001
0200
0000
0000
0010
0301
0000
,
0010
0100
1000
0010
0200
0000
0000
0001
,
0310
0000
1000
0001
0010
0100
2000
0000
,
3010
0100
0102
0000
0013
0100
2100
0000
,
3010
0100
0102
0000
0000
0100
1003
0000
,
0001
0010
0100
1000
0020
0000
0000
0100
,
1030
0000
0100
0010
0001
0100
0020
0000
,
0000
1000
0130
0000
0001
1000
0100
0010
,
0002
0000
0103
0010
2010
0000
3100
0010
,
0012
0000
0103
0010
1010
1001
0000
0011
,
1001
0000
1100
1001
0000
0101
1001
0000
,
2100
0000
0001
0000
3010
0000
0200
0000
0001
0000
0310
0000
2000
0000
0000
0001
,
0000
3100
0020
0031
0200
0010
0301
2000
,
0100
0000
3001
0000
0200
0000
0000
1000
0000
0000
0310
0000
0100
0010
0100
0001
,
2000
0000
0001
0000
3100
0000
0020
0000
0001
0000
0130
0000
2000
0000
0000
0001
,
0000
3010
0200
0302
2003
0100
3001
0200
,
0010
0000
0301
0000
2000
0000
0000
0100
0000
0000
3001
0000
1000
0010
0100
0001
,
1000
0100
0001
0110
1000
0001
1000
0010
,
0001
0000
0110
0000
1000
0000
0001
0000
0021
0000
0130
0100
1000
0000
1020
0000
,
0130
0100
0001
0000
1001
0000
0000
1000
1200
0000
0000
0000
0000
0000
0001
0000
,
0000
0000
1300
0100
0010
0001
0201
0000
,
0000
0010
0000
0310
0100
0010
1000
0001
,
0021
0000
0000
1000
0000
0000
0031
0010
,
0100
1000
1020
0000
0000
0100
0130
0010
,
1000
0001
0010
0100
1000
0001
0201
0000
,
0000
0010
0000
0000
1300
0100
0001
0010
,
0200
0000
0000
0001
0000
0301
0100
0010
,
0001
1000
0020
0000
0000
0100
0000
0130
,
0010
0001
0010
1000
2001
0000
0000
0100
,
3100
0000
0010
0100
1000
0010
0100
0001
,
1001
1100
0000
1001
0101
0000
1001
1010
,
0000
1001
0011
0000
0110
1001
0000
0110
,
1001
0000
1100
0011
0000
2001
0000
3100
,
1000
0001
0000
0100
0100
0010
0000
2010
,
0000
3001
1000
0100
0000
0001
0001
0100
,
0000
2100
0000
3001
1000
0010
0000
0100
,
0000
0000
0000
0001
0000
0100
0000
0010
0000
2000
0000
0000
0000
0000
0000
3001
0000
0000
0010
0000
0000
0010
0000
0000
,
1000
0100
0100
0001
0000
1002
0000
0013
,
0001
1000
0000
0010
0010
0100
0000
0102
,
0000
1003
0001
0010
0000
1000
1000
0010
,
0000
0012
0000
1003
0001
0100
0000
0010
,
0000
0000
0000
1000
0000
0010
0000
0100
0000
0002
0000
0000
0000
0000
0000
1003
0000
0000
0010
0000
0000
0010
0000
0000
,
0001
0000
0100
0000
0100
0000
1000
0000
0001
0000
0020
0000
1000
0000
0031
1000
,
0200
0000
0001
0000
1300
0000
0020
0000
0130
0001
0100
0010
2000
0000
0010
0000
,
3100
0011
0000
0001
1000
0010
0000
0010
,
1000
0000
0000
0000
0000
0000
0000
0000
0000
0000
0000
0000
0001
0000
0000
0000
0000
0000
0000
0000
0000
0000
0000
0000
0000
0000
0000
0000
0000
0000
0000
0000
0000
0000
0000
0000
1000
0000
0000
0000
0000
0000
0000
0000
0000
0000
0000
0000
0100
0000
0000
0000
0000
0000
0000
0000
0000
0000
0000
0000
0010
0000
0000
0000
0000
0000
0000
0000
0000
0000
0000
0000
0000
0000
0000
0000
0000
0000
0000
0000
0000
0000
0000
0001
0000
0000
0000
0000
0000
0000
0000
0000
0000
0000
0000
0000
,
0000
0000
0000
0000
0000
0000
0000
0000
0000
0000
1000
0000
0000
0000
0000
0000
0000
0000
0000
0000
0000
0000
0000
0000
0000
0000
0000
0000
0000
0000
0000
0000
0000
0010
0000
0000
0000
0000
0000
0000
0000
0000
0000
0000
0000
0000
0000
0000
0000
0000
0000
0000
0000
0000
0100
0000
0000
0000
0000
0000
0000
0000
0000
0000
0000
0000
0000
0000
0000
0000
0000
0000
0001
0000
0000
0000
0000
0000
0000
0000
0000
0000
0000
0000
0000
0000
0000
0000
0000
0000
0000
1000
0000
0000
0000
0000
,
0000
0000
0000
0000
0000
0000
0000
0100
0000
0000
0000
0000
0000
0000
0000
0010
0000
0000
0000
0000
0000
0000
0000
0000
1002
0000
0000
0000
0000
0000
0000
0000
0000
0000
0000
0000
0000
0000
0000
0000
0000
0000
0000
0000
0000
0000
0000
0000
,
0000
0000
0000
0103
0010
1000
0100
0010
0002
0000
0000
2003
0000
0000
0000
0000
,
0000
0000
0010
0000
0000
0010
0000
0000
3002
0000
0000
0010
0000
0000
1003
0000
,
0020
0000
0000
1000
0000
0000
0130
0010
2000
0000
0000
0000
3100
0000
0002
0000
,
0000
0000
0103
1000
0020
0000
0000
0000
0130
0000
0000
0000
0000
0000
0002
0000
,
0010
0000
0000
0000
0000
0000
0000
0000
0000
0010
0000
0000
0000
0000
0000
0000
0000
0000
2003
0000
0000
0000
0000
0000
0000
0000
0000
0000
3010
0000
0000
0000
0100
0000
0000
0000
0010
0000
0000
0000
1000
0000
0000
0000
0100
0000
0000
0000
,
0020
0000
0000
0000
0000
0000
0000
0000
0032
0000
0000
0000
0000
0000
0000
0000
0000
0000
0000
0000
0000
0000
0000
0000
0000
0000
0000
0000
0000
0000
1003
0000
0000
0001
0000
0000
0100
0000
0000
0000
0010
0000
0000
0000
1000
0000
0000
0000
,
0002
0000
0000
0000
0000
0000
0000
0000
0000
0000
0000
0000
0000
0000
0000
0013
0000
0000
0100
0000
0000
1000
0000
0000
0001
0000
0000
1000
0000
0000
0010
0000
0100
0000
0001
0000
1000
0000
0000
0100
0000
0000
0010
0000
0000
0001
0000
0000
,
1000
0000
0010
1000
0001
0010
0200
0000
0000
1000
0000
0000
,
0310
0000
0002
0000
2003
0000
3020
0000
0032
0000
0023
0000
,
2030
0000
3002
0000
0023
0000
0230
0000
0000
1000
0000
0000
,
0310
0000
0002
0000
2003
0000
3020
0000
0230
0000
0302
0000
,
0013
0000
0000
1100
0000
0000
1000
0000
1001
0000
0000
0001
1000
0000
0010
1000
,
0010
0000
0000
0010
1000
0000
0001
0000
1000
0000
0000
1000
0001
0000
0100
0001
,
0100
0000
0000
0100
0010
0000
1000
0000
1001
0000
0000
1000
0001
0000
0010
0001
,
0010
0000
0000
0010
0001
0000
1000
0000
0001
0000
0000
0001
1000
0000
0100
1000
,
0200
0000
0000
0320
0000
0000
0032
0000
0000
0000
0000
0000
0000
0000
0000
0000
,
0000
0000
0000
0000
,
0000
0000
1003
0001
1000
0001
1000
0001
,
1000
0001
1000
0001
1000
0001
0100
0000
,
0010
0000
0100
0000
0001
0100
0001
0000
1000
0000
0100
0000
0001
0000
0100
0000
,
0010
0000
0001
0000
2000
0000
0000
0000
0000
0000
3010
1000
0010
0000
0100
0000
,
0001
1000
0100
1000
0001
0100
1000
0100
,
0001
0010
0100
0000
0001
0100
1000
0010
,
0100
0001
1000
0100
0010
0001
1000
0010
,
0010
0001
0100
0100
1000
0000
0001
1000
,
0010
0000
0100
0000
0001
0100
0001
0000
1000
0000
0100
0000
0001
0000
0100
0000
,
0010
0000
0001
0000
2000
0000
0000
0000
0000
0000
3010
1000
0010
0000
0100
0000
,
0001
1000
0100
1000
0001
0100
1000
0100
,
0001
0010
0100
0000
0001
0100
1000
0010
,
0001
0010
2000
3000
2002
3003
2002
3003
,
0001
0010
0100
1000
0010
0100
0002
0000
,
0000
1000
0000
1003
0001
0000
0010
0000
,
0100
0000
2000
0000
0000
0001
0000
3001
,
1000
0000
0010
0100
0001
0000
0200
0000
,
0000
0010
0000
0310
0100
0000
0001
1000
,
0100
1000
0001
0100
0010
1000
0100
0010
,
0001
0000
1000
0010
1010
0000
2000
0000
,
0000
0001
0000
3001
1000
0000
0100
0010
,
0001
0000
0200
0000
0000
0001
0000
0301
,
0100
0000
0010
1000
0001
0000
0010
0000
,
0001
1000
0010
0100
0001
1000
0000
1100
,
0000
1000
0001
0100
0010
0100
0001
0100
,
0100
1000
0010
0010
0001
1000
0020
0000
,
0000
0001
0000
0031
0010
1000
0000
1000
,
0001
0010
0100
1000
0010
0100
0001
1000
,
0100
0010
0100
1000
0010
0100
0001
0010
,
0010
1000
0010
0010
0001
0100
0100
1000
,
0100
0100
0001
0000
0100
0001
1000
0100
,
0100
0001
0010
0010
1000
0000
0001
0000
,
0100
0010
0000
0010
1000
0000
0001
1000
,
0100
0000
0010
0110
0000
1001
0000
0010
,
0110
0000
1000
0001
0100
0000
0001
0100
,
1000
0001
0100
1000
0001
0010
1000
0001
,
0010
1000
0002
0000
1003
2100
0000
3001
,
0102
0000
0013
0001
1000
0010
0100
0000
,
0010
0100
0000
0100
0001
0000
1000
0001
,
0100
0001
1000
0000
0001
0010
0100
1000
,
0001
0000
0100
0010
1000
0000
0001
0000
,
0010
0100
0000
0100
1000
0000
0001
0010
,
0001
0100
0010
0000
1000
0010
1000
0100
,
0010
0000
0001
0010
0100
0000
1001
0000
,
0001
0100
0010
1000
0100
0000
1000
0100
,
0010
0000
0100
0000
1000
0100
0010
0001
,
0100
0000
0001
0100
0010
0000
1000
0000
,
0001
0010
0000
0010
0100
0000
0010
0100
,
1000
0000
0001
0000
0100
1000
0000
0100
,
0001
0000
0010
1000
0000
0010
0001
1000
,
0001
0100
0010
1000
0001
1000
0100
0100
,
0010
0000
0100
1000
0001
0010
0001
1000
,
0010
0100
0001
0001
1000
0000
0010
1000
,
0001
0100
0001
1000
0100
0010
0001
0001
,
1000
0000
0010
0100
0001
1000
0001
0000
,
0010
0100
1000
0001
1000
1000
0010
0100
,
0010
1000
0010
0100
0100
0001
1000
0001
,
0010
0100
0100
0010
0001
1000
0001
0100
,
0010
1000
0001
1000
0100
0010
0010
0100
,
0100
1000
0010
0100
0001
0100
0100
0010
,
1000
0001
1000
0010
0100
1000
0010
0100
,
1000
0001
0100
0010
0001
0100
0010
0001
,
1000
0100
0001
0100
1000
0010
0001
1000
,
0001
0010
2000
0000
0000
0000
0000
0000
,
0000
0000
0000
0000
0000
0000
0000
0000
0000
3002
0000
0013
,
0200
0000
1300
0002
0000
0103
0110
0000
0010
1001
0000
0000
,
0000
0000
1100
0000
1000
0001
0001
0000
,
0101
0000
0000
0000
0000
0000
0000
0000
0100
0010
0100
0010
1000
0000
0000
0000
,
0001
1000
0001
1000
0100
0000
0000
0000
0000
0000
1000
0000
1001
0000
0000
0000
,
0101
0000
0100
0000
0010
0000
1000
0000
1001
0000
0000
0000
0000
0000
0010
0001
,
1000
0000
0000
0000
0001
0000
1000
0000
0010
0000
0100
0000
0001
0000
1000
0100
,
0010
0000
0000
0000
0001
1000
0010
1000
0001
0000
0000
0000
1000
0000
1010
0000
,
0000
1000
1001
0000
0011
0000
0101
0000
,
0100
0000
0010
0000
0100
0000
0001
0000
1000
0000
0100
0000
0010
0000
0000
0000
0000
0000
0001
0000
0000
1001
0000
0000
,
0000
0000
0001
0000
0101
0000
0100
0000
0010
1000
0010
1000
0001
0000
0000
0000
,
1000
1100
0000
0001
0100
0010
1010
0000
,
1001
0000
0001
0000
0010
0000
0000
0000
0001
0000
1000
0100
1000
0000
0001
0100
,
0001
0000
1000
0100
1000
0000
0001
0000
0101
0000
0000
0000
1010
0000
0000
0000
,
1000
1001
0000
0010
0110
0000
0001
1000
,
0100
0000
0000
1000
0000
0000
0001
0000
0000
0000
0001
0000
0100
0000
0000
0000
0100
0000
0010
0000
0000
0000
0010
0000
,
1000
0000
1000
0100
0000
0100
0010
0000
0010
0001
0000
0001
,
1000
0000
0000
0000
0010
0000
0000
0000
0100
0000
0000
0000
0001
0000
0000
0000
0000
0000
0000
0000
0000
0000
0000
0000
0000
0000
0000
0000
0000
0000
1000
0000
0000
0000
0000
0000
1000
0000
0000
0000
0000
0000
0001
0000
0000
0010
0000
0000
,
0100
1000
0100
0010
0001
1000
0001
1000
0010
0000
0000
0000
1000
0010
1000
0000
,
0010
1000
0010
1000
0001
0000
1000
0000
0001
1000
0001
1000
0100
0000
1000
0000
,
0001
0100
0001
0000
1000
0000
0001
0100
0001
0000
1000
0000
0001
0010
0100
1000
,
0001
0000
0100
0000
0010
0000
1000
0001
1000
0000
0100
0000
1000
0001
1000
0000
,
0010
0000
0100
0010
0100
0000
0001
1000
0100
0000
0010
0000
0011
0000
1001
0000
,
0000
1010
1001
0000
0101
1001
0000
1100
,
1001
0000
0011
1100
0000
0101
1010
0000
,
1000
0100
0001
1000
0010
0001
0100
1000
,
0001
0010
1000
0100
0001
2000
0000
0000
,
0000
0000
0000
0000
,
0000
0000
0000
0000
,
0000
0000
0000
0000
,
0000
0000
0000
0000
,
3000
0000
0000
0000
;

//--------------- dance-single - Talkion & VanEden ----------------
#NOTEDATA:;
#STEPSTYPE:dance-single;
#DESCRIPTION:Talkion & VanEden;
#DIFFICULTY:Challenge;
#METER:18;
#RADARVALUES:0,0,0,0,0;
#NOTES:
0000
0000
0000
0000
,
0000
0000
0000
0000
,
0000
0000
0000
0000
,
0000
0000
0000
0000
,
0000
0000
0000
0000
,
0000
0000
0000
0000
,
0000
0000
0000
0000
1000
0001
0010
0001
,
0010
0100
0001
1000
0010
0001
1000
0001
,
0010
0001
0010
0100
0001
1000
0010
0001
,
1000
0001
0010
0001
0010
0100
0001
1000
,
0010
0000
0001
0010
1000
0000
0001
0000
0100
0000
1000
0000
0010
0000
0100
0000
,
0001
0010
0100
0010
0100
1000
0100
0010
,
0021
0000
0130
1020
0000
0130
0210
0000
0301
1001
0000
1000
,
0101
0000
0001
0000
1000
0000
0001
0000
1000
0000
0100
0000
0010
0100
0010
0001
,
1000
0010
1010
1000
0001
1000
0001
0100
,
0010
0100
0010
1000
0001
0000
0010
0000
0011
0000
0001
0000
1000
0000
0001
0000
,
1000
0000
0010
0000
0100
0010
0100
0001
1000
0000
0100
0000
0010
0000
0100
0000
,
1000
0001
1000
0100
0010
0100
1000
0001
,
0100
0010
1000
0001
0100
0000
0010
0000
1000
0000
0010
0000
1000
0001
1000
0001
,
0010
0100
1000
0001
0100
0010
1000
0010
,
1000
0000
0100
0000
0010
0000
0100
0000
0010
0001
1000
0100
0010
0000
0001
0000
,
0100
0000
0001
0000
0100
0000
0010
0000
1000
0100
0010
0001
1000
0000
0100
0000
,
0001
0100
1000
0010
0100
0010
0001
0010
,
1000
0001
0010
0100
1100
1001
0000
0101
,
1001
0000
1100
0011
0000
1010
0101
0000
,
0021
0000
1000
0000
0100
0000
0032
0000
0010
0000
1000
0000
0203
0000
0000
0001
,
0000
0310
0200
0301
2001
0100
0001
3020
,
0002
0003
0100
0000
2030
0000
0000
0010
0000
0000
3002
0000
0000
0013
0001
0100
,
0020
0000
0001
0000
0100
0000
2030
0000
0010
0000
0001
0000
3200
0000
0000
1000
,
0000
0310
0002
0103
0210
1000
0010
0302
,
0200
0300
1000
0000
0023
0000
0000
0001
0000
0000
0130
0000
1000
1000
0001
0100
,
0020
1000
0130
0002
0100
1003
0200
1000
,
0310
0000
0002
0000
0010
0000
1003
0000
1020
0000
0130
0100
0001
0000
0021
0000
,
0130
0000
0000
0100
0000
0000
1000
0000
0000
0000
0000
0000
1001
0000
0000
0000
0000
0000
0000
0000
0101
0000
0000
0000
2010
0000
0000
0000
0000
0000
0000
0000
0000
0000
0000
0000
0000
0000
0000
0000
0000
0000
0001
0000
0000
0000
0000
0000
,
0000
0000
3010
0001
0010
1000
1002
0000
,
0000
0010
0000
0013
0001
0100
0010
1000
,
2010
0000
0000
0001
0000
0000
3010
0001
,
0010
1000
1002
0000
0000
0010
0013
1000
,
0001
1000
0010
0001
0200
0001
0320
0000
,
0000
0000
0001
0000
0000
0000
0000
0000
0130
0000
0010
1000
0001
0000
1000
0000
,
0200
0000
0000
0001
0000
0301
0100
1000
,
0001
1000
0020
0000
0000
0001
0000
0031
,
0010
1000
0001
1000
2100
0000
0000
0001
,
3001
0000
0100
0000
0010
0000
1000
0010
0100
0001
1000
0000
0100
0000
0010
0000
,
0011
1001
0000
1010
1001
0000
0101
0110
,
0000
1100
0110
0000
1001
0110
0000
1001
,
0110
0000
0000
1000
0002
0000
0010
0000
0000
0000
0203
0000
0000
0000
0320
0000
,
0100
2030
0000
3002
1000
0023
0000
0230
,
0000
2300
0100
3002
0000
0203
0001
0320
,
0000
2030
0000
3200
1000
0320
0000
0032
,
0000
0000
0000
1003
0000
0001
0000
1000
0000
0020
0000
0000
0000
0000
0000
0100
0000
0000
0130
0000
0000
0001
0000
0000
,
0100
010M
1000
1001
0000
0102
0000
0023
,
0001
0230
0010
0302
0000
0203
0000
2300
,
0000
3002
1000
0203
0000
0320
0100
0032
,
0000
0023
0000
2030
0010
3002
0000
0023
,
0000
0000
0000
0031
0000
1000
0000
0001
0000
0200
0000
0000
0000
0000
0000
0010
0000
0000
0310
0000
0000
1000
0000
0000
,
0010
0000
M010
0000
0001
0000
1001
0000
0000
0000
0201
0000
1000
0000
0310
0100
,
0002
0000
1000
0000
0013
0001
2000
0000
0001
0010
0000
3001
0020
0000
1000
0000
,
0100
0031
0000
1001
0100
0010
0000
0100
,
0010
0000
0000
0000
0000
0000
0000
0000
0000
0000
0000
0000
0100
0000
0000
0000
0000
0000
0000
0000
0000
0000
0000
0000
0010
0000
0000
0000
0000
0000
0000
0000
0000
0000
0000
0000
1001
0000
0000
0000
0000
0000
0000
0000
0000
0000
0000
0000
0000
0000
0000
0000
0000
0000
0000
0000
0000
0000
0000
0000
1100
0000
0000
0000
0000
0000
0000
0000
0000
0000
0000
0000
0000
0000
0000
0000
0000
0000
0000
0000
0000
0000
0000
0110
0000
0000
0000
0000
0000
0000
0000
0000
0000
0000
0000
0000
,
0000
0000
0000
0000
0000
0000
0000
0000
0000
0000
0011
0000
0000
0000
0000
0000
0000
0000
0000
0000
0000
0000
0000
0000
0000
0000
0000
0000
0000
0000
0000
0000
0000
1001
0000
0000
0000
0000
0000
0000
0000
0000
0000
0000
0000
0000
0000
0000
0000
0000
0000
0000
0000
0000
1000
0000
0000
0000
0000
0000
0000
0000
0000
0000
0000
0000
0000
0000
0000
0000
0000
0000
0010
0000
0000
0000
0000
0000
0000
0000
0000
0000
0000
0000
0000
0000
0000
0000
0000
0000
0000
0100
0000
0000
0000
0000
,
0000
0000
0000
0000
0000
0000
0000
0001
0000
0000
0000
0000
0000
0000
0000
1000
0000
0000
0000
0000
0000
0000
0000
0000
2001
0000
0000
0000
0000
0000
0000
0000
0000
0000
0000
0000
0000
0000
0000
0000
0000
0000
0000
0000
0000
0000
0000
0000
,
0000
0000
0000
0000
0000
0000
3100
0010
0100
0000
0001
0000
0100
0000
0010
0000
0002
0000
0000
0000
0000
0000
2003
0000
0000
0000
0000
0000
0000
0000
0000
0000
,
0000
0000
0010
0000
0000
0010
0000
0000
3002
0000
0000
1000
0000
0000
0013
0000
,
0200
0000
0000
0010
0000
0000
0301
0100
2000
0000
0000
0000
3010
0000
0002
0000
,
0000
0000
0000
0000
0013
0000
1000
0000
0200
0000
0000
0000
0000
0000
0000
0000
0310
0000
0000
0000
0000
0000
0000
0000
0001
1000
0002
0000
0000
0000
0000
0000
,
0100
0000
0000
0000
0000
0000
0000
0000
0000
0100
0000
0000
0000
0000
0000
0000
0000
0000
2003
0000
0000
0000
0000
0000
0000
0000
0000
0000
3100
0000
0000
0000
0001
0000
0000
0000
1000
0000
0000
0000
0010
0000
0000
0000
0001
0000
0000
0000
,
2000
0000
0000
0000
0000
0000
0000
0000
3020
0000
0000
0000
0000
0000
0000
0000
0000
0000
0000
0000
0000
0000
0000
0000
0000
0000
0000
0000
0000
0000
0031
0000
0000
0010
0000
0000
0100
0000
0000
0000
0001
0000
0000
0000
1000
0000
0000
0000
,
0200
0000
0000
0000
0000
0000
0000
0000
0000
0000
0000
0000
0000
0000
0000
0310
0000
0000
0100
0000
0000
1000
0000
0000
0001
0000
0000
1000
0000
0000
0010
0000
0100
0000
0001
0000
1000
0000
0000
0100
0000
0000
0010
0000
0000
0001
0000
0000
,
2000
0000
3010
1000
0001
0010
0200
0000
0000
2300
0000
0000
,
0100
0000
3002
0000
0203
0000
2300
0000
3002
0000
0023
0000
,
2030
0000
3002
0000
0023
0000
0230
0000
0000
2300
0000
0000
,
0100
0000
3002
0000
0203
0000
0320
0000
0032
0000
0023
0000
,
1030
0000
0000
1100
0000
0000
0011
0000
2001
0000
0000
3010
1000
0000
0001
0010
,
0200
0000
0000
0301
0100
0000
1000
1000
0002
0000
0000
0103
0001
0000
1000
0100
,
0020
0000
0000
1030
0010
0000
0001
0000
2001
0000
0000
3010
0100
0000
1000
0100
,
0002
0000
0000
1003
0100
0000
0010
0010
0002
0000
0000
0103
0010
0000
0100
0000
,
2001
0000
0000
0100
0000
0000
3020
0000
0000
0000
0000
0000
0000
0000
0000
0000
,
0000
0000
0000
0000
,
0000
0000
1030
0001
1000
0001
1000
0001
,
1000
0001
1000
0001
1000
0001
1000
0100
,
0010
0000
0001
0000
0010
0001
1000
0000
0100
0000
1000
0000
0001
0000
0100
0000
,
0010
0000
1000
0000
0001
0000
0000
0000
0100
0000
0010
1000
0010
0000
0100
0000
,
0010
0100
0001
1000
0100
0010
0100
1000
,
0001
0000
0000
0010
0000
0000
0001
0000
0000
0100
0000
0000
0010
0000
0000
0100
0000
0000
0010
0000
1000
0000
0001
0000
,
0100
0000
0000
0001
0000
0000
1000
0000
0000
0100
0000
0000
1000
0000
0010
0000
0100
0000
0001
0000
0010
0000
0100
0000
,
1000
0010
M010
0001
1001
0000
0001
0100
,
0010
0000
1000
0000
0010
1000
0001
0000
0100
0000
0001
0000
1000
0000
0100
0000
,
0010
0000
0001
0000
1000
0000
0000
0000
0100
0000
0010
0001
0010
0000
0100
0000
,
0010
0100
1000
0001
0100
0010
1000
0100
,
1000
0000
0000
0010
0000
0000
0100
0000
0000
0001
0000
0000
1000
0000
0000
0001
0000
0000
0100
0000
0001
0000
1000
0000
,
0010
0000
0000
1000
0000
0000
0001
0000
0000
0010
0000
0000
0001
0000
1000
0000
0100
0000
0010
0000
0000
0100
0000
0000
,
1000
0000
0000
0001
0000
0000
0100
0000
0000
0010
0000
0000
1000
0000
0000
0100
0000
0000
0010
0000
0001
0000
0010
0000
,
0100
0000
0000
0000
1000
0000
0000
0000
0000
1000
0000
0000
0010
0000
0000
0000
0000
0000
0010
0000
0000
1000
0000
0000
,
0100
0000
0000
0020
0000
0000
0000
0000
0000
0000
0031
0000
0000
0000
0010
0000
0000
0000
0100
0000
0000
0000
0000
0000
,
0100
0000
1000
0001
1000
0010
0100
0000
,
0000
0000
0010
0000
0100
0000
0001
0000
0000
1000
0000
0000
0100
0000
0000
1000
0000
0000
0001
0000
0000
0010
0000
0000
,
0100
0010
0001
1000
0010
0001
1000
0100
,
0001
0010
0100
0010
0100
1000
0001
0000
,
1000
0000
0000
0010
0000
0000
0000
0000
0000
0010
0000
0000
0100
0000
0000
0000
0010
0000
0000
0000
0000
1000
0000
0000
,
0000
0001
1000
0000
0001
0100
0000
0010
,
1000
0000
0000
0001
0000
0000
0010
0000
0000
0001
0000
0000
1000
0000
0000
0000
,
0000
1100
0000
0100
0010
0001
0000
0011
,
0000
0000
0010
0000
0100
0000
0000
1000
0100
0000
0010
0000
0001
0000
1000
0000
,
0010
0100
01M0
1000
0001
0010
0100
0000
,
0010
0001
0000
0001
1000
0010
0000
0100
,
0000
0000
0001
0000
1000
0000
0010
1000
0001
0000
0010
0000
0100
0000
1000
0000
,
0010
0000
0000
0100
0000
0000
1000
0000
0000
0100
0000
0000
0001
0000
0000
0010
0000
0000
0100
0000
0010
0000
0001
0000
,
0010
0000
0000
0100
0000
1000
0000
0100
0000
0010
0000
0000
0100
0000
0010
0000
0001
0000
0010
0000
0000
0100
0000
1000
,
0000
0100
0000
0010
0000
0000
0001
0000
0100
0000
0010
0000
1000
0000
0000
0100
0000
1000
0000
0010
0000
0100
0000
0000
,
0001
0100
010M
1000
0010
0100
0001
0000
,
0100
0010
0000
0010
1000
0000
0010
1000
,
0001
0000
0010
0100
0000
1100
0000
0100
,
0010
0000
0001
1000
0100
0010
0001
2000
,
0010
3001
0200
0010
0301
2000
0010
3001
,
0100
0010
1000
0002
0010
1003
0200
0010
,
1300
0001
0010
0100
M100
0001
0020
0000
,
1000
0000
0001
0031
2000
0000
0010
3010
,
1000
0000
0001
0000
0010
0000
1000
0000
0010
0100
0010
0000
0001
0000
1000
0000
,
1020
0000
0230
0000
0001
0301
1000
0001
,
0010
0000
0100
0000
0001
0000
0100
1000
0002
0000
0000
0000
0100
0000
0103
0000
,
0020
0000
0000
0000
1030
0000
0010
0000
0001
0000
1000
0000
0001
0000
0010
0100
,
0001
0100
010M
1000
1001
0000
0002
0000
,
0013
0001
1000
0010
0002
0000
0010
0013
,
2000
0000
0000
0000
0000
0000
3200
0000
0000
0000
0000
0000
0301
0000
0100
0000
1000
0000
0001
0000
0000
0100
0000
0000
,
0120
0000
1030
0001
0010
0100
1000
0000
,
0001
0101
0000
1000
1100
0000
0110
0010
,
1001
0000
0101
0000
0010
1001
0100
0000
,
0110
1000
0001
0110
1000
0001
0020
0000
,
0130
0010
0001
1000
0020
0000
0001
0000
,
1030
0000
0000
0000
0100
0000
0001
0000
0100
0010
0001
0000
2000
0000
0000
0000
,
3010
0001
1000
0100
0001
1000
0200
0000
,
0310
0100
1000
0001
0100
1000
0100
0001
,
1000
0000
0100
1000
0001
0101
0000
0100
,
0001
0010
001M
1000
0002
0010
2003
0000
,
3100
0000
0010
0000
1000
0000
0010
0000
0001
0000
1000
0001
0100
0000
0110
0000
,
0000
0000
0000
0010
0000
0000
1000
0000
0000
0001
0000
0000
0010
0000
0100
0000
1000
0000
0010
0000
0000
0001
0000
0000
,
0010
1000
0100
0010
0011
0000
1001
0010
,
0100
1001
0000
0000
0110
1000
0001
0110
,
0000
0000
1100
1000
0010
0101
0001
0010
,
1100
1000
0010
0101
0001
0010
2000
0000
,
3010
0000
0001
1000
0001
0000
0100
0000
0010
0100
0001
1000
0100
0000
0010
0000
,
0002
0003
0000
0000
,
0000
0000
0000
0000
0000
0000
0000
0000
0000
0102
0000
0013
,
2100
0000
3010
0210
0000
0301
1001
0000
1000
0101
0000
0000
,
0000
0000
0000
0000
0000
0000
0010
1000
0000
0000
0000
0000
0000
0000
0000
1000
0000
0000
0001
0000
0000
0000
0000
0000
,
0011
0000
0000
0000
0000
0000
0000
0000
0010
0100
0010
0100
1000
0000
0000
0000
,
0010
0000
0000
1000
0000
0000
0010
0000
0000
1000
0000
0000
0001
0000
0000
0000
0000
0000
0000
0000
0000
0000
0000
0000
0000
0000
0000
0000
0000
0000
0100
0000
0000
0000
0000
0000
0100
0000
0010
0000
0000
0000
0000
0000
0000
0000
0000
0000
,
0010
0000
1000
0000
0001
0000
0010
0000
0100
0000
0000
0000
0000
0000
1000
0001
,
0010
0000
0000
0000
0001
0000
1000
0000
0010
0000
1000
0000
0001
0000
0100
0010
,
1000
0000
0000
0000
0100
1000
0100
0010
0001
0000
0000
0000
0010
0000
1000
0000
,
0010
0000
0000
0001
0000
0000
1000
0000
0000
0000
0000
0000
1100
0000
0000
0000
0000
0000
0101
0000
0000
0000
0001
0000
,
0100
0000
0001
0000
0100
0000
1000
0000
0100
0000
0010
0000
1000
0000
0000
0000
0000
0000
1000
0000
0000
0001
0000
0000
,
0000
0000
0001
0000
1000
0000
0010
1000
0001
0100
0001
1000
0010
0000
0000
0000
,
1000
0010
0100
0001
0010
0001
0010
0100
,
1000
0000
0001
0000
1000
0000
0100
1000
0001
0000
0010
0001
1000
0000
0100
0010
,
0001
0000
1000
0100
1000
0001
0010
0100
1000
0000
0000
0000
0001
0000
1000
0000
,
0001
0100
1000
0000
0000
0000
0100
0000
0001
0000
0000
0000
1000
0000
0010
0000
,
0001
0000
0000
0010
0000
0000
1000
0000
0010
0000
1000
0000
0010
0000
0100
0000
0001
0000
0010
0000
0100
0000
0010
0000
,
0001
1000
0100
0010
0100
1000
0001
0100
0001
1000
0001
1000
,
0100
0000
0000
0000
0010
0000
0000
0000
0001
0000
0000
0000
1000
0000
0000
0000
0000
0000
0001
0000
0000
0100
0000
0000
0010
0000
0000
0000
0000
0000
0100
0000
0000
0010
0000
0000
1000
0000
0000
0001
0000
0000
1000
0000
0000
0001
0000
0000
,
0100
0001
0100
0010
1000
0100
0010
0001
1000
0000
0001
0010
0001
1000
0001
1000
,
0100
0000
1000
0100
0010
0000
0001
0010
0100
0010
0100
1000
0001
0000
1000
0010
,
0100
0010
0100
0001
1000
0000
0001
0100
0010
0000
0100
0001
1000
0001
0010
0100
,
1000
0000
0001
0000
1000
0010
1000
0010
0100
0000
0001
0000
0010
0001
0010
0001
,
0010
0100
0010
0100
1000
0100
1000
0001
1000
0001
0100
0001
0100
0000
0010
0000
,
0100
0010
1000
0000
0001
0000
1000
0001
0010
0000
0100
0000
0010
0100
1000
0000
,
0001
0000
1000
0001
0100
0000
0010
0000
0100
0010
1000
0000
0001
0000
1000
0000
,
0100
0010
0001
0000
0100
0000
1000
0000
0100
0000
0001
0000
1000
0000
0001
0000
,
0010
1000
0001
0100
1000
0002
0000
0000
,
0000
0000
0000
0000
,
0000
0000
0000
0000
,
0000
0000
0000
0000
,
0000
0000
0000
0000
,
0003
0000
0000
0000
;
