#TITLE:JUST ACCEPT;
#SUBTITLE:;
#ARTIST:pengaton;
#TITLETRANSLIT:;
#SUBTITLETRANSLIT:;
#ARTISTTRANSLIT:;
#GENRE:;
#CREDIT:;
#MUSIC:just accept.ogg;
#BANNER:justacceptbn.png;
#BACKGROUND:justacceptbg.png;
#CDTITLE:;
#SAMPLESTART:0.000;
#SAMPLELENGTH:0.000;
#SELECTABLE:YES;
#OFFSET:-0.054;
#BPMS:0.000=160.000;
#STOPS:343.500=0.375;
#BGCHANGES:;
#FGCHANGES:;

//--------------- dance-single - ----------------
#NOTES:
     dance-single:
     :
     Beginner:
     6:
     0,0,0,0,0:
0000
0000
0000
0000
,
0000
0000
0000
0000
,
0000
0000
0000
0000
,
0000
0000
0000
0000
,
1000
0000
0000
0000
,
0010
0000
0000
0000
,
0100
0000
0000
0000
,
0001
0000
0000
1001
,
1000
0000
0000
0000
,
0100
0000
0000
0000
,
0010
0000
0000
0000
,
0001
0000
0000
1001
,
0001
0000
0000
0000
,
0100
0000
0000
0000
,
0010
0000
0000
0000
,
1000
0000
0000
1001
,
1000
0000
0100
0000
,
0001
0000
0100
0000
,
1000
0000
0100
0000
,
0001
0000
0100
0000
,
1000
0000
0010
0000
,
0001
0000
0010
0000
,
1000
0000
0010
0000
,
0001
0000
0010
0000
,
1001
0000
0000
0000
,
1001
0000
0000
0000
,
1001
0000
0000
0000
,
1001
0000
0000
0000
,
0110
0000
0000
0000
,
0000
0000
0000
0000
,
0001
0010
1000
0100
,
0000
0000
0000
0000
,
0001
0000
0101
0000
,
1000
0010
0100
0000
,
0001
0000
0011
0000
,
0010
0100
1000
0000
,
0001
0000
1001
0000
,
0001
1000
0100
0000
,
0010
0000
0010
0000
,
0001
0010
0100
1000
,
0000
0010
1010
0000
,
1000
0010
0100
0000
,
0001
0000
1001
0000
,
0001
1000
0100
0000
,
0010
0000
0110
0000
,
0010
0001
0100
0000
,
0001
0000
0001
0000
,
1000
0100
0010
0001
,
1000
0000
1000
0000
,
1000
0000
1000
0000
,
0010
0000
0010
0000
,
0010
0000
0010
0000
,
0100
0000
0100
0000
,
0100
0000
0100
0000
,
0001
0000
0001
0000
,
1000
0100
0010
0001
,
1000
0000
1000
0000
,
1000
0000
1000
0000
,
0100
0000
0100
0000
,
0100
0000
0100
0000
,
0010
0000
0010
0000
,
0010
0000
0010
0000
,
0001
0000
0001
0000
,
1000
0010
0100
0001
,
1001
0000
0000
0000
,
1001
0000
0000
0000
,
1001
0000
0000
0000
,
0002
0000
0000
0003
,
1000
0000
0100
0000
,
0001
0000
0100
0000
,
1000
0000
0010
0000
,
0001
0000
0010
0000
,
2000
0000
0000
0000
,
0000
0000
0000
0000
,
3001
0000
0100
0000
,
1000
0000
0100
0000
,
0001
0000
1000
0000
,
1001
0000
0000
0000
,
0001
1000
1001
0000
,
0001
0100
0101
0000
,
0100
0010
1010
0000
,
0010
1000
1100
0000
,
0100
0010
0110
0000
,
0010
0001
1001
0000
,
0001
0000
0001
0000
,
1000
0100
0010
0001
,
1000
1010
0000
0010
,
0100
0101
0000
0001
,
1000
1001
0000
0001
,
1000
1100
0000
0100
,
0010
0110
0000
0010
,
0001
0011
0000
0001
,
0000
0001
0000
0001
,
1000
0010
0100
0000
;

//--------------- dance-single - ----------------
#NOTES:
     dance-single:
     :
     Easy:
     10:
     0,0,0,0,0:
0000
0000
0000
0000
,
0000
0000
0000
0000
,
0000
0000
0000
0000
,
0000
0000
0000
0000
,
1000
0100
0000
0100
,
0001
0100
0000
0100
,
1000
0010
0000
0010
,
0001
0010
0000
0010
,
1000
0001
1000
0000
,
0001
0100
0001
0000
,
0100
0010
0100
0000
,
0010
1000
0010
0000
0100
0000
0001
0000
,
1000
0100
0010
0000
,
0001
0100
0010
0000
,
1000
0010
0100
0000
,
0001
0010
0100
0000
1000
0000
0001
0000
,
1000
0000
0100
0010
0001
0000
0000
0000
,
1000
0010
0100
0000
,
0001
0000
0100
0010
1000
0000
0000
0000
,
0001
0010
0100
0000
,
1000
0000
0001
1000
0100
0000
0000
0000
,
1000
0001
0100
0000
,
0001
0000
1000
0001
0100
0000
0000
0000
,
0001
1000
0100
0000
,
0020
0000
0130
0000
,
0020
0000
0130
0000
,
0020
0000
0230
0000
,
0320
0000
0230
0000
,
1000
0000
0000
0000
,
0000
0000
0000
0000
,
0310
0000
0001
0000
1000
0000
0000
1001
,
0000
0000
0000
0000
,
0001
0100
0110
0010
,
1000
0000
0100
0000
1000
0100
1000
0000
,
0010
0100
0101
0001
,
1000
0000
0100
0000
0010
0001
0010
0000
,
0001
1000
1001
0001
,
0100
0000
0010
0000
0100
0010
0100
0000
,
0001
0010
1000
0100
,
0001
0010
1000
0100
,
0001
0000
1000
0001
1000
0000
1010
0000
,
0010
0000
0100
0000
0001
0100
0001
0000
,
0010
0001
0010
0110
,
0100
0000
1000
0000
1000
0010
1000
0000
,
0010
0100
0001
1001
,
0001
0100
1000
0000
0100
0000
0001
0000
,
1000
0100
0001
0010
,
1000
0100
0001
0010
,
1000
1001
0001
1001
,
1000
1001
0001
1001
,
0100
0110
0010
0110
,
0100
0110
0010
0110
,
0001
1001
1000
1001
,
0001
1001
1000
1001
,
0100
0110
0010
0110
,
1001
0110
1001
0110
,
0001
0101
1000
1100
,
0001
0101
1000
1100
,
0001
0011
1000
1010
,
0001
0011
1000
1010
,
0001
0101
1000
1100
,
0001
0101
1000
1100
,
0001
0011
1000
1010
,
0101
1100
0011
1010
,
0210
0000
0310
0000
,
1002
0000
1003
0000
,
0210
0000
0310
0000
,
2002
0000
0000
3003
,
0001
0100
1000
0100
,
0001
0000
1000
0000
0001
1000
0100
0000
,
1000
0100
0001
0000
0001
0100
1000
0000
,
0010
0000
0110
0000
0100
0001
1000
0000
,
0002
0000
0000
0000
,
1000
0000
0000
1000
0000
0000
1003
0000
,
0001
0000
1000
0000
0001
1000
0100
0000
,
0010
0001
0100
0000
0010
0100
0001
0000
,
1001
0000
1001
0000
1000
0100
0010
0001
,
1000
0020
0000
0000
,
0130
0001
0101
0001
,
1000
0100
0010
0000
0011
0000
1100
0000
,
1000
0010
0110
0100
,
0001
1000
0100
0000
1100
0000
0101
0000
,
0001
0010
0110
0100
,
1000
0010
0100
0000
0101
0000
1100
0000
,
0001
0010
0001
0000
1000
0010
1000
0000
,
0001
0100
0001
0000
1000
0100
1000
0000
,
0110
0000
1001
0000
0001
0000
1000
0100
,
0010
0011
1100
0001
,
0100
0001
0010
0000
0110
0000
0100
1000
,
0010
1010
0101
0001
,
1000
0001
0100
0000
0110
0000
0010
1000
,
0100
0000
1100
0000
0011
0000
0010
0001
,
0100
0000
0010
1000
0100
0000
1000
0100
,
0001
0100
1000
0010
0001
0010
1000
0000
;

//--------------- dance-single - ----------------
#NOTES:
     dance-single:
     :
     Medium:
     14:
     0,0,0,0,0:
0000
0000
0000
0000
,
0000
0000
0000
0000
,
0000
0000
0000
0000
,
0000
0000
0000
0000
,
0001
0000
1000
0000
0000
0001
0000
0100
0000
0000
0000
0000
0000
0000
0000
0000
,
0010
0000
1000
0000
0010
0000
0000
0100
0000
0000
0000
0000
0000
0000
0000
0000
,
0010
0000
0000
1000
0000
0001
0000
1000
0000
0000
0000
0000
0000
0000
0000
0000
,
0100
0000
0010
0000
0100
0000
0000
1000
0000
0000
0001
0000
1000
0000
0000
0000
,
0001
0000
0100
0000
0000
0010
0000
1000
0000
0000
0000
0000
0000
0000
0000
0000
,
0001
0000
0010
0000
0100
0000
0000
1000
0000
0000
0000
0000
0000
0000
0000
0000
,
1000
0000
0100
0000
0000
0010
0000
0001
0000
0000
0000
0000
0000
0000
0000
0000
,
1000
0000
0010
0000
0100
0000
0000
0001
0000
0000
1000
0000
1001
0000
0000
0000
,
0001
0000
0100
0000
0000
0001
0000
1000
0000
0000
0000
0000
0000
0000
0000
0000
,
1000
0000
0100
0000
0010
0000
0000
0001
0000
0000
0000
0000
0000
0000
0000
0000
,
1000
0000
0100
0000
0000
1000
0000
0001
0000
0000
0000
0000
0000
0000
0000
0000
,
0001
0000
0100
0000
0010
0000
0000
1000
0000
0000
0001
0000
1001
0000
0000
0000
,
1000
0000
1000
0000
0000
0020
0000
0200
0000
0330
0000
0000
0000
0000
0000
0000
,
0001
0000
0010
0000
0100
0000
0000
2000
0000
0000
0002
0000
3003
0000
0000
0000
,
1000
0000
0010
0000
0000
0200
0000
0002
0000
0000
0000
0000
0303
0000
0000
0000
,
0001
0000
1000
0000
0010
0000
0000
2000
0000
0002
0000
0000
3003
0000
0000
0000
,
0001
0000
0100
0000
0000
0002
0000
2000
0000
0000
0000
0000
3003
0000
0000
0000
,
1000
0000
0100
0000
0001
0000
0000
0200
0000
0000
0020
0000
0330
0000
0000
0000
,
0001
0000
1000
0000
0000
0000
0000
0020
0000
0200
0000
0000
0330
0000
0000
0000
,
0001
0000
1000
0000
0100
0000
0000
0020
0000
0000
0002
0000
0033
0000
0000
0000
,
2002
0000
3003
0000
,
0220
0000
0330
0000
,
2002
0000
3003
0000
,
1000
0100
0000
0010
0000
0001
0000
1000
0000
0100
0000
0010
0002
0000
0000
0000
,
1000
1000
1000
1000
,
0100
0100
0100
0103
,
0001
0100
0010
1000
0100
0010
0001
2002
,
0000
0000
0000
3003
,
1000
0000
0010
0000
0000
1000
0000
1010
0000
0000
0000
0000
0000
0000
0000
0000
,
0001
0000
0100
0000
0010
0000
0000
1010
0000
0000
0101
0000
0000
0000
0000
0000
,
0001
0000
1000
0000
0000
0100
0000
1100
0000
0000
0000
0000
0000
0000
0000
0000
,
0010
0000
0001
0000
0100
0000
0000
0101
0000
0000
1010
0000
0000
0000
0000
0000
,
0010
0000
1000
0000
0000
0001
0000
1001
0000
0000
0000
0000
0000
0000
0000
0000
,
1000
0000
0100
0000
0010
0000
0000
0110
0000
0000
0011
0000
0000
0000
0000
0000
,
0002
0000
0000
1000
0000
0000
1000
0000
2003
0000
0000
0010
0000
0000
0010
0000
,
3002
0000
0000
0100
0000
0000
0100
0000
2003
0000
0000
0010
0000
0000
0010
0000
,
3000
0000
0000
0000
1010
0000
0000
2002
0000
0000
0000
0000
3003
0000
0000
0000
,
0001
0000
0100
0000
0010
0000
0000
1010
0000
0000
0011
0000
0000
0000
0000
0000
,
0001
0000
1000
0000
0000
0100
0000
0110
0000
0000
0000
0000
0000
0000
0000
0000
,
0001
0000
1000
0000
0010
0000
0000
0110
0000
0000
0101
0000
0000
0000
0000
0000
,
0001
0000
1000
0000
0000
0001
0000
0011
0000
0000
0000
0000
0000
0000
0000
0000
,
0100
0000
1000
0000
0010
0000
0000
1010
0000
0000
0110
0000
0000
0000
0000
0000
,
0200
0000
0000
0001
0000
0000
0301
0000
2000
0000
0000
0001
0000
0000
0001
0000
,
3020
0000
0000
0100
0000
0000
0130
0000
0002
0000
0000
1000
0000
0000
1003
0000
,
0000
0000
1001
0000
0000
0000
0001
0000
0100
0000
0000
0010
0000
0000
1000
0000
,
0100
0000
0000
0010
0000
0000
0001
0000
0100
0000
0000
0010
0000
0000
1000
0000
,
0010
0000
0000
0100
0000
0100
0001
0000
0010
0000
0000
0100
0000
0100
1000
0000
,
0010
0000
0000
0100
0000
0100
0001
0000
1000
0001
0000
1000
0000
0001
1000
0000
,
0010
0000
0000
0100
0000
0000
0001
0000
0010
0000
0000
0100
0000
0000
1000
0000
,
0010
0000
0000
1000
0000
0000
0100
0000
0010
0000
0000
0001
0000
0000
0100
0000
,
0001
0000
0000
1000
0000
1000
0100
0000
0010
0000
0000
0001
0000
0001
0100
0000
,
0010
0000
1000
0010
0000
1000
0010
0000
0100
0000
0001
0100
0000
0001
0100
0000
,
0001
0000
0000
1001
0000
0000
1000
0000
0100
0000
0000
0110
0000
0000
0010
0000
,
0001
0000
0000
1001
0000
0000
0001
0000
0100
0000
0000
0110
0000
0000
0010
0000
,
1000
0000
0000
1010
0000
1000
0010
0000
0100
0000
0000
0101
0000
0001
1000
0000
,
0001
0000
0000
0011
0000
0010
0100
0000
2000
3000
0000
1100
0000
1000
0010
0000
,
0100
0000
0000
0101
0000
0000
0001
0000
1000
0000
0000
1001
0000
0000
0001
0000
,
0010
0000
0000
0011
0000
0000
0010
0000
0100
0000
0000
1100
0000
0000
1000
0000
,
0010
0000
0000
1010
0000
1000
0010
0000
0100
0000
0000
0101
0000
0001
0100
0000
,
0001
0100
0000
0010
0000
1000
0000
0001
0000
0100
0000
0010
1000
0000
0001
0000
,
2200
0000
3300
0000
,
0022
0000
0033
0000
,
1000
0010
0000
0100
0000
0001
0000
1000
0000
0100
0000
0010
0001
0000
2000
0000
,
0000
0010
0010
0000
3001
1000
0001
0000
,
0100
0001
0000
0100
0001
0000
0000
0000
1000
0000
0100
0000
0010
0000
0001
0000
,
1000
0100
1000
0000
0010
0000
0001
0000
0010
0000
1000
0000
0001
0000
0000
0000
,
0001
1000
0000
0001
1000
0000
0000
0000
0001
0000
0100
0000
0010
0000
1000
0000
,
0001
0010
1000
0010
0001
0100
1000
0100
,
0002
0000
0000
0000
,
0000
1000
0000
0000
1000
0000
0000
1003
,
0001
0000
0101
0000
0100
0001
1000
0000
,
0010
1000
0100
0001
0100
1000
0010
0000
,
0100
0001
0000
0100
0001
0000
0000
0000
1000
0000
0100
0000
0010
0000
0001
0000
,
1010
0202
0000
0303
,
0001
0000
0100
0000
0010
1000
0000
1001
0000
0000
1000
0000
0100
0000
0000
0000
,
0010
0001
0010
0000
0001
1000
0000
1001
0000
0000
0001
0000
0100
0000
0000
0000
,
0010
0000
1000
0000
0010
0100
0000
0101
0000
0000
0001
0000
0010
0000
0000
0000
,
0001
1000
0001
0000
0100
0010
0000
0110
0000
0000
0010
0000
1000
0000
0000
0000
,
0001
0000
0010
0000
0100
1000
0000
1100
0000
0000
1000
0000
0001
0000
0000
0000
,
1000
0010
1000
0000
0001
0100
0000
0101
0000
0000
0001
0000
1000
0000
0010
0000
,
0200
0000
0000
0001
0000
0000
0001
0000
0320
0000
0000
1000
0000
0000
1000
0000
,
0230
0000
0000
0001
0000
0000
0001
0000
0320
0000
0000
1000
0000
0000
1030
0000
,
1001
0000
0000
0110
0000
0000
0000
0000
2000
0000
0000
0000
3010
0100
0010
0000
,
0100
0001
0000
0101
0000
0000
0001
0000
2000
0000
0000
0000
3100
0000
0010
0000
,
0100
0010
0000
0110
0000
0000
0010
0000
0002
0000
0000
0000
1003
0010
1000
0000
,
0001
0100
0000
0110
0000
0000
0010
0000
2000
0000
0000
0000
3100
0000
0010
0000
,
0100
1000
0000
1100
0000
0000
1000
0000
0002
0000
0000
0000
0013
0001
0010
0000
,
0001
1000
0000
1001
0000
0000
0001
0000
2000
0000
0000
0000
3002
0000
0000
0010
,
0000
0000
0010
0000
2003
0000
0000
0100
0000
0000
0100
0000
3001
0100
0000
0010
,
0000
1000
0000
0001
0000
0010
0000
0100
1000
0000
0001
0000
0000
0000
0000
0000
;

//--------------- dance-single - ----------------
#NOTES:
     dance-single:
     :
     Hard:
     15:
     0,0,0,0,0:
0000
0000
0000
0000
,
0000
0000
0000
0000
,
0000
0000
0000
0000
,
0000
0000
0000
0000
,
1000
0000
0001
0000
1000
0100
0000
1100
0000
0000
0000
0000
0000
0000
0000
0000
,
1000
0100
1000
0100
0010
0001
0000
1001
0000
0000
0000
0000
0000
0000
0000
0000
,
0001
0000
1000
0000
0001
0100
0000
0101
0000
0000
0000
0000
0000
0000
0000
0000
,
0001
0100
0001
0100
0010
1000
0000
1001
0000
0001
1000
0000
0200
0000
0000
0000
,
0310
0000
0001
0000
1000
0010
0000
1000
0000
0000
0010
0000
0100
0000
0000
0000
,
0010
1000
0001
1000
0010
1000
0000
0010
0000
0000
0010
0000
0100
0000
0000
0000
,
0001
0000
0010
0000
0001
0100
0000
0100
0000
0000
0001
0000
1000
0000
0000
0000
,
0001
0010
0001
0100
0001
0010
0000
0001
0000
0001
1000
0000
0020
0000
0000
0000
,
0130
0000
0001
0000
1000
0100
0000
0100
0000
0000
1000
0000
0010
0000
0000
0000
,
0100
0001
1000
0001
0100
0010
0000
1000
0000
0000
1000
0000
0010
0000
0000
0000
,
0100
0000
0001
0000
1000
0001
0000
0100
0000
0000
0001
0000
0100
0000
0000
0000
,
0001
1000
0001
0100
0001
1000
0000
0001
0000
0001
0100
0000
0020
0000
0000
0000
,
1030
0000
0100
0000
1000
0100
0000
2200
0000
0000
0000
0000
3300
0000
0000
0000
,
0001
0100
0001
0100
0001
0100
0000
0100
0000
0002
0200
0000
0303
0000
0000
0000
,
1000
0000
0010
0000
1000
0010
0000
2020
0000
0000
0000
0000
3030
0000
0000
0000
,
0001
0010
0001
0010
0001
0010
0000
0001
0000
0002
0020
0000
0033
0000
0000
0000
,
0001
0000
1000
0000
0001
1000
0000
2002
0000
0000
0000
0000
3003
0000
0000
0000
,
0100
0010
0100
0010
0100
0010
0000
0100
0000
0200
0020
0000
0330
0000
0000
0000
,
1000
0000
0001
0000
1000
0001
0000
2002
0000
0000
0000
0000
3003
0000
0000
0000
,
0010
0100
0010
0100
0010
0100
0000
0010
0000
0020
0200
0000
0330
0000
0000
0000
,
2000
0000
3000
0000
,
0020
0000
0030
0000
,
0200
0000
0300
0000
,
0001
0010
0000
0100
0000
1000
0000
0001
0000
0100
0000
0010
1000
0000
0002
0000
,
0100
0100
0100
0100
,
1000
1000
1000
1003
,
0001
1000
0001
1000
0010
0100
0010
0220
,
0000
0000
0000
0330
,
0001
0000
1000
0000
0001
0100
0000
0100
0000
0000
0001
0000
2000
0000
0000
0000
,
3100
0010
0100
0010
0100
0010
0000
0001
0000
0001
1000
0000
0002
0000
0000
0000
,
0103
0000
0001
0000
0100
0010
0000
1000
0000
0000
0010
0000
2000
0000
0000
0000
,
3010
1000
0010
0100
0010
1000
0000
1000
0000
0010
0100
0000
0002
0000
0000
0000
,
0013
0000
0001
0000
1000
0001
0000
0200
0000
0000
0301
0000
2000
0000
0000
0000
,
3010
0100
0001
0100
0010
0100
0000
0100
0000
0001
1000
0000
0002
0000
0000
0000
,
0103
0000
0010
1000
0000
0010
1000
0000
0100
0000
0010
0001
0000
0010
0001
0000
,
1000
0000
0010
0100
0000
0010
0100
0000
0001
0000
0010
0100
0000
0010
0100
0000
,
0000
0000
1000
0000
0001
1000
0000
1001
0000
0000
0001
0000
0200
0000
0000
0000
,
0310
1000
0100
0010
0001
1000
0000
1000
0000
0001
0100
0000
0020
0000
0000
0000
,
1030
0000
0100
0000
1000
0001
0000
1000
0000
0000
0001
0000
0200
0000
0000
0000
,
0310
1000
0001
0100
0010
1000
0000
1000
0000
1000
0001
0000
0020
0000
0000
0000
,
0031
0000
1000
0000
0100
1000
0000
0100
0000
0000
0100
0000
0020
0000
0000
0000
,
0031
0100
0001
1000
0001
0100
0000
0100
0000
0001
1000
0000
0020
0000
0000
0000
,
0130
0000
0001
1000
0000
0001
1000
0000
0010
0000
1000
0001
0000
1000
0001
0000
,
0100
0000
0001
1000
0000
0001
1000
0000
0010
0000
1000
0001
0000
1000
0001
0000
,
2000
0000
0000
0100
0000
0000
3100
0000
2000
0000
0000
0001
0000
0000
3001
0000
,
2000
0000
0000
0010
0000
0000
3010
0000
2000
0000
0000
0001
0000
0000
3001
0000
,
0002
0000
0000
0010
0000
0000
0013
0000
0002
0000
0000
0100
0000
0000
0103
0000
,
0002
0000
0000
1000
0000
0000
1003
0000
0002
0000
0000
0100
0000
0000
0103
0000
,
0200
0000
0000
0010
0000
0000
0310
0000
0200
0000
0000
0001
0000
0000
0301
0000
,
0200
0000
0000
1000
0000
0000
1300
0000
0200
0000
0000
0010
0000
0000
0310
0000
,
0020
0000
0000
1000
0000
0000
1030
0000
0020
0000
0000
0100
0000
0000
0130
0000
,
0001
1000
0000
0001
0000
1000
0000
0010
0000
0100
0000
0010
0100
0000
0001
0000
,
2000
0000
0000
0100
0000
0000
3100
0000
0020
0000
0000
0001
0000
0000
0031
0000
,
2000
0000
0000
0001
0000
0000
3001
0000
0002
0000
0000
0100
0000
0000
0103
0000
,
0020
0000
0000
1000
0000
0000
0130
0000
0002
0000
0000
1000
0000
0000
0103
0000
,
2000
0000
0000
0010
0000
0000
3001
0000
0200
0000
0000
0010
0000
0000
0301
0000
,
2000
0000
0000
0010
0000
0000
3010
0000
0002
0000
0000
0100
0000
0000
0103
0000
,
2000
0000
0000
0100
0000
0000
3100
0000
0020
0000
0000
0001
0000
0000
0031
0000
,
2000
0000
0000
0010
0000
0000
3001
0000
2000
0000
0000
0100
0000
0000
3001
0000
,
1000
0001
0000
1000
0000
0001
0000
0100
0000
0010
0000
0100
0010
0000
1000
0000
,
0002
0000
0010
0000
0010
0000
0013
0000
0000
0000
0000
0000
,
2000
0000
0100
0000
0100
0000
3100
0000
0000
0000
0000
0000
,
0001
0100
0000
0010
0000
1000
0000
0001
0000
0100
0000
0010
1000
0000
0002
0000
,
0000
0000
0100
0000
0100
0000
0103
0000
0001
0000
1000
0000
0001
1000
0001
1000
,
0001
0010
0000
0001
0010
0000
0000
0000
0001
1000
0001
1000
0001
0100
0001
0000
,
1000
0100
0010
0001
0000
1000
0000
0100
0000
0010
0000
0001
1000
0000
0001
0000
,
0100
0010
0000
0100
0010
0000
0000
0000
1000
0100
0010
0001
0010
0100
1000
0000
,
0001
0100
0010
1000
0000
0001
0000
0100
0000
0010
0000
1000
0001
0000
1000
0000
,
0002
0000
0000
0000
,
0000
1000
0000
0000
1000
0000
1003
0000
,
1000
0100
0000
1000
0100
0000
0000
0000
0010
0001
0010
0001
0100
0010
1000
0000
,
0001
0010
0100
1000
0000
0001
0000
0010
0000
0100
0000
1000
0000
0001
1000
0000
,
0001
1000
0000
0001
1000
0000
0000
0000
0010
0100
0010
0100
0001
1000
0001
0000
,
1001
2002
0000
3003
,
0001
0100
0001
0100
0010
1000
0000
1010
0000
0000
1000
0000
0002
0000
0000
0000
,
1003
0100
1000
0100
0010
0001
0000
1001
0000
1000
0001
0000
2000
0000
0000
0000
,
3010
0000
0100
0000
0001
0100
0000
0101
0000
0000
0001
0000
2000
0000
0000
0000
,
3010
0100
0001
0100
0010
0100
0000
0101
0000
0001
1000
0000
0002
0000
0000
0000
,
0103
0000
0001
0000
0100
0010
0000
0110
0000
0000
0010
0000
2000
0000
0000
0000
,
3100
0010
0100
0010
0001
1000
0000
1001
0000
1000
0001
0000
0002
0000
0000
0000
,
1003
0000
0100
0010
0000
0001
1000
0000
1000
0000
0100
0010
0000
0001
1000
0000
,
0001
0000
0100
0010
0000
1000
0001
0000
0001
0000
0100
0010
0000
1000
0002
0000
,
1003
0001
0000
1001
0000
0000
0001
0000
0200
0000
0000
0000
0310
1000
0010
1000
,
0001
0100
0000
0101
0000
0001
1000
0000
0020
0000
0000
0000
1030
0000
0001
0000
,
1000
0100
0000
1100
0000
0000
1000
0000
0020
0000
0000
0000
0130
0001
1000
0100
,
0010
0001
0000
1001
0000
0001
1000
0000
0200
0000
0000
0000
0310
0000
0001
0000
,
1000
0001
0000
1001
0000
0000
0001
0000
0020
0000
0000
0000
0031
1000
0010
0100
,
0001
1000
0000
1001
0000
1000
0100
0000
0010
0001
0010
0001
1000
0000
0100
0001
,
0000
0100
1000
0000
0001
0000
0100
1000
0000
0100
0001
0000
1000
0001
0000
0101
,
0000
0101
0000
1100
0000
1100
0000
0100
0010
0000
0100
0000
0000
0000
0000
0000
;

//--------------- dance-single - ----------------
#NOTES:
     dance-single:
     :
     Challenge:
     16:
     0,0,0,0,0:
0000
0000
0000
0000
,
0000
0000
0000
0000
,
0000
0000
0000
0000
,
0000
0000
0000
0000
,
0001
0000
1000
0000
0100
1000
0000
1100
0000
0000
0000
0000
0000
0000
0000
0000
,
0100
0010
0100
0010
0001
1000
0000
1001
0000
0000
0000
0000
0000
0000
0000
0000
,
0001
0000
1000
0000
0010
0100
0000
0101
0000
0000
0000
0000
0000
0000
0000
0000
,
0001
0100
0001
1000
0100
1000
0000
1100
0000
1000
0001
0000
0020
0000
0000
0000
,
0031
0000
0100
0000
0010
1000
0000
1100
0000
0000
1000
0000
0001
0000
0000
0000
,
1000
0100
0010
0100
1000
0100
0000
1100
0000
0000
1000
0000
0001
0000
0000
0000
,
0010
0000
0001
0000
1000
0010
0000
1010
0000
0000
0010
0000
0100
0000
0000
0000
,
0001
0010
0100
0010
0100
1000
0000
1001
0000
0001
1000
0000
0200
0000
0000
0000
,
1300
0000
0001
0000
0010
0001
0000
0011
0000
0000
0001
0000
1000
0000
0000
0000
,
0010
1000
0010
0100
0010
1000
0000
1001
0000
0000
1000
0000
0001
0000
0000
0000
,
0100
0000
0001
0000
0100
0010
0000
1010
0000
0000
1000
0000
0001
0000
0000
0000
,
0001
0010
0001
1000
0010
0100
0000
0101
0000
0001
0100
0000
0020
0000
0000
0000
,
1030
0000
0001
0000
0000
0101
0000
1100
0000
0000
0000
0000
0002
0000
0000
0000
,
1003
0000
0001
0000
0010
0000
0000
0011
0000
0000
1010
0000
2000
0000
0000
0000
,
3010
0000
1000
0000
0000
1010
0000
1100
0000
0000
0000
0000
0002
0000
0000
0000
,
0013
0000
0001
0000
0100
0000
0000
0110
0000
0000
1001
0000
2000
0000
0000
0000
,
3001
0000
1000
0000
0000
1100
0000
0011
0000
0000
0000
0000
0020
0000
0000
0000
,
0031
0000
1000
0000
0001
0000
0000
1001
0000
0000
0101
0000
0200
0000
0000
0000
,
0301
0000
1000
0000
0000
1100
0000
0110
0000
0000
0000
0000
0020
0000
0000
0000
,
0031
0000
1000
0000
0010
0000
0000
1010
0000
0000
0110
0000
0200
0000
0300
0000
,
0011
0000
1001
0000
0011
0000
2002
0000
0000
3003
0000
0000
,
1010
0000
1001
0000
1010
0000
2002
0000
0000
3003
0000
0000
,
0101
0000
1001
0000
0101
0000
2002
0000
0000
3003
0000
0000
,
0001
0100
0000
0010
0000
1000
0000
0010
0000
0100
0000
0001
1000
0000
0002
0000
,
0100
0100
0100
0100
,
0010
0010
0010
0013
,
0001
1000
0100
0100
0010
0010
0001
2002
,
0000
0000
0000
3003
,
0001
0000
1000
0000
0100
1000
0000
1100
0000
0000
1000
0000
0002
0000
0000
0000
,
1003
0100
1000
0100
0010
0001
0000
1001
0000
1000
0001
0000
2000
0000
0000
0000
,
3001
0000
0010
0000
0001
1000
0000
1001
0000
0000
1000
0000
0002
0000
0000
0000
,
0103
0010
1000
0010
0100
0010
0000
1010
0000
1000
0001
0000
2000
0000
0000
0000
,
3010
0000
1000
0000
0010
0100
0000
0101
0000
0000
0100
0000
0002
0000
0000
0000
,
0013
0001
1000
0001
0010
0001
0000
1001
0000
1000
0010
0000
2000
0000
0000
0000
,
3001
0000
0100
0010
0000
0100
0001
0000
1000
0000
0100
0010
0000
0100
1000
0000
,
0001
0100
0000
0101
0000
1100
0000
0101
0000
1100
0000
0001
1000
0000
0001
0000
,
1000
0000
0100
0000
0010
0001
0000
1001
0000
0000
1000
0000
0020
0000
0000
0000
,
0130
0001
1000
0100
1000
0001
0000
1001
0000
0001
1000
0000
0200
0000
0000
0000
,
0310
0000
0001
0000
1000
0010
0000
1010
0000
0000
1000
0000
0020
0000
0000
0000
,
0130
0001
1000
0001
0100
0001
0000
0101
0000
0001
1000
0000
0200
0000
0000
0000
,
0310
0000
0001
0000
1000
0010
0000
0110
0000
0000
0100
0000
0020
0000
0000
0000
,
1030
0100
1000
0100
1000
0001
0000
0011
0000
0001
1000
0000
0200
0000
0000
0000
,
0310
0000
0001
1000
0000
0001
1000
0000
0100
0000
1000
0001
0000
1000
0001
0000
,
0100
0010
0000
1010
0000
0011
0000
1010
0000
0011
0000
0001
1000
0000
0010
0000
,
0200
0000
0000
0301
0000
0000
0101
0000
0002
0000
0000
1003
0000
0000
1001
0000
,
2000
0000
0000
3100
0000
0000
1100
0000
0020
0000
0000
0031
0000
0000
0011
0000
,
0002
0003
0000
0101
0000
0100
0001
0000
2000
3000
0000
1100
0000
0100
1000
0000
,
0002
0003
0000
0101
0000
0100
0001
0000
2000
3100
0000
0110
0000
0100
1000
0000
,
0020
0000
0000
1030
0000
0000
1010
0000
0200
0000
0000
0301
0000
0000
0101
0000
,
0002
0000
0000
1003
0000
0000
1001
0000
2000
0000
0000
3100
0000
0000
1100
0000
,
2000
3000
0000
1010
0000
0010
1000
0000
0002
0003
0000
0011
0000
0010
0001
0000
,
2000
3000
0010
0100
0000
0010
0100
0000
0002
0003
0010
0100
0000
0010
0100
0000
,
2000
0000
0000
3001
0000
0000
1001
0000
0002
0000
0000
0103
0000
0000
0101
0000
,
0200
0000
0000
0310
0000
0000
0110
0000
0020
0000
0000
1030
0000
0000
1010
0000
,
2000
3000
0000
1100
0000
0100
1000
0000
0020
0130
0000
0110
0000
0100
0001
0000
,
2000
3000
0000
1010
0000
0010
1000
0000
0002
0103
0000
0110
0000
0100
0001
0000
,
2000
3000
0000
1001
0000
0000
1100
0000
0002
0003
0000
1001
0000
0000
0101
0000
,
2000
3000
0000
1001
0000
0000
1010
0000
0002
0003
0000
1001
0000
0000
0011
0000
,
2000
3000
0000
1100
0000
0010
0001
0000
2000
3000
0000
1010
0000
0100
0001
0000
,
1000
0001
0000
1001
0000
1100
0000
1001
0000
0101
0000
0100
0010
0000
1000
0000
,
1010
0000
1100
0000
0101
0000
2200
0000
0000
3300
0000
0000
,
0011
0000
0101
0000
1100
0000
0202
0000
0000
0303
0000
0000
,
0001
1000
0000
1001
0000
1010
0000
1001
0000
0011
0000
0001
1000
0000
0020
0000
,
0130
0000
0001
0000
1000
0100
1000
0100
0010
0001
0010
0001
1000
0100
0010
0001
,
1000
0010
0000
1000
0002
0000
0100
0000
0103
0000
0020
0000
1000
0000
1030
0000
,
0001
0010
0001
0000
2000
0000
0100
0000
3100
0000
0020
0000
0001
0000
0031
0000
,
1000
0001
0000
1000
0001
0000
0000
0000
0010
0001
1000
0100
0001
0100
1000
0000
,
0001
0100
0001
1000
0000
1100
0000
0101
0000
1100
0000
0101
0000
0001
1000
0000
,
0020
0000
0000
0000
,
0200
0000
0000
0330
,
0001
0100
0000
0001
1000
0000
0000
0000
1000
0100
0010
0001
1000
0100
1000
0000
,
0001
0100
0001
1000
0000
2000
0000
3001
0000
0002
0000
1003
0010
1000
0001
0000
,
0100
0010
0000
0100
0020
0000
0000
0000
0130
0001
1000
0100
0001
0100
1000
0000
,
0110
2002
0000
3003
,
0001
0100
0010
0001
0010
1000
0000
1001
0000
0000
0001
0000
2000
0000
0000
0000
,
3100
0001
0100
1000
0100
0010
0000
0011
0000
0001
1000
0000
0200
0000
0000
0000
,
0310
0001
0010
1000
0010
0100
0000
1100
0000
0000
1000
0000
0020
0000
0000
0000
,
0130
1000
0100
0001
0100
0010
0000
1010
0000
0010
0100
0000
0002
0000
0000
0000
,
0103
0001
1000
0100
0010
0100
0000
0011
0000
0000
0001
0000
2000
0000
0000
0000
,
3010
0100
0001
0100
1000
0100
0000
0101
0000
0001
1000
0000
0020
0000
0000
0000
,
1030
0100
0010
1000
0001
0100
0010
0000
0001
0100
0010
0001
1000
0100
0010
0000
,
1000
0010
0100
1000
0001
0010
0100
0000
0001
0010
0100
0001
1000
0010
0200
0300
,
1000
0001
0000
1001
0000
0000
0000
0000
2000
0000
0000
0000
3100
0010
0001
1000
,
0010
0100
0000
0101
0000
0001
1000
0000
0200
0000
0000
0000
0310
0001
0010
1000
,
0010
0100
0000
0110
0000
0000
0100
0000
0020
0000
0000
0000
0130
1000
0010
0100
,
0001
0010
0000
0011
0000
0001
1000
0000
0002
0000
0000
0000
0103
1000
0100
0001
,
0100
0010
0000
1001
0000
0000
0001
0000
2000
0000
0000
0000
3010
0100
1000
0100
,
0001
0010
0000
0011
0000
0001
1000
0000
0020
0000
0000
0000
0130
0001
0010
1000
,
0010
0001
0100
0000
0010
1000
0100
0001
0100
1000
0010
0000
0100
0001
0000
0011
,
0000
1010
0000
0011
0000
1010
0000
0010
0100
0000
1001
0000
0000
0000
0000
0000
;

//--------------- dance-double - ----------------
#NOTES:
     dance-double:
     :
     Easy:
     10:
     0,0,0,0,0:
00000000
00000000
00000000
00000000
,
00000000
00000000
00000000
00000000
,
00000000
00000000
00000000
00000000
,
00000000
00000000
00000000
00000000
,
10000000
01000000
00000000
01000000
,
00010000
01000000
00000000
00010000
,
00001000
00010000
00000000
00001000
,
00000100
00000001
00000000
00001001
,
00000001
00001000
00000100
00000000
,
00001000
00000100
00001000
00000000
00001100
00000000
00000100
00000000
,
00010000
00001000
00100000
00010000
,
10000000
00010000
10000000
00000000
10100000
00000000
00100000
00000000
,
01000000
00010000
00100000
00110000
,
00010000
00100000
10000000
00000000
00100000
00000000
00010000
00000000
,
00001000
00000010
00000100
00000001
,
00001000
00000010
00000001
00000000
00000010
00000000
00001010
00000000
,
00001000
00000000
00000010
00001000
00000200
00000000
00000000
00000000
,
00010300
00001000
00010000
00000000
,
00001000
00000000
00100000
00010000
02000000
00000000
00000000
00000000
,
03100000
10000000
00010000
00000000
,
10000000
00000000
01000000
00100000
00020000
00000000
00000000
00000000
,
00130000
00001000
00100000
00000000
,
00010000
00000000
10000000
01000000
00020000
00000000
00000000
00000000
,
00031000
00000010
00000100
00001000
,
00002002
00000000
00003003
00000000
,
20020000
00000000
30030000
00000000
,
00002002
00000000
00003003
00000000
,
20020000
00000000
30030000
00000000
,
00022000
00000000
00000000
00000000
,
00000000
00000000
00000000
00000000
00000000
00000000
00000000
00000000
00000000
00000000
00000000
00000000
00000000
00000000
00000000
00000000
00000000
00000000
00000000
00000000
00000000
00000000
00000000
00000000
00000000
00000000
00000000
00000000
00000000
00000000
00000000
00000000
00000000
00000000
00000000
00000000
00000000
00000000
00000000
00000000
00000000
00000000
00000000
00000000
00000000
00000000
00000000
00000000
00000000
00000000
00000000
00000000
00000000
00000000
00000000
00000000
00000000
00000000
00000000
00000000
00000000
00000000
00000000
00000000
00000000
00000000
00000000
00000000
00000000
00000000
00000000
00000000
00000000
00000000
00000000
00000000
00000000
00000000
00000000
00000000
00000000
00000000
00000000
00000000
00000000
00000000
00000000
00000000
00000000
00000000
00000000
00000000
00000000
00000000
00000000
00000000
00000000
00000000
00000000
00000000
00000000
00000000
00000000
00000000
00000000
00000000
00000000
00000000
00000000
00000000
00000000
00000000
00000000
00000000
00000000
00000000
00000000
00000000
00000000
00000000
00000000
00000000
00000000
00000000
00000000
00000000
00000000
00000000
00000000
00000000
00000000
00000000
00000000
00000000
00000000
00000000
00000000
00000000
00000000
00000000
00000000
00000000
00000000
00000000
00000000
00000000
00000000
00000000
00000000
00000000
00000000
00000000
00000000
00000000
00000000
00000000
00000000
00000000
00000000
00000000
00000000
00000000
00000000
00000000
00000000
00000000
00000000
00033000
00000000
00000000
00000000
00000000
00000000
00000000
00000000
00000000
00000000
00000000
00000000
00000000
00000000
00000000
00000000
00000000
00000000
00000000
00000000
00000000
00000000
00000000
00000000
00000000
,
00010000
00001000
00010000
00001000
00010000
00001000
00010000
00002000
,
00000000
00000000
00000000
00000000
,
00103000
00010000
01010000
01000000
,
00100000
10000000
00100000
00000000
01000000
00000000
00010000
00000000
,
00100000
00001000
00011000
00010000
,
00000100
00001000
00000100
00000000
00001000
00000000
00000010
00000000
,
00000100
00000001
00000101
00000001
,
00001000
00000100
00001000
00000000
00000001
00000000
00000010
00000000
,
00000002
00000103
00002000
00013000
,
00020000
01030000
20000000
31000000
,
00000000
01100000
10010000
00000000
,
10000000
01000000
10000000
00000000
00100000
00000000
01000000
00000000
,
00010000
00100000
00110000
00010000
,
00100000
00001000
00100000
00000000
00001000
00000000
00010000
00000000
,
00000010
00000100
00000110
00000010
,
00000100
00000001
00000100
00000000
00000001
00000000
00001000
00000000
,
00000002
00000013
00000200
00001300
,
00020000
00130000
02000000
13000000
,
00000000
10010000
10000000
10000000
,
01000000
01000000
00010000
00010000
,
00001000
00001000
00000100
00000100
,
00000001
00000001
00000010
00000010
,
00001000
00001000
00000010
00000010
,
00000001
00000001
00000100
00000100
,
00000010
00000010
00001000
00001000
,
00000100
00010000
00001000
00010000
,
00000000
10010000
00010000
00010000
,
10000000
10000000
00100000
00100000
,
01000000
01000000
00001000
00001000
,
00010000
00010000
00001000
00001000
,
00010000
00010000
00000010
00000010
,
00000100
00000100
00000010
00000010
,
00001000
00001000
00000100
00000100
,
00000010
00000001
00001000
00000010
,
00002002
00000000
00003003
00000000
,
20020000
00000000
30030000
00000000
,
00011000
00000000
00000000
00000000
,
00022000
00000000
00000000
00000000
00000000
00000000
00000000
00033000
,
00010000
00000000
00010000
01000000
,
00100000
10000000
01000000
00010000
,
00001000
00011000
00001000
00000100
,
00000001
00000010
00001000
00010000
,
00022000
00000000
00000000
00000000
,
00000000
00000000
00000000
00033000
,
00010000
00000000
00011000
00000000
00001000
00100000
00010000
00000000
,
10000000
10000000
00100000
00100000
,
01000000
00010000
01000000
00000000
00010000
10000000
00010000
00000000
,
10000000
00000000
20020000
00000000
00000000
00000000
00000000
30030000
,
10000000
00100000
01010000
01000000
,
00010000
00100000
00010000
00000000
00110000
00000000
00101000
00000000
,
00001000
00010000
00010100
00000100
,
00001000
00000010
00001000
00000000
00001010
00000000
00000101
00000000
,
00000001
00001000
00000011
00001000
,
00000001
00000100
00000010
00000000
00001010
00000000
00001100
00000000
,
00000200
00010300
00002000
00103000
,
00020000
01030000
00200000
10300000
,
01100000
00000000
10010000
00000000
00000000
00000000
10000000
00010000
,
01000000
00001000
00001000
00010000
,
00001000
00010000
00001000
00000000
00010000
00000000
00000100
00001000
,
00000100
00000010
00000001
00001000
,
00000001
00001000
00000001
00000000
00000100
00000000
00000010
00001000
,
00000100
00010000
00010000
00002000
,
00013000
00020000
00031000
00101000
,
00010100
00101000
00010100
00000000
;
