#TITLE:Intergalactic;
#SUBTITLE:;
#ARTIST:Dirty Androids feat. Nicole Curry;
#TITLETRANSLIT:;
#SUBTITLETRANSLIT:;
#ARTISTTRANSLIT:;
#GENRE:;
#CREDIT:;
#BANNER:Intergalactic.png;
#BACKGROUND:Intergalactic-bg.png;
#LYRICSPATH:;
#CDTITLE:cdtitle.png;
#MUSIC:Intergalactic.ogg;
#OFFSET:0.000000;
#SAMPLESTART:67.606003;
#SAMPLELENGTH:13.521000;
#SELECTABLE:YES;
#BPMS:0.000000=142.000000
;
#STOPS:
;
#BGCHANGES:;
#KEYSOUNDS:;
#ATTACKS:;

//---------------dance-single - MEGAtive----------------
#NOTES:
     dance-single:
     :
     Easy:
     11:
     0.498932,0.475244,0.140051,0.052519,0.021883,399.000000,383.000000,16.000000,6.000000,0.000000,0.000000,0.498932,0.475244,0.140051,0.052519,0.021883,399.000000,383.000000,16.000000,6.000000,0.000000,0.000000:
0000
0000
0000
0000
,
0000
0000
0000
0000
,
0000
0000
0000
0000
,
0000
0000
0000
0000
,
1001
0000
0000
0000
0000
0000
0001
0000
0000
0000
0000
1000
0000
0000
0000
0100
0000
0000
0000
0000
0000
0100
0000
0000
,
0010
0000
0000
0000
0000
0001
0000
0000
1000
0000
0000
0001
0000
0000
0000
0001
0000
0000
0000
0000
0000
0100
0000
0000
,
0001
0000
0000
0000
0000
0000
0001
0000
0000
0000
0000
1000
0000
0000
0000
0010
0000
0000
0000
0000
0000
0010
0000
0000
,
0100
0001
1000
0002
2000
0000
3003
0000
,
0001
0010
0100
0010
0001
0100
0010
0000
,
1000
0100
0010
0100
1000
0010
0100
0001
,
1000
0010
0100
0010
1000
0100
0010
0000
,
0001
0100
0010
0100
0001
0010
0100
1000
,
0001
0100
0010
0100
0001
0010
0100
0000
,
1000
0010
0100
0010
1000
0100
0010
0001
,
1000
0100
0010
0100
1000
0010
0100
0000
,
0001
0010
0100
0010
0001
0100
0010
1000
,
0001
0010
0001
0100
0001
1000
0100
0000
,
1000
0100
1000
0010
1000
0001
0010
0001
,
1000
0010
1000
0100
1000
0001
0100
0000
,
0001
0100
0001
0010
0001
1000
0010
1000
,
0001
0100
0001
0010
0001
1000
0010
0000
,
1000
0010
1000
0100
1000
0001
0100
0001
,
1000
0100
1000
0010
1000
0001
0010
0000
,
0001
0010
0001
0100
0001
1000
0100
1000
,
0001
0100
0010
1000
0001
0010
0100
0010
,
0000
0010
0001
0100
0100
0000
0000
0001
,
1000
0010
0100
0001
1000
0100
0010
0100
,
1000
0010
0100
0010
1000
0000
0001
0000
,
0001
0010
0100
1000
0001
0100
0010
0100
,
0000
0100
0001
0010
0010
0000
0000
0001
,
1000
0100
0010
0001
1000
0010
0100
0010
,
1000
0100
0010
0100
1000
0000
0001
0000
,
2001
0000
0000
0000
,
3020
0000
0000
0000
,
0230
0000
0000
0000
,
0302
0000
0000
0000
,
1003
0000
0001
0000
0001
1000
0010
0000
,
0001
0000
1000
0000
1000
0001
0010
0000
,
0001
1000
0001
0010
0001
1000
0001
0100
,
0010
1000
0001
0010
0100
1000
0001
0000
,
1000
0001
0100
0010
1000
0001
0010
0100
,
1000
0001
0100
0010
1000
0001
0010
0100
,
0000
1000
0010
0100
0001
1000
0100
0010
,
0001
1000
0010
0100
0001
1000
0100
0010
,
0000
0001
0010
0100
1000
0001
0100
0010
,
1000
0001
0010
0100
1000
0001
0100
0010
,
0000
1000
0100
0010
0001
1000
0010
0100
,
0001
1000
0100
0010
0001
1000
0010
0100
,
0001
1000
0010
0100
0001
1000
0100
0010
,
0001
1000
0010
0100
0001
1000
0100
0010
,
0000
0001
0100
0010
1000
0001
0010
0100
,
1000
0001
0100
0010
1000
0001
0010
0100
,
0000
1000
0100
0010
0001
1000
0010
0100
,
0001
1000
0100
0010
0001
1000
0010
0100
,
0000
0001
0010
0100
1000
0001
0100
0010
,
1000
0001
0010
0100
1000
0001
0100
0010
,
1000
0000
1001
0000
0000
0010
1001
0000
,
0001
0000
1001
0000
1001
0010
0010
0000
,
1000
0000
1001
0000
0000
0100
1001
0000
,
0001
0000
1001
0000
1001
0100
0100
0000
,
0001
0000
1001
0000
0000
0010
1001
0000
,
1000
0000
1001
0000
1001
0010
0010
0000
,
0001
0000
1001
0000
0000
0100
1001
0000
,
1000
0000
0001
0000
0001
1000
0100
0010
;

//---------------dance-single - MEGAtive----------------
#NOTES:
     dance-single:
     :
     Medium:
     14:
     0.672746,0.754799,0.927839,0.227583,0.634607,538.000000,432.000000,106.000000,26.000000,28.000000,0.000000,0.672746,0.754799,0.927839,0.227583,0.634607,538.000000,432.000000,106.000000,26.000000,28.000000,0.000000:
0000
0000
0000
0000
,
0000
0000
0000
0000
,
0000
0000
0000
0000
,
0000
0000
0000
0000
,
1001
0000
0000
0000
0000
0000
1001
0000
0000
0000
0000
0100
0000
0000
0000
0110
0000
0000
0000
0000
0000
0001
0000
0000
,
1001
0000
0000
0000
0000
1001
0000
0000
0110
0000
0000
1001
0000
0000
0000
1001
0000
0000
0000
0000
0001
0010
0000
0000
,
1001
0000
0000
0000
0000
0000
1001
0000
0000
0000
0000
0010
0000
0000
0000
0110
0000
0000
0000
0000
0000
1000
0000
0000
,
1001
0000
0000
0001
0000
1000
0000
0000
0110
0000
0000
2002
0000
0000
0000
0000
3003
0000
1001
0000
0000
0000
0000
0000
,
0001
0010
0100
0010
0002
0103
0001
0010
,
0200
0000
0000
1300
0000
0000
0001
0000
1000
0000
0000
0001
0000
0000
0001
0000
0000
0000
0000
0000
1000
0001
0000
0000
,
1000
0100
0010
0100
2000
3010
1000
0100
,
0020
0000
0000
0031
0000
1000
0000
0000
0001
0000
0000
1000
0000
0000
1000
0000
0000
0000
0100
0000
0000
0010
0000
0000
,
0001
0100
0010
0100
0002
0013
0001
0100
,
0020
0000
0000
1030
0000
0000
0001
0000
1000
0000
0000
0001
0000
0000
0001
0000
0000
0000
0000
0000
1000
0001
0000
0000
,
1000
0010
0100
0010
2000
3100
1000
0010
,
0200
0000
0000
0301
0000
1000
0000
0000
0001
0000
0000
1000
0000
0000
1000
0000
0000
0000
0100
0000
0000
0010
0000
0000
,
0001
0100
0010
0100
0002
0013
1000
0001
,
0200
0000
0000
1300
0000
0000
0001
0000
1000
0000
0000
0001
0000
0000
0001
0000
0000
0000
0000
0000
1000
0001
0000
0000
,
1000
0010
0100
0010
2000
3100
0001
1000
,
0020
0000
0000
0031
0000
0000
1000
0000
0001
0000
0000
1000
0000
0000
1000
0000
0000
0000
0010
0000
0000
0100
0000
0000
,
0001
0010
0100
0010
0002
0103
1000
0001
,
0020
0000
0000
1030
0000
0000
0001
0000
1000
0000
0000
0001
0000
0000
0001
0000
0000
0000
0000
0000
1000
0001
0000
0000
,
1000
0100
0010
0100
2000
3010
0001
1000
,
0200
0000
0000
0301
0000
0000
1000
0000
0001
0000
0000
1000
0000
0000
1000
0000
0000
0000
0100
0000
0000
0010
0000
0000
,
0001
1000
0010
0100
0002
0013
1000
0001
,
0200
0000
0000
1300
0000
0001
0000
0000
1000
0000
0000
0001
0000
0010
0000
0000
0000
0000
0000
0000
0001
1000
0000
0000
,
0001
1000
0100
0010
0002
0103
1000
0001
,
0020
0000
0000
1030
0000
0001
0000
0000
1000
0000
0000
0001
0000
0100
0000
0001
0000
0000
1000
0000
0000
0001
0000
0000
,
1000
0001
0100
0010
2000
3100
0001
1000
,
0020
0000
0000
0031
0000
1000
0000
0000
0001
0000
0000
1000
0000
0100
0000
0000
0000
0000
0000
0000
1000
0001
0000
0000
,
1000
0001
0010
0100
2000
3010
0001
1000
,
0200
0000
0000
0301
0000
1000
0000
0000
0001
0000
0000
1000
0000
0010
0000
1000
0000
0000
0001
0000
0000
1000
0000
0000
,
1001
0000
0000
0000
0000
0000
0110
0000
0000
0000
0000
1001
0000
0000
0000
0000
0000
0000
0000
0000
0000
0000
0000
0000
,
0011
0000
0000
0000
0000
1100
0000
0000
0000
0000
0000
0011
0000
0000
0000
0000
0000
0000
0000
0000
0000
0000
0000
0000
,
1010
0000
0000
0000
0000
0000
0101
0000
0000
0000
0000
1010
0000
0000
0000
0000
0000
0000
0000
0000
0000
0000
0000
0000
,
1001
0000
0000
0000
0000
0110
0000
0000
0000
0000
0000
1001
0000
0000
0000
0000
0000
0000
0000
0000
0000
0000
0000
0000
,
1001
0000
0000
0000
0000
0000
0110
0000
0000
0000
0000
1001
0000
0000
0000
0000
0000
0000
0000
0000
0000
0000
0000
0000
,
1100
0000
0000
0000
0000
0011
0000
0000
0000
0000
0000
1100
0000
0000
0000
0000
0000
0000
0000
0000
0000
0000
0000
0001
,
1000
0010
0100
0001
1000
0100
0010
0001
,
0101
0110
1010
1001
0011
0110
MMMM
0000
,
1001
0000
0000
0010
0000
0000
0001
0010
0001
0000
0000
1000
0000
0000
1010
0000
0000
0000
1001
0000
0000
0110
0000
0000
,
1001
0000
0000
0000
0000
0000
0001
0000
0010
0000
0000
0110
0000
0000
1001
0000
0000
0000
0010
0000
1001
0000
0000
0000
,
MMMM
0000
0000
0100
0000
0000
0001
0100
0001
0000
0000
1000
0000
0000
1100
0000
0000
0000
1001
0000
0000
0110
0000
0000
,
1001
0000
0000
0000
0000
0000
0001
0000
0100
0000
0000
0110
0000
0000
0000
1001
0000
0000
0110
0000
0000
1001
0000
0000
,
MMMM
0000
0000
0010
0000
0000
1000
0010
1000
0000
0000
0001
0000
0000
0011
0000
0000
0000
1001
0000
0000
0110
0000
0000
,
1001
0000
0000
0000
0000
0000
1000
0000
0010
0000
0000
0110
0000
0000
1001
0000
0000
0000
0010
0000
1001
0000
0000
0000
,
MMMM
0000
0000
0100
0000
0000
1000
0100
1000
0000
0000
0001
0000
0000
0101
0000
0000
0000
1001
0000
0000
0110
0000
0000
,
1001
0000
0000
0000
0000
0000
1000
0000
0100
0000
0000
0110
0000
0000
0000
0011
0000
0000
1001
0000
0000
1010
0000
0000
,
1001
0000
0000
0100
0000
0000
1000
0100
1000
0000
0000
0001
0000
0000
0101
0000
0000
0000
1001
0000
0000
0110
0000
0000
,
1001
0000
0000
0000
0000
0000
1000
0000
0100
0000
0000
0110
0000
0000
1001
0000
0000
0000
0100
0000
1001
0000
0000
0000
,
MMMM
0000
0000
0010
0000
0000
1000
0010
1000
0000
0000
0001
0000
0000
0011
0000
0000
0000
1001
0000
0000
0110
0000
0000
,
1001
0000
0000
0000
0000
0000
1000
0000
0010
0000
0000
0110
0000
0000
0000
1001
0000
0000
0110
0000
0000
1001
0000
0000
,
MMMM
0000
0000
0100
0000
0000
0001
0100
0001
0000
0000
1000
0000
0000
1100
0000
0000
0000
1001
0000
0000
0110
0000
0000
,
1001
0000
0000
0000
0000
0000
0001
0000
0100
0000
0000
0110
0000
0000
1001
0000
0000
0000
0100
0000
1001
0000
0000
0000
,
MMMM
0000
0000
0010
0000
0000
0001
0010
0001
0000
0000
1000
0000
0000
1010
0000
0000
0000
1001
0000
0000
0110
0000
0000
,
1001
0000
0000
0000
0000
0000
0001
0000
0010
0000
0000
0110
0000
0000
0000
1100
0000
0000
1001
0000
0000
0101
0000
0000
,
1001
0000
0000
1000
0000
0000
0001
1000
0000
0000
0000
0001
0000
0000
1000
0000
0000
0000
0001
0000
0000
0010
0000
0000
,
0100
0000
0000
0000
0000
0000
0100
0010
0000
0000
0000
1001
0000
0000
0000
0001
0000
0000
0000
0000
1000
0001
0000
0000
,
0100
0000
0000
0001
0000
0000
1000
0001
0000
0000
0000
1000
0000
0000
0001
0000
0000
0000
1000
0000
0000
0100
0000
0000
,
0010
0000
0000
0000
0000
0000
0010
0100
0000
0000
0000
1001
0000
0000
0000
1000
0000
0000
0001
0000
0000
0100
0000
0000
,
0001
0000
0000
1000
0000
0000
0001
1000
0000
0000
0000
0001
0000
0000
1000
0000
0000
0000
0001
0000
0000
0100
0000
0000
,
0010
0000
0000
0000
0000
0000
0010
0100
0000
0000
0000
1001
0000
0000
0000
0001
0000
0000
0000
0000
1000
0001
0000
0000
,
0100
0000
0000
0001
0000
0000
1000
0001
0000
0000
0000
1000
0000
0000
0001
0000
0000
0000
1000
0000
0000
0100
0000
0000
,
0010
0000
0000
0000
0000
0000
0010
0100
0000
0000
0000
1001
0000
0000
0000
1000
0000
0000
0001
0000
0000
1000
0000
0000
;

//---------------dance-single - MEGAtive----------------
#NOTES:
     dance-single:
     :
     Hard:
     16:
     0.755276,0.922532,1.689367,0.008753,0.787787,604.000000,411.000000,193.000000,1.000000,284.000000,0.000000,0.755276,0.922532,1.689367,0.008753,0.787787,604.000000,411.000000,193.000000,1.000000,284.000000,0.000000:
// measure 0
0000
0000
0000
0000
,  // measure 1
0000
0000
0000
0000
,  // measure 2
0000
0000
0000
0000
,  // measure 3
0000
0000
0000
0000
,  // measure 4
1001
0000
0000
0000
0000
0000
1001
0000
0000
0000
0000
1100
0000
0000
0000
1001
0000
0000
0000
0000
0000
0001
0000
0100
,  // measure 5
0001
0000
0000
0000
0000
1001
0000
0000
0010
0000
0000
1001
0000
0000
0000
1001
0000
0000
0000
0000
1000
0010
0000
0000
,  // measure 6
1001
0000
0000
0000
0000
0000
1001
0000
0000
0000
0000
0011
0000
0000
0000
1001
0000
0000
0000
0000
0000
1000
0000
0000
,  // measure 7
1001
0000
0000
0010
0000
0010
0000
0000
0100
0000
0000
1001
0000
0000
0001
0000
0001
0000
1000
0000
0000
0000
0000
0000
,  // measure 8
1001
0000
0000
MMMM
0000
0000
1001
0000
0000
1000
0000
0001
0000
0000
0000
0100
0000
0000
MMMM
0000
0000
0001
0000
0010
,  // measure 9
0100
0000
0000
1000
0000
0001
0000
0000
0001
0000
0000
0100
0000
0000
0100
0000
0000
0000
MMMM
0000
0000
0001
0000
0000
,  // measure 10
1001
0000
0000
MMMM
0000
0000
1001
0000
0000
0001
0000
1000
0000
0000
0000
0100
0000
0000
MMMM
0000
0000
1000
0000
0010
,  // measure 11
0100
0000
0000
0001
0000
1000
0000
0000
1000
0000
0000
0100
0000
0000
0100
0000
0000
0000
MMMM
0000
0000
1010
0000
0000
,  // measure 12
1001
0000
0000
MMMM
0000
0000
1001
0000
0000
0001
0000
1000
0000
0000
0000
0100
0000
0000
MMMM
0000
0000
1000
0000
0010
,  // measure 13
0100
0000
0000
0001
0000
1000
0000
0000
1000
0000
0000
0100
0000
0000
0100
0000
0000
0000
MMMM
0000
0000
1000
0000
0000
,  // measure 14
1001
0000
0000
MMMM
0000
0000
1001
0000
0000
1000
0000
0001
0000
0000
0000
0100
0000
0000
MMMM
0000
0000
0001
0000
0010
,  // measure 15
0100
0000
0000
1000
0000
0001
0000
0000
0001
0000
0000
0100
0000
0000
0100
0000
0000
0000
MMMM
0000
0000
0011
0000
0000
,  // measure 16
1001
0000
0000
MMMM
0000
0000
1001
0000
0000
1000
0000
0010
0000
0000
0000
0100
0000
0000
MMMM
0000
0000
0100
0000
0100
,  // measure 17
0001
0000
0000
1000
0000
0001
0000
0000
0001
0000
0000
0010
0000
0000
0010
0000
0000
0000
MMMM
0000
0000
0100
0000
0000
,  // measure 18
1001
0000
0000
MMMM
0000
0000
1001
0000
0000
0001
0000
0100
0000
0000
0000
0010
0000
0000
MMMM
0000
0000
0010
0000
0010
,  // measure 19
1000
0000
0000
0001
0000
1000
0000
0000
1000
0000
0000
0100
0000
0000
0100
0000
0000
0000
MMMM
0000
0000
0010
0000
0000
,  // measure 20
1001
0000
0000
MMMM
0000
0000
1001
0000
0000
1000
0000
0100
0000
0000
0000
0010
0000
0000
MMMM
0000
0000
0010
0000
0010
,  // measure 21
0001
0000
0000
1000
0000
0001
0000
0000
0001
0000
0000
0100
0000
0000
0100
0000
0000
0000
MMMM
0000
0000
0010
0000
0000
,  // measure 22
1001
0000
0000
MMMM
0000
0000
1001
0000
0000
0001
0000
0010
0000
0000
0000
0100
0000
0000
MMMM
0000
0000
0100
0000
0100
,  // measure 23
1000
0000
0000
0001
0000
1000
0000
0000
1000
0000
0000
0010
0000
0000
0010
0000
0000
0000
MMMM
0000
0000
0100
0000
0000
,  // measure 24
1001
0000
0000
MMMM
0000
0000
1001
0000
0000
1000
0000
0010
0000
0000
0000
0110
0000
0000
MMMM
0000
0000
0100
0000
0100
,  // measure 25
0001
0000
0000
1000
0000
0001
0000
0000
1001
0000
0000
0110
0000
0000
1001
0000
0000
0000
MMMM
0000
0100
0001
0000
0000
,  // measure 26
1001
0000
0000
MMMM
0000
0000
1001
0000
0000
0001
0000
0100
0000
0000
0000
0110
0000
0000
MMMM
0000
0000
0010
0000
0010
,  // measure 27
1000
0000
0000
0001
0000
1000
0000
0000
1001
0000
0000
0110
0000
0000
1001
0000
0000
0000
MMMM
0000
0000
1010
0000
0000
,  // measure 28
1001
0000
0000
MMMM
0000
0000
1001
0000
0000
0001
0000
0010
0000
0000
0000
0110
0000
0000
MMMM
0000
0000
0100
0000
0100
,  // measure 29
1000
0000
0000
0001
0000
1000
0000
0000
1001
0000
0000
0110
0000
0000
1001
0000
0000
0000
MMMM
0000
0100
1000
0000
0000
,  // measure 30
1001
0000
0000
MMMM
0000
0000
1001
0000
0000
1000
0000
0100
0000
0000
0000
0110
0000
0000
MMMM
0000
0000
0010
0000
0010
,  // measure 31
0001
0000
0000
1000
0000
0001
0000
0000
1001
0000
0000
0110
0000
0000
1001
0000
0000
0000
MMMM
0000
0000
0011
0000
0000
,  // measure 32
1001
0000
0000
0000
0000
0000
1001
0000
0000
0000
0000
0101
0000
0000
0000
1001
0000
0000
0000
0000
0000
0000
0000
0000
,  // measure 33
1001
0000
0000
0000
0000
0110
0000
0000
0000
0000
0000
1001
0000
0000
0000
0000
0000
0000
0000
0000
0000
0000
0000
0000
,  // measure 34
1001
0000
0000
0000
0000
0000
1001
0000
0000
0000
0000
1100
0000
0000
0000
1001
0000
0000
0000
0000
0000
0000
0000
0000
,  // measure 35
1001
0000
0000
0000
0000
0110
0000
0000
0000
0000
0000
1001
0000
0000
0000
0000
0000
0000
0000
0000
0000
0000
0000
0000
,  // measure 36
1001
0000
0000
0000
0000
0000
1001
0000
0000
0000
0000
0110
0000
0000
0000
1000
0000
0000
1001
0000
0000
0000
0000
0000
,  // measure 37
0011
0000
0000
0000
0000
1100
0000
0000
0000
0000
0000
0011
0000
0000
0000
0000
0000
0000
0000
0000
0000
0000
0000
0000
,  // measure 38
1001
0011
1001
1010
1001
1100
1001
0101
,  // measure 39
1001
0000
0001
MMMM
0000
0010
MMMM
0000
0100
MMMM
0000
1000
MMMM
0000
0010
MMMM
0000
0000
0200
0000
0000
0000
0300
0000
,  // measure 40
MMMM
0000
0000
1001
0000
0000
1100
0010
1100
0000
0000
1001
0000
0000
MMMM
0000
0000
0000
0011
0000
0000
0110
0000
0000
,  // measure 41
1100
0000
0000
MMMM
0000
0000
0011
0100
0011
0000
0000
0110
0000
0000
0000
1010
0000
0000
1000
0000
1001
0000
0000
0000
,  // measure 42
MMMM
0000
0000
1001
0000
0000
0101
0010
0101
0000
0000
1001
0000
0000
MMMM
0000
0000
0000
1010
0000
0000
0110
0000
0000
,  // measure 43
0101
0000
0000
MMMM
0000
0000
1010
0100
1010
0000
0000
0110
0000
0000
0000
0011
0000
0000
1001
0000
0000
1010
0000
0000
,  // measure 44
MMMM
0000
0000
1001
0000
0000
1010
0100
1010
0000
0000
1001
0000
0000
MMMM
0000
0000
0000
0101
0000
0000
0110
0000
0000
,  // measure 45
1010
0000
0000
MMMM
0000
0000
0101
0010
0101
0000
0000
0110
0000
0000
0000
1100
0000
0000
1000
0000
1001
0000
0000
0000
,  // measure 46
MMMM
0000
0000
1001
0000
0000
0101
0010
0101
0000
0000
1001
0000
0000
1010
0000
0000
0000
1010
0000
0000
0110
0000
0000
,  // measure 47
0101
0000
0000
0001
0000
0000
1010
0100
1010
0000
0000
0110
0000
0000
0000
0011
0000
0000
1001
0000
0000
1010
0000
0000
,  // measure 48
MMMM
0000
0000
1001
0000
0000
0101
0010
0101
0000
0000
1001
0000
0000
MMMM
0000
0000
0000
1010
0000
0000
0110
0000
0000
,  // measure 49
0101
0000
0000
MMMM
0000
0000
1010
0100
1010
0000
0000
0110
0000
0000
0000
0011
0000
0000
0001
0000
1001
0000
0000
0000
,  // measure 50
MMMM
0000
0000
1001
0000
0000
1100
0010
1100
0000
0000
1001
0000
0000
MMMM
0000
0000
0000
0011
0000
0000
0110
0000
0000
,  // measure 51
1100
0000
0000
MMMM
0000
0000
0011
0100
0011
0000
0000
0110
0000
0000
0000
1010
0000
0000
1001
0000
0000
0011
0000
0000
,  // measure 52
MMMM
0000
0000
1001
0000
0000
0011
0100
0011
0000
0000
1001
0000
0000
MMMM
0000
0000
0000
1100
0000
0000
0110
0000
0000
,  // measure 53
0011
0000
0000
MMMM
0000
0000
1100
0010
1100
0000
0000
0110
0000
0000
0000
0101
0000
0000
0001
0000
1001
0000
0000
0000
,  // measure 54
MMMM
0000
0000
1001
0000
0000
1010
0100
1010
0000
0000
1001
0000
0000
0101
0000
0000
0000
0101
0000
0000
0110
0000
0000
,  // measure 55
1010
0000
0000
1000
0000
0000
0101
0010
0101
0000
0000
0110
0000
0000
0000
1100
0000
0000
1001
0000
0000
0101
0000
0000
,  // measure 56
1001
0000
0000
MMMM
0000
0000
0001
1000
0000
0000
0000
0010
0000
0000
0000
1000
0000
0000
0001
0000
0000
0010
0000
0000
,  // measure 57
0100
0000
0000
MMMM
0000
0000
1000
0100
0000
0000
0000
0010
0000
0000
0100
0000
0000
0000
MMMM
0000
0000
1000
0000
0000
,  // measure 58
1001
0000
0000
MMMM
0000
0000
0001
1000
0000
0000
0000
0010
0000
0000
0000
1000
0000
0000
0001
0000
0000
0010
0000
0000
,  // measure 59
0100
0000
0000
MMMM
0000
0000
1000
0001
0000
0000
0000
0100
0000
0000
1000
0000
0000
0000
0100
0000
0000
0001
0000
0000
,  // measure 60
1001
0000
0000
MMMM
0000
0000
1000
0001
0000
0000
0000
0100
0000
0000
0000
0001
0000
0000
1000
0000
0000
0100
0000
0000
,  // measure 61
0010
0000
0000
MMMM
0000
0000
0001
0010
0000
0000
0000
0100
0000
0000
0010
0000
0000
0000
MMMM
0000
0000
0001
0000
0000
,  // measure 62
1001
0000
0000
MMMM
0000
0000
1000
0001
0000
0000
0000
0100
0000
0000
0000
0001
0000
0000
1000
0000
0000
0100
0000
0000
,  // measure 63
0010
0000
0000
MMMM
0000
0000
0001
1000
0000
0000
0000
0010
0000
0000
0001
0000
0000
0000
1000
0000
0000
0100
0000
0000
;
