#VERSION:0.83;
#TITLE:Imagine;
#SUBTITLE:;
#ARTIST:KEY;
#TITLETRANSLIT:;
#SUBTITLETRANSLIT:;
#ARTISTTRANSLIT:;
#GENRE:POP;
#ORIGIN:;
#CREDIT:;
#BANNER:Imagine.png;
#BACKGROUND:Imagine-bg.png;
#PREVIEWVID:;
#JACKET:Imagine-jacket.png;
#CDIMAGE:;
#DISCIMAGE:;
#LYRICSPATH:;
#CDTITLE:;
#MUSIC:Imagine.ogg;
#OFFSET:-2.243000;
#SAMPLESTART:37.543999;
#SAMPLELENGTH:15.980000;
#SELECTABLE:YES;
#BPMS:0.000=107.011;
#STOPS:;
#DELAYS:;
#WARPS:;
#TIMESIGNATURES:0.000=4=4;
#TICKCOUNTS:0.000=4;
#COMBOS:0.000=1;
#SPEEDS:0.000=1.000=0.000=0;
#SCROLLS:0.000=1.000;
#FAKES:;
#LABELS:0.000=Song Start;
#LASTSECONDHINT:119.727989;
#BGCHANGES:;
#KEYSOUNDS:;
#ATTACKS:
;

//---------------dance-single - ----------------
#NOTEDATA:;
#CHARTNAME:;
#STEPSTYPE:dance-single;
#DESCRIPTION:;
#CHARTSTYLE:;
#DIFFICULTY:Beginner;
#METER:2;
#RADARVALUES:0.120638,0.173285,0.121604,0.094581,0.000000,125.000000,107.000000,18.000000,14.000000,0.000000,0.000000,0.000000,0.000000,0.000000,0.120638,0.173285,0.121604,0.094581,0.000000,125.000000,107.000000,18.000000,14.000000,0.000000,0.000000,0.000000,0.000000,0.000000;
#CREDIT:DDRDAIKENKAI;
#NOTES:
0000
0000
0000
0000
,
0000
0000
0000
0000
,
0000
0000
0000
0000
,
0000
0000
0000
0000
,
0000
0000
0000
0000
,
0000
0000
0000
0000
,
0000
0000
0000
0000
,
0000
0000
0000
0000
,
1000
1000
1000
0000
,
0001
0001
0001
0000
,
1000
1000
1000
0000
,
0001
0001
0001
0000
,
0100
0100
0100
0000
,
0010
0010
0010
0000
,
0100
0100
0100
0000
,
0020
0000
0030
0000
,
1001
0000
0001
0000
,
1000
0000
1000
0000
,
0010
0010
0010
0000
,
0100
0100
0100
0000
,
0110
0000
0010
0000
,
0100
0000
0100
0000
,
0001
0001
0001
0000
,
1001
0000
0000
0000
,
0110
0000
1000
0000
,
0001
0000
1000
0000
,
1001
0000
0110
0000
,
1001
0000
0000
0000
,
1000
0000
0001
0000
,
1000
0000
0001
0000
,
1001
0000
0110
0000
,
0100
0000
0000
0000
,
0020
0000
0030
0000
,
2000
0000
3000
0000
,
0002
0000
0003
0000
,
0200
0000
0300
0000
,
0002
0000
0003
0000
,
0020
0000
0030
0000
,
0200
0000
0300
0000
,
2000
0000
3000
0000
,
0001
0000
0001
0000
,
1000
1000
1000
0000
,
0100
0000
0100
0000
,
0010
0010
0010
0000
,
0002
0000
0000
0000
,
0000
0000
0003
0000
,
2000
0000
0000
0000
,
3000
0000
0000
0000
,
1001
0000
1000
0000
,
0010
0000
0100
0000
,
0110
0000
1001
0000
,
0110
0000
0000
0000
,
0010
0000
0100
0000
,
0001
0000
1000
0000
,
1001
0000
0110
0000
,
2002
0000
0000
0000
0000
0000
0000
3003
0000
0000
0000
0000
0000
0000
0000
0000
,
0001
0000
0001
0001
,
0001
0000
1000
1000
,
1000
0000
0001
0000
,
1000
0000
0000
0000
,
0110
0000
0100
0100
,
0100
0000
0010
0010
,
0010
0000
0100
0000
,
0110
0000
0000
0200
,
0000
0300
0000
0000
0000
0000
0000
0000
;

//---------------dance-single - ----------------
#NOTEDATA:;
#CHARTNAME:;
#STEPSTYPE:dance-single;
#DESCRIPTION:;
#CHARTSTYLE:;
#DIFFICULTY:Hard;
#METER:12;
#RADARVALUES:0.466147,0.584837,0.189161,0.614773,0.668819,483.000000,455.000000,28.000000,91.000000,0.000000,0.000000,0.000000,0.000000,0.000000,0.466147,0.584837,0.189161,0.614773,0.668819,483.000000,455.000000,28.000000,91.000000,0.000000,0.000000,0.000000,0.000000,0.000000;
#CREDIT:DDRDAIKENKAI;
#NOTES:
0000
0000
0000
0000
,
0000
0000
0000
0000
,
0000
0000
0000
0000
,
0000
0000
0000
0000
,
0000
0000
0000
0000
,
0000
0000
0000
0000
,
0000
0000
0000
0000
,
0000
0000
1000
0000
0000
0001
0000
0000
0100
0010
0000
0010
2000
0000
0000
0000
,
3002
0000
0013
0000
1000
0000
0010
0002
0100
0000
0103
0000
0110
0000
0000
0000
,
2000
0000
3100
0000
0001
0000
0100
2000
0010
0000
3010
0000
0100
0001
0000
0001
,
2000
0000
3001
0000
0010
0000
0001
0200
0010
0000
0310
0000
1010
0000
0000
0000
,
2000
0000
3001
0000
0100
0000
0001
0020
0100
0000
0130
0000
1000
0000
1000
0020
,
0000
0000
0130
0000
0010
0000
1000
0200
0010
0000
0310
0000
0001
0100
0000
0100
,
0002
0000
0013
0000
1000
0000
0010
0002
1000
0000
1003
0000
0010
0100
0000
0100
,
0020
0000
1030
0000
0001
0000
1000
0020
0100
0000
0130
0000
0001
0010
0000
0010
,
0200
0000
0310
0000
0001
0000
0100
0020
0000
0000
1030
0000
0001
0000
0001
2000
,
0000
0000
3010
0000
0100
0000
0010
0000
1000
0000
0001
0000
1000
0100
0000
0020
,
0000
0000
0130
0000
0010
0000
0100
0000
0001
0000
0100
0000
1000
0000
0001
0010
,
0000
1000
0000
0010
0000
0001
0000
2000
0000
0000
0010
0000
3010
0000
0100
0001
,
0000
1000
0000
0100
0000
0010
0000
0002
0000
0000
1003
0000
0100
0000
0100
2000
,
0000
0000
3010
0000
0100
0000
0001
0000
0100
0000
0010
0000
1000
0100
0000
2000
,
0000
0000
3001
0000
0010
0000
0100
0000
0010
0000
0001
0000
0100
0000
0001
1000
,
0000
0100
0000
1000
0000
0001
0000
0200
0000
0000
0301
0000
1000
0000
1000
0020
,
0000
1000
0000
1000
0000
0100
0000
2030
0000
0000
3200
0000
0320
0000
0031
0000
,
1002
0000
0000
1003
0000
0001
0010
0001
2000
0000
0000
3001
0000
1000
0010
1000
,
0001
0000
0100
0010
2000
3000
0000
0001
0000
0010
0100
0000
0020
0000
0030
0000
,
1002
0000
0000
0103
0000
0010
1000
0100
0020
0000
0000
0031
0000
1000
0010
0100
,
0002
0000
0000
1003
0000
0001
0010
0001
0000
0001
1000
0000
0001
0000
0001
0200
,
0000
0000
0310
1000
0000
0001
0000
0001
1000
0000
0010
0100
0000
0001
0000
0001
,
0010
0000
0100
1000
0200
0300
0000
0010
0000
0001
1000
0000
0020
0000
0030
0000
,
1002
0000
0000
1003
0000
0100
0000
0010
0002
0000
0000
1003
0000
0001
0000
1001
,
0000
0001
0100
0000
0010
1000
0000
1010
0000
1010
0000
0010
1000
0000
1000
0002
,
0000
0000
0000
0000
0000
0013
0000
0100
0000
1000
0000
0010
0000
0100
0000
0002
,
0000
0000
0000
0000
1000
0000
0000
0000
0000
0000
0000
0000
1003
0100
0000
0020
,
0000
0000
0000
0000
0000
0031
0000
0100
0000
0010
0000
1000
0000
0000
1000
0000
,
0020
0000
0000
0000
2030
0000
0000
3200
0000
0000
0000
0000
0310
0000
0001
2000
,
0000
0000
0000
0000
0000
3001
0000
0010
0000
0100
0000
1000
0000
0010
1000
0000
,
2000
0000
0000
0000
0001
0000
0000
0000
0000
0000
0000
0000
3001
0100
0000
0020
,
0000
0000
0000
0000
0000
1030
0000
0010
0000
0100
0000
0001
0000
0000
0010
0000
,
0002
0000
0000
0000
2003
0000
0000
0200
0000
3000
0000
1300
0001
1000
0001
0000
,
0010
0000
0001
0000
0100
0000
0001
0020
0000
0000
0130
0000
1000
0010
0000
0002
,
0000
0000
0013
0000
1000
0000
0100
0020
0000
0030
0000
0000
0001
1000
0001
0000
,
1000
0000
0010
0000
0001
0000
0010
2000
0000
0000
3100
0000
0010
0001
0000
0200
,
0000
0000
0310
1000
0000
0001
0000
0020
0000
0000
0000
0130
0000
1000
0000
0020
,
0000
2000
0000
0000
,
0000
0000
0000
0000
,
0030
0000
3001
0000
0001
0000
1000
0001
0100
0000
0100
0000
0001
1000
0010
0000
,
0010
0000
0100
0001
1000
0000
1000
0000
0001
0100
0010
0000
0220
0000
0330
0000
,
1002
0000
0000
1003
0000
0010
1000
0010
0200
0000
0000
0301
0000
0010
0001
0010
,
0100
0000
1000
0010
2000
3000
0000
0100
0000
0010
0001
0000
2000
0000
3100
0000
,
0210
0000
0000
1300
0000
0001
0100
0010
2000
0000
0000
3001
0000
1000
0010
0100
,
0002
0000
0000
1003
0000
1000
0100
1000
0000
1000
0001
0000
1000
0000
1000
0002
,
0000
0000
1003
0010
0000
1000
0000
0100
0010
0000
0100
1000
0000
0010
0000
0100
,
0010
0000
0100
0001
0020
0030
0000
0001
0000
0001
0100
0000
0020
0000
1030
0000
,
1200
0000
0000
1300
0000
0001
0000
0010
0200
0000
0000
0310
0000
0001
0000
2000
,
0000
3010
0100
0010
1000
0001
0000
2002
0000
0000
0000
0000
3000
0000
0000
0000
,
0023
0000
0000
0130
0000
0000
0110
0000
0000
1100
0000
0000
1000
0010
0100
0000
,
0020
0000
0000
1030
0000
0000
1010
0000
0000
1001
0000
0000
0001
0010
0001
0000
,
1002
0000
0000
0103
0000
0000
0020
0000
1030
0002
0000
0000
1003
0100
0010
0000
,
0021
0000
0000
0031
0000
0000
1000
0100
0000
1000
0001
1000
0001
1000
0100
0000
,
0110
0000
0010
0000
0011
0000
0001
0200
0010
0000
0310
0000
1000
0100
0010
0000
,
0110
0000
0100
0000
1100
0000
1000
0020
0100
0000
0130
0000
0001
0010
0100
0000
,
1200
0000
1300
0000
1001
0000
1000
0002
0100
0000
0103
0000
0010
1000
0010
0000
,
0210
0000
0310
1000
0000
1100
0000
0210
0000
0310
0001
0010
0002
0000
1000
2000
,
0000
3003
0000
0000
0000
0000
0000
0000
;

//---------------dance-single - ----------------
#NOTEDATA:;
#CHARTNAME:;
#STEPSTYPE:dance-single;
#DESCRIPTION:;
#CHARTSTYLE:;
#DIFFICULTY:Medium;
#METER:9;
#RADARVALUES:0.314625,0.346570,0.162138,0.378322,0.145249,326.000000,302.000000,24.000000,56.000000,0.000000,0.000000,0.000000,0.000000,0.000000,0.314625,0.346570,0.162138,0.378322,0.145249,326.000000,302.000000,24.000000,56.000000,0.000000,0.000000,0.000000,0.000000,0.000000;
#CREDIT:DDRDAIKENKAI;
#NOTES:
// measure 0
0000
0000
0000
0000
,  // measure 1
0000
0000
0000
0000
,  // measure 2
0000
0000
0000
0000
,  // measure 3
0000
0000
0000
0000
,  // measure 4
0000
0000
0000
0000
,  // measure 5
0000
0000
0000
0000
,  // measure 6
0000
0000
0000
0000
,  // measure 7
0000
0000
0000
0000
,  // measure 8
1000
0000
0100
0000
0001
0000
0100
2000
0000
0000
3001
0000
1000
0000
0000
0000
,  // measure 9
0001
0000
0100
0000
1000
0000
0100
0002
0000
0000
1003
0000
0001
0000
0000
0000
,  // measure 10
1000
0000
0010
0000
1000
0000
0100
0020
0000
0000
0031
0000
1000
0000
0000
0000
,  // measure 11
0001
0000
0100
0000
0001
0000
0010
0200
0000
0000
1300
0000
0001
0000
0000
2000
,  // measure 12
0000
0000
3010
0000
0100
0000
0010
2000
0000
0000
3001
0000
0100
0000
0000
0000
,  // measure 13
0001
0000
0010
0000
0100
0000
0010
0002
0000
0000
1003
0000
0100
0000
0000
0000
,  // measure 14
1000
0000
0001
0000
0100
0000
0001
2000
0000
0000
3010
0000
0100
0000
0000
0000
,  // measure 15
0020
0000
1030
0000
0100
0000
1000
0020
0000
0000
0000
0000
1030
0000
1000
0002
,  // measure 16
0000
0000
1003
0000
0100
0000
0000
0000
0010
0000
0000
0000
0001
0000
0000
0002
,  // measure 17
0000
0013
0100
0000
1000
0000
0001
0100
,  // measure 18
0010
0100
0001
1000
0100
0000
0010
0001
,  // measure 19
1000
0000
0001
0000
0010
0000
0100
0000
2000
0000
0000
3000
0010
0000
1000
0002
,  // measure 20
0000
0000
1003
0000
0100
0000
1000
0000
0100
0000
0000
0000
0010
0000
0000
0020
,  // measure 21
0000
0031
0100
0001
0100
0000
0010
1000
,  // measure 22
0001
0100
1000
0100
0001
0000
1000
0000
,  // measure 23
1001
0000
0000
0000
0000
0000
1000
0001
,  // measure 24
1002
0000
0000
0103
0000
0000
0010
0000
2000
0000
0000
3100
0000
0000
0010
0000
,  // measure 25
0001
0000
0000
0000
0101
0000
0000
0010
0000
0000
0010
0000
1000
0000
0000
0000
,  // measure 26
1200
0000
1300
0001
0201
0000
0301
1000
,  // measure 27
1200
0000
0000
0000
0320
0000
0000
0031
0000
0000
1000
0000
1000
0000
0000
1002
,  // measure 28
0000
0000
0000
0103
0000
0000
0010
0000
2000
0000
0000
3100
0000
0000
0010
0000
,  // measure 29
0001
0000
0001
0000
0100
0000
0000
0010
0000
0000
0100
0000
0001
0000
0000
0000
,  // measure 30
0012
0000
0000
0000
0103
0000
0010
0000
1020
0000
0000
0000
0130
0000
0000
0020
,  // measure 31
0000
0000
0130
0000
0002
0000
0000
1000
0000
1003
0000
0000
0000
0000
0000
0000
,  // measure 32
2001
0001
0000
3001
,  // measure 33
0020
0001
0000
0031
,  // measure 34
2000
0100
0000
3100
,  // measure 35
0001
0000
0010
0000
0100
0000
1000
0010
,  // measure 36
2000
0001
0000
3001
,  // measure 37
0200
0010
0000
0310
,  // measure 38
2000
0001
0000
3001
,  // measure 39
1000
0000
0000
0000
0010
0000
0000
0000
0100
0000
0000
0100
0001
0000
0000
0000
,  // measure 40
0001
0010
1000
0000
1000
0010
0001
0000
,  // measure 41
0001
0010
1000
0010
0001
0000
1000
1000
,  // measure 42
0001
0100
1000
0000
1000
0100
0001
0000
,  // measure 43
0001
0100
1000
0100
0001
0000
0001
1000
,  // measure 44
0020
2000
0000
0000
,  // measure 45
0000
0000
0000
0000
,  // measure 46
3030
0001
0001
0000
0100
0100
0000
0010
,  // measure 47
0010
0000
1000
1000
0001
0001
1001
0000
,  // measure 48
0120
0000
0000
1030
0000
0000
0001
0000
0200
0000
0000
0301
0000
0000
1000
0000
,  // measure 49
0100
0000
0010
0000
0001
0000
0000
1000
0000
0000
1000
0000
0020
0000
0030
0000
,  // measure 50
0120
0000
1030
0100
0120
0000
0031
0100
,  // measure 51
0120
0000
0000
0000
2030
0000
0000
3001
0000
0000
0001
0000
0100
0000
0000
0020
,  // measure 52
0000
0000
0000
1030
0000
0000
0100
0000
2000
0000
0000
3001
0000
0000
0010
0000
,  // measure 53
0100
0000
0010
0000
0001
0000
0000
1000
0000
0000
1000
0000
0010
0000
0000
0000
,  // measure 54
1010
0000
1000
0100
1100
0000
0100
0010
,  // measure 55
0110
0000
0000
0000
0001
0000
0000
2002
0000
0000
0000
0000
3003
0000
0000
0000
,  // measure 56
2000
0000
0010
0000
0001
0000
3001
0100
,  // measure 57
0002
0000
1000
0000
0010
0000
0013
0100
,  // measure 58
0210
1300
0210
0301
,  // measure 59
0120
0000
0000
0000
1030
0000
0000
0001
0000
0000
0100
0000
0010
0000
1000
0000
,  // measure 60
1002
0000
0000
0103
0000
0000
0010
0000
0000
0010
0000
0000
1000
0000
0100
0000
,  // measure 61
0020
0000
0000
0031
0000
0000
1000
0000
0000
1000
0000
0000
0001
0000
0100
0000
,  // measure 62
0020
0000
0000
1030
0000
0000
0001
0000
0000
0001
0000
0000
0010
0000
0100
0000
,  // measure 63
2000
0000
0000
0000
3100
0000
0000
0110
0000
0000
0010
0000
0001
0000
0000
0002
,  // measure 64
0000
0003
0000
0000
0000
0000
0000
0000
;

//---------------dance-single - ----------------
#NOTEDATA:;
#CHARTNAME:;
#STEPSTYPE:dance-single;
#DESCRIPTION:;
#CHARTSTYLE:;
#DIFFICULTY:Easy;
#METER:6;
#RADARVALUES:0.233556,0.303249,0.229696,0.351299,0.000000,242.000000,208.000000,34.000000,52.000000,0.000000,0.000000,0.000000,0.000000,0.000000,0.233556,0.303249,0.229696,0.351299,0.000000,242.000000,208.000000,34.000000,52.000000,0.000000,0.000000,0.000000,0.000000,0.000000;
#CREDIT:DDRDAIKENKAI;
#NOTES:
0000
0000
0000
0000
,
0000
0000
0000
0000
,
0000
0000
0000
0000
,
0000
0000
0000
0000
,
0000
0000
0000
0000
,
0000
0000
0000
0000
,
0000
0000
0000
0000
,
0000
0000
0000
0000
,
0120
1030
0100
0010
,
0210
1300
0010
0100
,
0120
1030
0100
0010
,
0120
0130
1000
0001
,
1002
0103
0010
1000
,
1002
1003
0010
1000
,
1002
0013
0100
1000
,
1002
1000
1000
1003
,
0010
0010
0100
0001
,
0010
0010
0100
1000
,
0010
1000
0100
0010
,
0001
0010
0100
1000
,
0001
0001
0100
0010
,
1000
1000
0100
0010
,
0001
0100
0010
1000
,
1001
0000
0000
0000
,
0120
1030
0210
0301
,
0010
0010
0001
1000
,
2001
3100
1002
0103
,
2001
0000
3001
0000
0000
0100
0100
0000
,
0020
1030
0200
0310
,
0002
1003
0001
0001
,
0120
1030
0210
0301
,
1000
0100
0110
0000
,
0002
1000
0000
1003
,
0020
1000
0000
1030
,
0200
1000
0000
1300
,
0001
0010
0100
0100
,
2000
0010
0000
3010
,
2000
0001
0000
3001
,
2000
0100
0000
3100
,
0010
0001
0100
0010
,
1000
0001
0100
0010
,
0100
0001
2000
3000
,
0001
1000
0010
0100
,
0010
1000
0002
1003
,
0020
2000
0000
0000
,
0000
0000
0000
3030
,
0000
0001
0001
0000
0100
0100
0000
0010
,
0010
0000
1000
1000
1000
0000
0110
0000
,
1002
0103
2001
3200
,
0310
0010
0001
0001
,
1002
0103
2001
3100
,
1002
0000
1003
0000
0000
0010
0010
0000
,
1000
0100
1000
0020
,
0130
0001
0020
0130
,
0210
1300
0210
0301
,
0120
1030
2002
3003
,
0002
0100
0010
0013
,
0200
1000
0010
0310
,
2001
3010
1002
0103
,
2001
0000
3001
0000
0000
0100
0100
0000
,
0102
0013
0100
1000
,
2010
3010
0100
0001
,
0012
1003
2100
3001
,
1000
1000
2000
0002
,
0000
3003
0000
0000
0000
0000
0000
0000
;

//---------------dance-single - ----------------
#NOTEDATA:;
#CHARTNAME:;
#STEPSTYPE:dance-single;
#DESCRIPTION:;
#CHARTSTYLE:;
#DIFFICULTY:Challenge;
#METER:16;
#RADARVALUES:0.685226,0.758122,0.351299,0.493170,1.124833,710.000000,658.000000,52.000000,73.000000,0.000000,0.000000,0.000000,0.000000,0.000000,0.685226,0.758122,0.351299,0.493170,1.124833,710.000000,658.000000,52.000000,73.000000,0.000000,0.000000,0.000000,0.000000,0.000000;
#CREDIT:DDRDAIKENKAI;
#NOTES:
0000
0000
0000
0000
,
0000
0000
0000
0000
,
0000
0000
0000
0000
,
0000
0000
0000
0000
,
0000
0000
0000
0000
,
0000
0000
0000
0000
,
0000
0000
0000
0000
,
0000
0000
1000
0000
0000
0010
0000
0010
0100
0001
0100
0001
2000
0000
0000
0000
,
3001
0000
0010
0000
0110
0000
0100
1000
0010
0000
1000
0000
0100
0000
0000
0000
,
0010
0000
0001
0000
1001
0000
0001
0100
0010
0000
1000
0010
0000
1000
0000
0001
,
0100
0000
0000
0000
0110
0000
0010
0100
0010
0000
1000
0000
1001
0000
0000
0000
,
0011
0000
0000
0000
1100
0000
0100
1000
0100
0000
1000
0010
0100
0001
0000
1001
,
0000
1000
0100
0000
1000
0010
0100
0001
0100
0010
1000
0000
0001
0010
0000
0010
,
0100
0000
1000
0000
0010
1000
0100
0010
0001
0100
0010
1000
0000
0001
0000
0010
,
0100
0000
1000
0000
1010
0000
0010
0100
0010
1000
0001
0100
0000
0010
0000
0100
,
0002
0023
0230
2300
3020
0230
0302
2003
3200
2300
3020
2030
3001
0000
1000
0200
,
0000
1300
0010
0100
0001
1000
0100
0010
0001
1000
0010
0100
0001
0010
0100
1000
,
0001
0010
0001
0100
0010
1000
0010
0100
0001
0010
0001
0100
0010
1000
0010
0100
,
0010
1000
0100
1000
0001
1000
0100
0010
0100
1000
0100
0010
0001
0010
0100
1000
,
0001
0010
0001
0100
0001
0010
0100
0010
0001
0100
0010
1000
0010
0100
0000
0110
,
0000
0100
0010
0100
0001
0100
0010
1000
0001
1000
0010
0100
0001
0100
0010
1000
,
0001
0010
0100
0010
0001
1000
0100
1000
0010
1000
0001
0010
0001
1000
0010
0100
,
0001
0010
0100
1000
0001
0100
0010
1000
0100
0010
0001
1000
0001
1000
0001
1000
,
1001
0000
0000
0000
0000
0000
0000
0000
0000
0000
0001
0100
0010
0000
0100
0000
,
0120
0000
0000
1030
0000
0001
1000
0010
0120
0000
0000
1030
0000
0001
0010
0100
,
0110
0000
0010
0001
1000
0100
0000
0010
0000
0010
0001
1000
0002
0000
0103
0000
,
0201
0000
0000
0310
0000
1000
0001
0100
0201
0000
0000
0310
0000
1000
0001
0100
,
0102
0000
0000
1003
0000
0001
0010
0001
0000
1000
0001
1000
0001
1000
0001
2001
,
0000
3001
0010
0100
0000
1000
0000
0001
0100
0010
1000
0100
0000
0010
0000
0100
,
1000
0010
0100
0001
0000
0100
0000
0010
0000
1000
0001
0000
2000
0000
3010
0100
,
0120
0000
0000
1030
0000
0010
0000
0100
0201
0000
0301
0010
0000
0100
0000
0120
,
0000
0130
0010
0100
1000
0001
0000
1001
0000
1001
0000
0001
1000
0000
1000
0020
,
1000
0000
0000
0000
1030
0100
0000
0100
1000
0010
0000
0010
0100
0001
0000
0002
,
0010
0000
0000
0000
1000
0000
0000
0000
0103
0000
0000
0000
0001
0100
0000
0200
,
0010
0000
0000
0000
0310
1000
0000
0001
1000
0010
0000
2000
0000
0000
3001
0000
,
0012
0000
0000
0000
0023
0000
0000
0130
0000
0000
1000
0000
0010
0000
0010
1000
,
0001
0000
1001
0000
0001
1000
0000
1000
0100
1000
0000
0010
0000
1000
0002
0000
,
1003
0000
1001
0000
0001
0100
0000
0100
0001
0010
0000
0010
0100
0010
0000
0002
,
1000
0000
1003
0000
1000
0010
0000
0010
1000
0010
0000
0020
1000
0000
1030
0000
,
0002
0000
1000
0000
2003
0100
0000
3100
0010
0100
0000
0100
1000
0010
1000
0000
,
2001
0000
3001
0000
0011
0000
0010
0100
0000
1000
0000
0001
1000
0001
0000
0001
,
0100
0000
0010
0000
1010
0000
0010
1000
0000
0001
0000
1000
0100
0010
0002
0000
,
1003
0000
0001
0000
0101
0000
0100
0010
0000
1000
0000
0001
0010
0001
0000
0002
,
1000
0000
1003
0000
1100
0000
0100
0010
0000
0001
0000
0001
1000
0001
0000
2000
,
3001
0000
0010
0000
0001
0000
1000
0000
0001
0000
0100
0000
0010
0000
1000
0100
1000
0000
0001
0000
0010
0000
0100
0000
1000
0000
0010
0000
0100
0000
0001
0000
,
1000
0000
0010
0000
0100
0000
0010
0000
1000
0000
0100
0000
0010
0000
0100
1000
0100
0000
0010
0000
0001
0000
1000
0000
0010
0000
1000
0000
0001
0000
0100
0000
,
0010
0000
0100
0000
0001
0000
1000
0000
0010
0000
1000
0000
0001
0000
1000
0010
1000
0000
0001
0000
1000
0000
0100
0000
0010
0000
0100
0000
1000
0000
0001
0000
,
2000
0000
0000
0000
0000
0000
0000
0000
0000
0000
0000
0000
0000
0000
3001
0100
0010
0000
1000
0000
0001
0000
0100
0000
0110
0000
0000
0000
1000
0000
0001
0000
,
1002
0000
1003
0100
0000
0100
1000
0001
0201
0000
0310
1000
0000
1000
0010
0100
,
0102
0000
0013
0100
1000
0010
0000
1000
0000
1000
0100
1000
0020
0000
1030
0001
,
2001
0000
3001
0010
0000
0010
0001
1000
1002
0000
1003
0010
0000
0010
1000
0001
,
1002
0000
1003
0010
0000
1000
0100
1000
0000
0001
1000
0001
1000
0001
1000
2001
,
0000
3001
0010
0001
0000
1000
0000
0010
0100
0010
1000
0001
0000
0100
0000
0001
,
1000
0001
0100
0010
1000
0100
0000
0010
0000
0010
0001
1000
0002
0000
1003
0010
,
2010
0000
3010
0100
0000
0010
0000
1000
2010
0000
3100
0010
0000
0001
0000
2000
,
3001
0010
0100
0010
0001
1000
0000
0002
0023
0230
2300
3020
0230
0302
1003
0001
,
2001
0000
3001
0010
0000
0010
0001
1000
1020
0000
0130
0001
0000
0001
0100
0010
,
2010
0000
3100
0010
0001
0100
0000
0001
0000
0001
0010
0001
2000
0000
3001
0000
,
1002
0000
1003
0100
0000
0100
1000
0001
2001
0000
3001
0100
0000
0100
0001
1000
,
2001
0000
3001
0100
0000
0001
0010
0001
0000
1000
0001
1000
0001
1000
0001
1000
,
1001
0000
1000
0001
0000
0010
0000
0001
1000
0001
0100
0010
0000
1000
0000
1000
,
0001
1000
0010
0100
0001
0010
0000
0100
0000
0100
1000
0001
2000
0000
3001
0000
,
0102
0000
0103
0010
0000
0010
0100
0001
0102
0000
0013
0100
0000
1000
0100
1000
,
1001
0000
0101
0000
0100
0010
0000
0120
0000
1030
0100
1000
0002
0000
1000
2000
,
0000
3003
0000
0000
0000
0000
0000
0000
;
