#TITLE:Imagine Where You Can Go;
#SUBTITLE:;
#ARTIST:Poo~Pourri;
#TITLETRANSLIT:;
#SUBTITLETRANSLIT:;
#ARTISTTRANSLIT:;
#CREDIT:;
#BANNER:;
#BACKGROUND:;
#LYRICSPATH:;
#CDTITLE:cdtitle.PNG;
#MUSIC:imagine.ogg;
#OFFSET:-0.980;
#SAMPLESTART:67.210;
#SAMPLELENGTH:12.000;
#SELECTABLE:YES;
#BPMS:0.000=126.010;
#STOPS:;
#BGCHANGES:;

//---------------dance-single - This is the best Song----------------
#NOTES:
     dance-single:
     This is the best Song:
     Hard:
     15:
     0.562,0.660,0.128,0.299,0.416: // measure 1
0000
0000
0000
0000
,  // measure 2
0000
0000
0000
0000
,  // measure 3
0000
0000
0000
0000
,  // measure 4
0000
0000
0000
0000
,  // measure 5
0000
0000
0001
1000
0001
1000
0001
0000
1000
0000
0000
0000
0100
0000
0010
0000
,  // measure 6
0000
0000
0001
1000
0001
1000
0001
0000
1000
0000
0000
0000
0010
0000
0100
0000
,  // measure 7
0000
0000
0001
0100
0001
0000
0100
0010
0000
1000
0000
0001
0000
0100
0010
0100
,  // measure 8
0000
0001
0000
1000
0000
0100
0010
0000
0001
0000
0000
0000
1000
0000
0001
0000
,  // measure 9
0000
1000
0010
0100
0001
0000
0001
1000
,  // measure 10
0000
0000
1000
0010
1000
0001
1000
0010
1000
0000
0000
0000
1002
0000
0000
0000
,  // measure 11
0003
0000
0001
0010
0001
0000
0010
0001
0000
1000
0000
0010
0000
0000
0000
1000
,  // measure 12
0000
0010
0000
0001
0000
0010
1000
0000
2002
0000
0000
0000
0000
0000
0000
0000
,  // measure 13
3003
0000
1000
0100
0001
0000
0100
0001
0100
0000
1000
0000
0001
0000
0000
0000
,  // measure 14
0000
0000
0001
0100
1000
0000
0100
1000
0100
0000
0001
0000
1000
0000
0000
0000
,  // measure 15
0000
0000
0001
0000
1000
0000
0001
1000
0000
0001
0000
1000
0000
0000
0001
0000
,  // measure 16
0010
1000
0100
0001
1000
0001
0000
1000
,  // measure 17
0001
1000
0000
0000
0000
0101
0000
1010
,  // measure 18
0000
0001
2000
0000
0000
3001
0000
0001
,  // measure 19
0100
1000
0010
0001
1000
0001
0000
0001
,  // measure 20
1000
0001
0100
0001
1000
0000
0001
0001
,  // measure 21
1000
0000
0000
0001
1000
0000
0010
0000
1000
0000
0010
0000
0100
0000
0010
0000
,  // measure 22
1000
0000
0000
1000
0001
0000
1000
0000
0000
0000
0001
0000
1000
0000
0000
0100
,  // measure 23
0001
0000
0000
0100
1000
0000
0001
0000
1000
0000
0000
0000
0001
0000
1000
0000
,  // measure 24
0010
0001
0100
1000
0001
1000
0000
0000
,  // measure 25
2002
3003
MMMM
MMMM
M000
0M00
00M0
000M
,  // measure 26
0001
0100
0001
0100
0001
0000
0100
0000
0010
0100
0010
1000
0010
0100
0010
0000
,  // measure 27
1000
0010
1000
0010
1000
0000
0010
0000
1000
0001
1000
0100
1000
0001
1000
0000
,  // measure 28
0001
0010
0001
0010
0001
0000
0010
0000
0100
1000
0100
1000
0100
0000
0000
0000
,  // measure 29
1001
0000
1100
0000
0101
0000
1001
0000
1000
0000
0100
0010
0000
0000
0000
0000
,  // measure 30
0001
1000
0010
1000
0001
0000
1000
0000
0010
0000
0100
0001
0000
0000
0100
0001
,  // measure 31
0100
0010
0100
0001
0100
0000
0010
0100
0010
0000
1000
0001
0000
0000
0000
0000
,  // measure 32
0001
0000
1000
0001
0010
0001
1000
0010
1000
0001
1000
0100
1000
0000
1000
0001
,  // measure 33
0100
0000
0001
1000
0100
0000
0100
0000
0100
1000
0100
0000
1001
0000
0000
0000
,  // measure 34
0001
0000
1000
0100
1000
0000
0010
0100
0010
0000
0001
1000
0000
0000
1000
0000
,  // measure 35
0100
0000
0010
0000
0001
1000
0000
0000
0001
1000
0001
1000
0001
0000
1000
0000
,  // measure 36
0100
0001
0010
1000
0001
2000
0000
3100
,  // measure 37
2000
0000
0MMM
0000
0M00
0000
00M0
0000
300M
00M0
0M01
0000
0000
0000
1000
0000
,  // measure 38
0MM0
0000
0100
0000
01M0
M000
00M0
0000
MMMM
0000
1001
0000
0000
0000
0001
0000
,  // measure 39
1000
0000
0100
0000
0001
0000
0010
0000
1000
0000
0100
0000
0000
0000
0200
0300
,  // measure 40
2000
3000
0020
0030
0002
0003
0200
0300
2000
3000
0002
0003
0000
0000
0002
0003
,  // measure 41
2000
3000
0010
0000
0200
0000
0000
0000
0302
0000
2000
0000
0003
0000
3002
0000
,  // measure 42
0000
0000
10M3
0000
10M0
0000
000M
M000
0000
0MM0
1001
0000
0000
0000
0001
0000
,  // measure 43
0100
1000
0010
0001
1000
0001
0000
1000
,  // measure 44
00M1
M100
0M01
10M0
M001
M000
010M
01M0
,  // measure 45
M010
MMMM
M000
M010
M100
M001
1000
0100
,  // measure 46
2000
3000
0002
0003
0200
0300
0002
0003
2000
3000
0001
0000
1000
0000
0000
0100
,  // measure 47
0001
0000
0000
0100
1000
0000
0001
0000
1000
0000
0002
0003
2000
3000
1000
0000
,  // measure 48
0100
0001
0010
1000
0001
1000
0000
0000
;

//---------------dance-single - ----------------
#NOTES:
     dance-single:
     :
     Easy:
     6:
     0.230,0.255,0.021,0.000,0.000:
0000
0000
0000
0000
,
0000
0000
0000
0000
,
0000
0000
0000
0000
,
0000
0000
0000
0000
,
0000
0001
1000
0000
,
0000
1000
0001
0000
,
0000
0100
0010
1000
,
0100
0010
0001
0000
,
0000
1000
0001
0000
,
0000
0001
1000
0000
,
0000
0001
0010
0100
,
1000
0001
1000
0000
,
0000
1000
0010
0100
,
0000
0001
0100
0010
,
0000
1000
0001
1000
,
0001
0100
0010
1000
,
0100
0000
0000
1000
,
0001
1000
0000
0100
,
0001
0010
1000
0100
,
0001
1000
0001
1000
,
0010
0000
0100
0001
,
0100
0000
0000
0010
,
1000
0001
0100
0000
,
0001
0100
0010
1000
,
1001
0000
0000
0000
,
1000
0100
0010
0001
,
1000
0001
1000
0001
,
0100
0010
1000
0100
,
1000
0100
1000
0001
,
0100
0001
0100
0010
,
1000
0100
0010
0001
,
1000
0001
0100
0010
,
0100
0001
1000
0010
,
1000
0001
0100
0010
,
1000
0100
0001
0100
,
1000
0001
0100
0010
,
1001
0000
0000
1000
,
0100
0010
0001
1000
,
0010
0100
0001
0010
,
0100
1000
0010
0001
,
0100
1000
0001
1000
,
0010
0100
0001
0100
,
0010
1000
0100
0010
,
0001
1000
0001
1000
,
0010
0100
0001
0010
,
0100
1000
0001
1000
,
0010
0001
0100
1000
,
0001
1000
0010
0100
;

//---------------dance-single - ----------------
#NOTES:
     dance-single:
     :
     Medium:
     9:
     0.283,0.356,0.000,0.021,0.000:
0000
0000
0000
0000
,
0000
0000
0000
0000
,
0000
0000
0000
0000
,
0000
0000
0000
0000
,
0000
0001
1000
0001
1000
0000
0000
0000
,
0000
1000
0001
1000
0001
0000
0000
0000
,
0000
0100
0010
0000
1000
0000
0001
0000
,
0001
1000
0001
0000
0100
0000
0001
1000
,
0000
0001
0100
0001
0100
0000
0100
0000
,
0000
0010
0100
0010
0100
0000
0100
0000
,
0000
0100
0001
0000
0100
0000
0010
0000
,
1000
0100
0020
0000
,
0030
0001
1000
0000
,
0000
1000
0001
0000
,
0000
0100
0010
0000
1000
0000
0001
0000
,
0100
1000
0010
0001
,
1000
0000
0000
0001
,
1000
0001
0000
0001
,
1000
0010
0001
0100
,
1000
0001
1000
0001
,
0100
0000
0010
1000
,
0100
0000
0000
0000
0000
0010
0100
0000
,
1000
0001
0100
0000
,
0010
1000
0100
0001
,
0020
0000
0000
0000
,
1030
0010
1000
0010
1000
0000
0100
0000
,
0010
0001
0010
0001
0010
0000
0100
0000
,
0010
1000
0001
0100
,
0010
1000
0010
1000
0010
0000
0100
0000
,
0001
0100
0001
0000
0100
0000
0010
0000
,
1000
0010
1000
0000
0100
0000
1000
0000
,
0010
0100
0010
0000
0100
0000
0001
0000
,
0100
0001
0100
0000
0001
0010
0001
0000
,
0001
0010
0100
1000
,
0010
1000
0010
0000
0100
0010
0100
0001
,
0100
0010
1000
0100
0010
0001
0000
1000
,
0000
0000
0000
0001
,
1000
0010
0000
0100
,
0001
0100
0001
0100
0001
0100
0000
0000
,
0010
1000
0010
1000
0010
1000
0000
0000
,
0001
0100
0010
1000
,
0001
1000
0001
0100
,
0010
1000
0100
0010
0000
0001
0000
0000
,
1000
0010
0100
0001
,
1000
0000
0001
1000
,
0010
0100
0010
1000
,
0100
0010
0001
0000
,
1000
0001
1000
0001
1000
0001
0000
0000
;

//---------------dance-single - ----------------
#NOTES:
     dance-single:
     :
     Beginner:
     3:
     0.107,0.200,0.021,0.000,0.000: // measure 1
0000
0000
0000
0000
,  // measure 2
0000
0000
0000
0000
,  // measure 3
0000
0000
0000
0000
,  // measure 4
0000
0000
0000
0000
,  // measure 5
0000
0001
1000
0000
,  // measure 6
0000
1000
0001
0000
,  // measure 7
0000
0100
0000
0010
,  // measure 8
0000
0100
0000
0010
,  // measure 9
0000
1000
0100
0000
,  // measure 10
0000
0001
0100
0000
,  // measure 11
0000
0010
0000
0100
,  // measure 12
0000
0010
0000
0000
,  // measure 13
0000
1000
0100
0000
,  // measure 14
0000
0010
0001
0000
,  // measure 15
0000
0001
1000
0000
,  // measure 16
1000
0001
1000
0000
,  // measure 17
0010
0000
0000
0000
,  // measure 18
0100
0000
0000
0000
,  // measure 19
0001
1000
0001
0000
,  // measure 20
1000
1000
1000
0001
,  // measure 21
0001
0000
0100
0100
,  // measure 22
0010
0000
0000
0000
,  // measure 23
1000
0000
0000
0000
,  // measure 24
0001
0000
0000
0000
,  // measure 25
0110
0000
0000
0000
,  // measure 26
1000
0000
0000
0000
,  // measure 27
0001
0000
0000
0000
,  // measure 28
0100
0000
0000
0000
,  // measure 29
0010
0000
0000
0000
,  // measure 30
1000
0000
0000
0000
,  // measure 31
0001
0000
0000
0000
,  // measure 32
0100
0000
0000
0000
,  // measure 33
0010
0000
0000
0000
,  // measure 34
0100
0000
0000
0000
,  // measure 35
0001
0000
0000
0000
,  // measure 36
1000
0100
1000
0000
,  // measure 37
0001
0000
0000
0100
,  // measure 38
0001
0000
0000
0000
,  // measure 39
1000
0000
0000
0000
,  // measure 40
0001
0000
0000
0000
,  // measure 41
0100
0000
0000
0000
,  // measure 42
0010
1000
0010
0000
,  // measure 43
0100
0000
0000
0000
,  // measure 44
0001
0000
0000
0000
,  // measure 45
1001
0000
0000
0000
,  // measure 46
1000
0000
0000
0000
,  // measure 47
0010
0000
0000
0000
,  // measure 48
0100
0000
0000
0000
;
