#TITLE:Identity Part 4 [HealingDMax300];
#SUBTITLE:;
#ARTIST:SHK;
#TITLETRANSLIT:;
#SUBTITLETRANSLIT:;
#ARTISTTRANSLIT:;
#GENRE:;
#CREDIT:;
#BANNER:Identity Part 4 [HealingDMax300].png;
#BACKGROUND:Identity Part 4 [HealingDMax300]-bg.png;
#LYRICSPATH:;
#CDTITLE:;
#MUSIC:Identity Part 4 [HealingDMax300].ogg;
#OFFSET:-0.200000;
#SAMPLESTART:20.344608;
#SAMPLELENGTH:13.714287;
#SELECTABLE:YES;
#BPMS:0.000000=140.000000
;
#STOPS:
;
#BGCHANGES:;
#KEYSOUNDS:;
#ATTACKS:;

//---------------dance-single - ----------------
#NOTES:
     dance-single:
     :
     Challenge:
     13:
     0.561032,0.747411,0.203437,0.044225,0.225550,444.000000,421.000000,23.000000,5.000000,0.000000,0.000000,0.561032,0.747411,0.203437,0.044225,0.225550,444.000000,421.000000,23.000000,5.000000,0.000000,0.000000:
// measure 0
0000
0000
0000
0000
,  // measure 1
0000
0000
0000
0000
,  // measure 2
0000
0000
0000
0000
,  // measure 3
0000
0000
0000
0000
,  // measure 4
0001
0100
0001
0100
0010
0100
0010
0100
,  // measure 5
1000
0100
1000
0100
0010
0100
0010
0100
,  // measure 6
0001
0100
0001
0100
0001
0010
0001
0010
,  // measure 7
0001
0100
0001
0100
0001
0010
0001
0000
,  // measure 8
1000
0100
1000
0100
0010
0100
0010
0100
,  // measure 9
0001
0100
0001
0100
0010
0100
0010
0100
,  // measure 10
1000
0100
1000
0100
1000
0010
1000
0010
,  // measure 11
1010
0000
0101
0000
1010
0000
0100
0001
,  // measure 12
1000
0100
0010
0010
0000
0010
0110
0000
,  // measure 13
0100
1000
0001
0001
0000
0001
1001
0000
,  // measure 14
0001
1000
0010
0001
0000
0001
0010
1000
,  // measure 15
0000
0001
0010
0100
0000
0100
1100
0000
,  // measure 16
1000
0100
1000
0000
0010
0000
1000
0000
0100
1000
0100
0000
0010
0100
0010
0000
,  // measure 17
0001
0010
0001
0000
0100
0000
0001
0000
0010
0001
0010
0000
0100
0010
0100
0000
,  // measure 18
0010
0001
0010
0000
0001
0000
0100
0000
0001
0010
0001
0000
0010
0100
0010
0000
,  // measure 19
0100
1000
0100
0000
1000
0001
1000
0000
0010
1000
0010
0000
1000
0000
1000
0000
,  // measure 20
0001
0100
0010
0010
0000
0010
0110
0000
,  // measure 21
0100
0001
1000
1000
0000
1000
1001
0000
,  // measure 22
1000
0001
0010
1000
0000
1000
0010
0001
,  // measure 23
0000
1000
0010
0100
0000
0100
0101
0000
,  // measure 24
0001
0100
0001
0000
0010
0000
0001
0000
0100
0001
0100
0000
0010
0100
0010
0000
,  // measure 25
1000
0010
1000
0000
0100
0000
1000
0000
0010
1000
0010
0000
0100
0010
0100
0000
,  // measure 26
0010
1000
0010
0000
1000
0000
0100
0000
1000
0010
1000
0000
0010
0100
0010
0000
,  // measure 27
1000
0001
0100
0010
1000
0001
0100
0010
,  // measure 28
0110
0000
1001
0000
,  // measure 29
0110
1001
0110
1001
,  // measure 30
1000
0100
1000
0100
0010
0100
0010
0100
,  // measure 31
0001
0100
0001
0100
0010
0100
0010
0100
,  // measure 32
1000
0100
1000
0100
1000
0010
1000
0010
,  // measure 33
1000
0100
1000
0100
1000
0010
1000
0000
,  // measure 34
0001
0100
0001
0100
0010
0100
0010
0100
,  // measure 35
1000
0100
1000
0100
0010
0100
0010
0100
,  // measure 36
0001
0100
0001
0100
0001
0010
0001
0010
,  // measure 37
0011
0000
1100
0000
0011
0000
0100
1000
,  // measure 38
0001
0000
0000
0000
0000
0000
0000
0000
0000
0000
0000
0000
1000
0001
1000
0000
,  // measure 39
2001
0000
0000
0000
,  // measure 40
3020
0000
0000
0000
0000
0000
0000
0100
,  // measure 41
0230
0000
0000
0000
,  // measure 42
0000
0000
0000
0000
,  // measure 43
0310
1000
0100
0001
,  // measure 44
0000
0001
0100
1000
,  // measure 45
0000
1000
0100
0001
,  // measure 46
0100
0000
1000
0000
0001
0000
1000
1000
,  // measure 47
0001
0100
0010
0010
0000
0010
0110
0000
,  // measure 48
0100
0001
1000
1000
0000
1000
1001
0000
,  // measure 49
1000
0001
0010
1000
0000
1000
0010
0001
,  // measure 50
0000
1000
0010
0100
0000
0100
0101
0000
,  // measure 51
0001
0100
0001
0000
0010
0000
0001
0000
0100
0001
0100
0000
0010
0100
0010
0000
,  // measure 52
1000
0010
1000
0000
0100
0000
1000
0000
0010
1000
0010
0000
0100
0010
0100
0000
,  // measure 53
0010
1000
0010
0000
1000
0000
0100
0000
1000
0010
1000
0000
0010
0100
0010
0000
,  // measure 54
1000
0001
0100
0010
1000
0001
0100
0010
,  // measure 55
1000
0000
0000
0100
0000
0000
0010
0000
0000
0000
0010
0000
0000
0000
0010
0100
,  // measure 56
0010
0000
0000
0001
0000
0000
1000
0000
0000
0000
1000
0000
0000
0000
1000
0000
,  // measure 57
0010
0000
1000
0001
0000
1000
0100
0010
,  // measure 58
0000
0100
1000
0001
0000
0001
1001
0000
,  // measure 59
1000
0001
1000
0000
0001
1000
0001
0000
1000
0001
1000
0000
0001
1000
0001
0000
,  // measure 60
1000
0010
1000
0000
0010
1000
0010
0000
1000
0010
1000
0000
0010
1000
0010
0000
,  // measure 61
0100
0010
0100
0000
0010
0100
0010
0000
0100
0010
0100
0000
0010
0100
0010
0000
,  // measure 62
0100
0001
0100
0000
0001
1000
0001
0000
0010
0001
0010
0000
0100
0010
0100
0010
,  // measure 63
0001
0000
0000
2000
0000
0000
0002
0000
,  // measure 64
0000
0000
0000
0000
,  // measure 65
3003
0000
0000
0000
;
