#TITLE:INFINITE PRAYER -Ryu☆ Remix-;
#SUBTITLE:;
#ARTIST:L.E.D. Remixed by Ryu☆;
#TITLETRANSLIT:;
#SUBTITLETRANSLIT:;
#ARTISTTRANSLIT:;
#GENRE:;
#CREDIT:Graphics made by TonyAkita;
#MUSIC:INFINITE PRAYER -Ryu Remix-.ogg;
#BANNER:INFINITE PRAYER -Ryu Remix-.png;
#BACKGROUND:INFINITE PRAYER -Ryu Remix--bg.png;
#JACKET:INFINITE PRAYER -Ryu Remix--jacket.png;
#CDTITLE:;
#SAMPLESTART:82.743;
#SAMPLELENGTH:15.000;
#SELECTABLE:YES;
#OFFSET:1.282;
#BPMS:0.000=177.000
,74.000=179.500
,76.000=177.000
,142.000=179.500
,144.000=177.000
,246.500=177.900
,248.000=177.000
;
#STOPS:;
#DISPLAYBPM:177.000;
#BGCHANGES:;
#FGCHANGES:;

//--------------- dance-single - forcednature ----------------
#NOTES:
     dance-single:
     forcednature:
     Beginner:
     4:
     0,0,0,0,0:
0000
0000
0000
0000
,
0000
0000
0000
0000
,
0000
0000
0000
0000
,
0000
0000
0000
0000
,
0000
0000
0000
0000
,
0000
0000
0000
0000
,
0000
0000
0000
0000
,
0001
0000
0000
0000
,
0100
0000
0000
0000
,
0010
0000
0000
0000
,
1000
0000
0000
0000
,
1001
0000
0000
0000
,
0100
0000
0000
0000
,
0001
0000
0000
0000
,
1000
0000
0000
0000
,
0010
0000
0000
0000
,
0100
0000
0000
0000
,
0001
0000
0000
0000
,
0010
0000
0000
0000
,
0110
0000
0000
0000
,
1000
0000
0000
0000
,
0001
0000
0000
0000
,
0100
0000
0000
0000
,
0001
0000
0000
0000
,
1000
0000
0000
0000
,
0010
0000
0000
0000
,
1000
0000
0000
0000
,
1001
0000
0000
0000
,
1000
0000
0000
0000
,
0010
0000
0000
0000
,
0100
0000
0000
0000
,
0001
0000
0000
0000
,
0010
0000
0000
0000
,
0001
0000
0000
0000
,
0100
0000
0000
0000
,
0010
0000
0000
0000
,
2000
0000
0000
0000
,
0000
0000
0000
0000
,
3002
0000
0000
0000
,
0000
0000
0000
0000
,
0023
0000
0000
0000
,
0000
0000
0000
0000
,
0230
0000
0000
0000
,
0000
0000
0300
0000
,
1001
0000
0000
0000
,
0001
0000
0000
0000
,
0100
0000
0000
0000
,
0010
0000
0000
0000
,
1000
0000
0000
0000
,
0100
0000
0000
0000
,
0010
0000
0000
0000
,
0001
0000
0000
0000
,
1001
0000
0000
0000
,
0100
0000
0000
0000
,
1001
0000
0000
0000
,
0010
0000
0000
0000
,
0110
0000
0000
0000
,
1001
0000
0000
0000
,
1001
0000
0000
0000
,
0100
0000
0000
0000
,
0020
0000
0000
0000
,
0030
0000
0000
0000
,
1000
0000
0001
0000
,
0100
0000
0010
0000
,
1000
0000
0001
0000
,
0010
0000
0100
0000
,
0100
0000
0100
0000
,
0001
0000
0100
0000
,
0100
0000
0100
0000
,
0001
0000
0100
0000
,
1000
0000
0001
0000
,
0100
0000
0010
0000
,
1000
0000
0001
0000
,
0010
0000
0100
0000
,
1000
0000
1000
0000
,
0010
0000
1000
0000
,
1000
0000
1000
0000
,
0010
0000
1000
0000
,
1001
0000
0001
0000
,
0100
0000
0001
0000
,
0010
0000
0100
0000
,
1000
0000
0010
0000
,
0100
0000
0001
0000
,
1000
0000
0010
0000
,
1000
0000
0100
0000
,
0010
0000
0001
0000
,
1001
0000
0000
0000
,
1001
0000
0000
0000
,
1001
0000
0000
0000
,
1001
0000
0000
0000
,
1001
0000
1000
0000
,
1001
0000
0001
0000
,
1001
0000
1001
0000
,
1001
0000
1001
0000
,
1001
0000
0000
0000
,
1001
0000
0000
0000
;

//--------------- dance-single - forcednature ----------------
#NOTES:
     dance-single:
     forcednature:
     Easy:
     7:
     0,0,0,0,0:
0000
0000
0000
0000
,
0000
0000
0000
0000
,
0000
0000
0000
0000
,
0000
0000
0000
0000
,
0000
0000
0000
0000
,
0000
0000
0000
0000
,
0000
0000
0000
0000
,
1001
0001
0100
0010
,
1000
0100
0010
0100
,
1000
0001
0100
0001
,
1000
0020
0000
0030
,
0100
0001
0100
0001
,
0100
0010
1000
0100
,
1000
1000
0001
0001
,
1000
0100
0010
0001
,
0100
0001
0100
0001
,
1000
0010
1000
0010
,
1000
0001
0010
0100
,
0020
0200
0000
0330
,
1000
0001
1000
0001
,
0100
0001
1000
0010
,
0100
0010
0100
0010
,
1000
0100
0010
0001
,
1000
0001
1000
0001
,
0010
0100
1000
0001
,
0100
0001
1000
0010
,
1001
0000
0000
0000
,
0001
0100
0100
0010
,
1000
0100
0010
0001
,
1000
0001
0100
0001
,
1000
0010
1000
0100
,
0010
0001
0100
0001
,
1000
0010
1000
0100
,
1000
0001
0100
0010
,
1000
0001
0010
0100
,
2000
0002
0000
3003
,
0002
0000
0100
0000
,
0010
0000
0103
0000
,
2000
0000
0010
0000
,
0100
0000
3010
0000
,
0020
0000
0001
0000
,
0100
0000
1030
0000
,
0200
0000
1000
0000
,
0010
0000
0301
0000
,
1000
0000
0000
1000
0000
0000
0000
0000
,
0001
0000
0000
0001
0000
0000
0000
0000
,
0100
0000
0000
0100
0000
0000
0000
0000
,
0010
0000
0020
0130
,
0001
0000
0000
0001
0000
0000
0000
0000
,
1000
0000
0000
1000
0000
0000
0000
0000
,
0100
0020
0130
0010
,
0001
0100
0100
0010
,
1001
0100
0100
0010
,
1000
0001
0000
1001
,
1001
0001
0100
0010
,
1000
0100
0010
0000
,
1001
0001
0100
0000
,
1001
1000
0100
0000
,
1001
1001
0110
0110
,
2000
0000
0000
0000
,
3000
0000
0000
0000
,
0002
2000
0000
3003
,
0001
0100
0001
0010
,
0100
1000
0100
0001
,
0100
1000
0010
0100
,
0001
0100
0010
1000
,
0001
0010
0100
1000
,
0010
0100
0001
1000
,
0100
0010
0001
0100
,
0010
1000
0001
0100
,
0001
1000
0100
0010
,
0100
1000
0001
0010
,
0001
1000
0010
0100
,
0001
0100
0010
1000
,
0100
0010
0001
0100
,
0010
1000
0001
0100
,
0010
0000
0000
1000
0000
0000
0100
0000
,
0000
0001
0000
0000
0010
0000
0010
0000
,
1001
1000
0010
0100
,
0001
0010
0100
1000
,
0110
0001
1000
0100
,
0001
0010
0100
0001
,
1001
1000
0010
0100
,
0001
0010
0100
1000
,
0110
0001
1000
0010
,
0100
0100
0100
0000
,
1001
0100
0010
0100
,
1001
0100
0010
0100
,
0110
1000
0001
1000
,
0110
0001
1000
0001
,
1001
0100
0100
0100
,
1001
0010
0010
0010
,
1001
0000
0000
1001
0000
0000
1001
0000
,
1000
0001
0110
0110
,
0002
2000
0000
3003
,
1001
0000
0000
0000
;

//--------------- dance-single - forcednature ----------------
#NOTES:
     dance-single:
     forcednature:
     Medium:
     11:
     0,0,0,0,0:
0000
0000
0000
0000
,
0000
0000
0000
0000
,
0000
0000
0000
0000
,
0000
0000
0000
0000
,
0000
0000
0000
0000
,
0000
0000
0000
0000
,
0000
0000
0000
0000
,
1001
0000
0001
0100
0000
0010
0000
1000
,
0100
0000
0010
0001
0000
1000
0000
0001
,
0100
0000
0010
1000
0000
0001
0001
0000
,
1000
0200
0310
0100
,
1000
0010
0000
1000
0010
0000
1000
0001
,
0000
0100
0001
0010
,
0001
0010
0000
0001
0010
0000
0001
1000
,
0000
0001
0100
0010
,
1000
0100
0000
1000
0100
0000
1000
0001
,
0000
1000
0001
0100
,
0001
0100
0000
0001
0100
0000
0001
1000
,
0000
0000
0200
0000
0010
0010
0310
0000
,
0001
0100
0000
0010
1000
0000
0001
0100
,
0001
1000
0010
1000
,
0100
1000
0000
0001
0010
0000
0100
1000
,
0001
1000
0010
0100
,
0001
1000
0000
0100
0010
0000
0001
1000
,
0100
0010
0001
1000
,
0001
0100
0000
0010
1000
0000
0001
1000
,
0000
0100
0010
0000
0100
1000
0100
0000
,
0010
0001
0000
1000
0001
0000
0100
0010
,
0000
1000
0000
0001
0000
1000
0001
0000
,
0010
0100
0000
1000
0001
0000
0100
0001
,
0000
1000
0000
0010
0000
1000
0100
0000
,
1000
0001
0000
0100
0001
0000
1000
0010
,
0000
1000
0000
0100
0000
0010
0001
0000
,
0100
0010
0000
1000
0001
0000
0010
0100
,
0000
1000
0001
0000
0100
0010
0100
0000
,
0000
0000
0002
0000
1000
1000
1003
0000
,
0001
0000
0100
0000
0010
0000
1000
0100
,
0000
0010
0000
0001
0000
0100
0010
0000
,
1000
0001
0000
1000
0100
0000
1000
0001
,
0000
0100
0001
0000
1000
0000
0010
0000
,
1000
0001
0100
0001
,
0010
0100
1000
0001
,
0100
0001
0000
0100
0001
0000
1000
0100
,
0000
1000
0100
0000
0010
0000
0100
0000
,
1001
0000
1000
1000
0000
0010
0000
0100
,
0100
0000
0001
0010
0000
0001
0001
0100
,
0010
0000
1000
1000
0000
0100
0000
0010
,
0010
0000
0100
0000
2000
0000
3001
0001
,
0100
0000
0010
0010
0000
1000
1000
0001
,
0001
0000
0010
0100
0000
1000
0001
0100
,
0001
0000
1000
0001
1000
0010
0100
0000
,
1001
0000
0000
1000
0001
0001
0001
0000
,
0110
0000
1000
0001
0001
0000
1000
0010
,
0000
1000
0000
0100
0000
0000
1001
0000
,
0110
0000
0001
1000
1000
0000
0010
0100
,
0000
0001
0000
1000
0000
0000
0100
0100
,
0110
0000
0001
1000
0000
0001
0100
0000
,
0110
0000
0001
1000
0000
1000
0100
0000
,
1100
0000
0000
0011
0000
0000
0001
0000
0100
0000
0010
0000
,
1000
0100
0010
0002
,
0200
0000
0000
0303
,
0000
0000
2000
0000
0001
0001
3001
0000
,
1000
0010
1000
0000
0001
0010
0000
0100
,
0000
1000
0000
0001
0000
0100
0001
0000
,
1000
0100
0000
1000
0100
0000
1000
0001
,
0000
1000
0001
0000
0100
0010
0100
0000
,
0001
0010
0001
0000
1000
0010
0000
0100
,
0000
0001
0000
0010
0000
0100
1000
0000
,
0001
0010
0000
0001
1000
0000
0001
0100
,
0000
0010
1000
0000
0100
1000
0100
0000
,
1000
0001
1000
0000
0010
0100
0000
0001
,
0000
0100
0000
0010
0000
1000
0100
0000
,
0010
0001
0000
1000
0001
0000
1000
0100
,
0000
0010
0100
0000
1000
0001
1000
0000
,
0001
0100
0001
0000
1000
0010
0000
0100
,
0000
0010
0000
1000
0000
0001
0100
0000
,
0110
0000
0000
1001
0000
0000
0110
0000
,
0000
1001
0000
0000
0100
0100
0100
0000
,
1000
0001
0100
0000
0010
1000
0000
0010
,
0000
0001
0000
0010
0000
0100
0001
0000
,
1000
0100
0000
0010
0001
0000
0100
1000
,
0000
0100
0001
0000
0100
0000
0010
0000
,
1001
0000
0001
0000
0100
0010
0000
0000
,
0110
0000
0001
0000
1000
0010
1000
0000
,
0001
0110
1000
0001
,
0100
0010
0100
0000
1001
0000
1000
0000
,
0001
0100
0001
0100
0001
0100
0001
0000
,
1000
0100
1000
0100
1000
0100
1000
0000
,
0001
1000
0001
1000
0001
1000
0001
0000
,
0100
0010
0100
0010
0100
0010
0100
0000
,
0011
0001
0100
0010
,
1100
0001
0100
0010
,
1000
0001
1000
0001
0100
0001
0100
0000
,
0020
0000
0000
0130
0000
0000
0001
0000
1000
0000
0001
0000
,
1000
0000
0002
0000
0100
0100
0103
0000
,
1001
0000
0000
0000
;

//--------------- dance-single - forcednature ----------------
#NOTES:
     dance-single:
     forcednature:
     Hard:
     13:
     0,0,0,0,0:
0000
0000
0000
0000
,
0000
0000
0000
0000
,
0000
0000
0000
0000
,
0000
0000
0000
0000
,
0000
0000
0000
0000
,
0000
0000
0000
0000
,
0000
0000
0000
0000
,
1001
0000
0001
0100
0000
0010
1000
0010
,
1000
0000
0100
0010
0000
0001
1000
0001
,
1000
0000
0010
0010
0000
0100
0001
0100
,
0001
0000
1000
0100
0001
0100
1000
0000
,
0010
0100
0001
1000
0010
0100
0001
1000
,
0000
0100
0010
0001
,
1000
0001
0100
0001
1000
0001
0100
0001
,
0000
0000
1000
0000
0010
0000
0100
0100
,
0001
0010
0100
1000
0001
0010
0100
1000
,
0000
0000
0010
0000
1000
0000
0001
0001
,
1000
0100
0010
0001
1000
0100
0010
0001
,
0100
0000
0010
0000
1000
0001
0100
0100
,
0001
1000
0010
0100
0001
1000
0010
0100
,
0001
0010
0100
1000
,
0100
0010
0001
1000
0100
0010
0001
1000
,
0100
0000
1000
0000
0010
0000
0100
0100
,
0001
1000
0100
1000
0001
1000
0100
1000
,
0010
0100
0001
1000
,
0010
0100
0001
0100
0010
0100
0001
0100
,
0010
1000
0100
0010
0001
0100
0010
1000
,
0001
0010
0100
1000
0001
0100
0010
1000
,
0100
1000
0010
1000
0100
1000
0010
1000
,
0001
0100
0010
1000
0001
0010
0100
1000
,
0001
0010
0001
0100
0001
0010
0001
0100
,
0001
0100
0010
1000
0100
0010
0100
1000
,
0010
0100
0001
1000
0100
0010
0001
0100
,
0010
1000
0100
1000
0010
0100
0001
0010
,
0110
0000
1000
1000
0001
0100
0010
1000
,
0100
0000
1000
0001
0010
0010
0100
1000
,
0002
0100
0010
1000
,
0010
0100
1000
0010
,
0023
0000
1000
0000
,
0100
0000
0001
0000
,
0230
0000
0001
0000
,
1000
0000
0010
0000
,
2300
0000
0010
0000
,
0001
0000
0100
0000
,
3001
0000
0100
0010
0000
1000
0001
1000
,
0001
0000
0010
0100
0000
1000
0100
1000
,
0100
0000
0010
0001
0000
1000
0001
1000
,
0001
0000
0100
0000
0020
0000
1030
1000
,
0001
0010
0100
1000
0000
0001
0100
0001
,
1000
0010
1000
0001
0000
1000
0100
0010
,
0100
0000
2020
0000
3030
0000
0001
0100
,
0001
0010
0100
0000
0020
0000
0000
0030
,
0100
1000
0001
0100
0001
1000
0010
1000
,
0001
0100
0001
1000
0100
0010
0001
0100
,
0010
1000
0001
0010
0001
1000
0010
1000
,
0001
0010
0001
1000
0010
0100
0001
1000
,
0100
0010
0100
1000
0001
0100
0010
1000
,
0100
0010
0100
1000
0001
0100
0010
1000
,
0100
0000
0000
1000
0000
0000
0001
0000
0000
0100
0000
0000
0001
0000
1000
0000
0001
0000
1000
0000
0001
0000
1000
0000
,
0001
0010
0100
1000
0010
0100
0001
1000
,
0200
0000
0000
0000
,
0310
0000
0001
1000
0010
0010
0100
0001
,
1000
0010
0100
0001
1000
0100
0010
0001
,
0100
0010
1000
0001
1000
0010
0100
0001
,
1000
0100
0001
0100
1000
0010
0001
0010
,
0100
0001
0010
0100
1000
0001
0100
0000
,
0010
1000
0001
1000
0100
0010
0001
0100
,
0010
1000
0100
0001
0100
1000
0010
0100
,
0001
0010
1000
0010
0001
0100
1000
0100
,
0001
0010
1000
0010
0001
0100
0010
0000
,
1000
0001
1000
0010
0100
0001
1000
0100
,
1000
0001
0010
0001
1000
0010
0100
0001
,
1000
0010
0001
0010
1000
0100
0001
0100
,
1000
0010
0001
0010
1000
0100
0010
0000
,
0001
0100
0010
1000
0001
0100
0010
1000
,
0100
0010
0100
1000
0001
0100
0010
1000
,
1010
0000
0000
0110
0000
0000
0101
0000
,
0000
1001
0000
0000
0100
0100
0100
0000
,
1000
0001
1000
0010
1000
0001
0100
0010
,
1000
0100
0010
0001
0100
0010
1000
0100
,
0001
0100
0100
1000
0100
0100
0001
0100
,
0100
1000
0100
0100
0010
0001
1000
0010
,
0100
0001
0100
1000
0100
0010
1000
0100
,
0010
0001
1000
0010
0100
0001
1000
0100
,
0010
0000
0110
0000
1000
0001
0100
0010
,
1000
0000
0001
0000
0000
1001
0000
0000
1000
0000
0010
0000
0100
0000
0001
0000
,
0010
0001
0010
0001
0010
0001
0010
0001
,
0100
1000
0100
1000
0100
1000
0100
1000
,
0100
0001
0100
0001
0100
0001
0100
0001
,
1000
0010
1000
0010
1000
0010
2000
0000
,
3100
0010
0001
1000
0010
0001
0010
1000
,
0100
0001
0100
0010
0001
1000
0010
0100
,
0001
0100
0000
0000
0100
0010
0000
0000
0010
1000
0000
0000
1000
0001
0000
0000
,
2000
0000
0000
3002
0000
0000
1003
0001
1000
0001
1000
0001
,
0010
0100
1000
0000
0001
0100
0010
0010
,
1000
0000
0000
0000
;

//--------------- dance-single - forcednature ----------------
#NOTES:
     dance-single:
     forcednature:
     Challenge:
     14:
     0,0,0,0,0:
0000
0000
0000
0000
,
0000
0000
0000
0000
,
0000
0000
0000
0000
,
0000
0000
0000
0000
,
0000
0000
0000
0000
,
0000
0000
0000
0000
,
0000
0000
0000
0000
,
1001
0000
0001
0100
0000
0010
0001
0010
,
1000
0000
0100
0001
0000
0100
0010
0001
,
2000
0000
3000
0000
0010
0000
0010
0000
0000
0000
0100
0001
0100
0000
0010
0000
,
1000
0000
0000
0000
0100
0010
0100
0010
0100
0000
1000
0000
0001
0000
0000
0000
,
1100
0101
1100
0000
1000
0010
0100
0001
,
0010
0001
1000
0100
0010
0001
1000
0001
,
0101
1100
0110
0000
1000
0100
0010
0001
,
0100
0010
1000
0001
0100
0010
1000
0001
,
0101
1100
0101
0000
0001
0010
0100
1000
,
0010
1000
0001
0100
0010
1000
0001
1000
,
0001
0010
1000
0001
0100
1000
0001
0100
,
0020
0000
0030
0000
0010
0000
0000
0000
1000
0000
0100
0000
1000
0001
1000
0001
,
1000
0110
1001
0100
,
1000
0000
0001
0000
1000
0000
0001
0000
0100
0000
0000
0000
0010
0000
0000
0001
,
0100
0001
0010
0001
0100
0000
0001
0000
,
0100
1000
0100
0001
0001
0000
1000
0010
,
0001
1010
0011
1000
,
1000
0001
0100
0010
0100
0000
0010
0000
,
0001
0100
1000
0100
0100
0000
0010
0100
,
1000
0000
0000
0000
1100
0000
0000
0000
0101
0000
0000
0000
0001
0000
0100
0010
,
0100
0010
0010
0100
0100
0001
0001
0010
,
0010
0100
0100
1000
1000
0001
0001
1000
,
0001
0010
0010
1000
0010
0010
0001
0010
,
0010
1000
0010
0010
0100
1000
1000
0010
,
1000
0001
0001
0100
0100
0010
0010
1000
,
1000
0001
0001
0010
0010
0100
0100
1000
,
0001
0100
0100
1000
0100
0100
0010
0100
,
0100
1000
0100
0100
0001
0100
0100
0010
,
2000
0000
3000
0000
0001
0000
0010
0000
0100
1000
0100
1000
0100
0000
0010
0000
,
0001
0100
0010
1000
0100
0010
0001
0020
,
0000
2030
0000
3020
0000
0130
1000
0001
,
0100
2000
0000
3100
0020
0000
1030
0200
,
0000
0310
2000
0000
3010
0001
1000
0001
,
0100
1000
0100
0010
1000
0100
0010
0002
,
0000
0203
0000
0320
0000
0031
0010
1000
,
0100
0002
0000
0103
0020
0000
0031
2000
,
0000
3010
0200
0000
0301
0100
0001
1000
,
1100
0000
0001
0101
0000
1000
0100
0010
,
0110
0000
0010
0011
0000
1000
0001
0100
,
0101
0000
1000
1010
0000
1000
0100
0010
,
0110
0000
0000
0000
2000
0000
3000
0000
0001
1000
0000
0000
0001
0100
0001
0100
,
0001
0000
0010
0110
0000
0100
1000
0001
,
1001
0000
1000
1010
0000
0001
0010
0100
,
0000
0000
0000
0000
1000
0001
1000
0001
1000
0000
0010
0000
0110
0000
0000
0000
,
1001
0000
0000
0000
0001
0010
0001
0010
0001
0000
0100
0000
0010
0000
1000
0000
,
1001
0001
0100
0010
1000
0100
0010
1000
,
0010
0100
1000
0001
0100
0010
0110
0100
,
0101
0001
1000
0010
1000
0100
0010
0001
,
0100
0000
1000
0000
0100
0000
0001
0000
1000
0100
0000
0000
0010
0000
0001
0000
,
0011
0010
0100
1000
0001
1000
0010
0100
,
0110
0100
0001
1000
0100
0001
0100
1000
,
1100
0000
0000
0011
0000
0000
0001
0100
0010
1000
0010
0100
,
0001
0100
1000
0001
0010
1000
0100
0010
,
0002
0000
0000
0000
0000
0000
0000
0003
,
0200
0000
0300
0000
0010
0000
1000
0000
0001
0010
0001
0010
0001
0000
1000
0000
,
0001
0100
0010
1000
0001
0100
0010
1000
,
0001
1000
0100
0010
0001
1000
0010
0100
,
0001
0100
0100
0001
0010
0010
0001
1000
,
1000
0001
0100
0100
0100
0001
0010
0100
,
1000
0100
0010
0001
1000
0100
0010
0001
,
1000
0001
0100
0010
1000
0001
0010
0100
,
1000
0100
0100
0010
0100
0100
1000
0001
,
0001
0010
0100
0100
0010
0001
0010
1000
,
0010
0100
1000
0001
0100
1000
0100
0010
,
1000
0100
0010
0001
0100
1000
0100
0001
,
1000
0100
0100
0010
0100
0100
1000
0001
,
0001
0100
0001
0001
0010
0001
1000
0010
,
0100
1000
0100
0001
0100
0010
1000
0100
,
0001
0100
0010
0001
1000
0010
0100
0001
,
0101
0000
0000
1001
0000
0000
1100
0000
,
0000
1001
0000
0000
0110
0110
0110
0000
,
1000
0010
0100
1000
0100
0001
1000
0100
,
0001
0100
0010
1000
0010
0001
1000
0010
,
1000
0100
0001
1000
0010
0001
1000
0100
,
0001
1000
0010
0001
1000
0100
0001
0100
,
0110
0010
0001
0100
1000
0100
0010
1000
,
1001
1000
0100
0010
0001
0100
1000
0100
,
0010
1000
1001
0001
0010
1000
0010
0100
,
0110
0000
1100
0000
0000
1001
0000
0000
0001
0000
0100
0000
0010
0000
1000
0000
,
0001
0100
1000
0100
0001
0100
1000
0100
,
0001
0010
1000
0010
0001
0010
1000
0010
,
0001
0100
0001
0010
0001
0100
0001
0010
,
0100
0000
1000
0000
0010
0000
1000
0000
0100
0000
1000
0000
0001
1000
0001
1000
,
0001
0000
0010
0001
0010
0000
0100
1000
0100
0000
1000
0010
1000
0000
0001
0100
,
0001
0000
1000
0001
1000
0000
0100
0010
0100
0000
1000
0010
1000
0000
0001
0010
,
0001
0010
0000
0100
1000
0100
0000
1000
0001
1000
0000
0010
0100
0010
0000
1000
,
0002
0000
0000
1003
0000
0000
0002
0000
0000
0013
0000
0000
0001
0000
0010
0000
0100
0000
1000
0000
0100
0000
0010
0000
,
0002
0000
0103
0000
0010
0000
0000
0000
1000
0000
0100
0000
1000
0001
1000
0001
,
0100
0000
0000
0000
;

//--------------- dance-double - forcednature ----------------
#NOTES:
     dance-double:
     forcednature:
     Easy:
     8:
     0,0,0,0,0:
00000000
00000000
00000000
00000000
,
00000000
00000000
00000000
00000000
,
00000000
00000000
00000000
00000000
,
00000000
00000000
00000000
00000000
,
00000000
00000000
00000000
00000000
,
00000000
00000000
00000000
00000000
,
00000000
00000000
00000000
00000000
,
00011000
00001000
01000000
00010000
,
10000000
00100000
10000000
00010000
,
00100000
00100000
00001000
00001000
,
00010000
00000100
00001000
00000000
,
00000110
00000001
00001000
00000001
,
00000100
00001000
00010000
00000000
,
01100000
10000000
00010000
10000000
,
01000000
00010000
00001000
00000000
,
00000110
00000001
00000010
00001000
,
00000010
00000100
00001000
00000000
,
01100000
00100000
10000000
00010000
,
00200000
02000000
00000000
03300000
,
10010000
00010000
01000000
00001000
,
00010000
00000100
00001000
00000000
,
00001001
00000001
00000100
00000010
,
00001000
00000100
00000010
00000000
,
00000110
00000100
00001000
00000001
,
00000100
00000010
00001000
00000000
,
00011000
00001000
00010000
00001000
,
01000000
00100000
10000000
00000000
,
01100000
01000000
10000000
00010000
,
00100000
00001000
00010000
00000010
,
00001000
00000001
00000100
00000010
,
00001000
00000100
00010000
00001000
,
00010000
00001000
01000000
00010000
,
10000000
00100000
10000000
00010000
,
00100000
01000000
10000000
00010000
,
01000000
00001000
00010000
00000100
,
00002000
00000002
00000000
00003003
,
00000002
00000000
00000000
00000000
,
00000000
00000000
00000000
00000000
,
00000203
00000000
00000000
00000000
,
00000000
00000000
00000000
00000000
,
00000320
00000000
00000000
00000000
,
00000000
00000000
00000000
00000000
,
00020030
00000000
00000000
00000000
,
00000000
00000000
00000000
00030000
,
00011000
00000000
00000000
00001000
00000000
00000000
01000000
00000000
,
01100000
00000000
00000000
00100000
00000000
00000000
10000000
00000000
,
10010000
00000000
00000000
00010000
00000000
00000000
00100000
00000000
,
01100000
00000000
00010000
00001001
,
00011000
00000000
00000000
00000100
00000000
00000000
00001000
00000000
,
00001001
00000000
00000000
00000001
00000000
00000000
00000100
00000000
,
00000010
00001000
00000100
00010000
,
00011000
01000000
00010000
00010000
,
10010000
00000000
00000000
10010000
00000000
00000000
10000000
00000000
,
00100000
10000000
01000000
00000000
,
00011000
00000000
00000000
00011000
00000000
00000000
00010000
00000000
,
00000100
00001000
00000001
00000000
,
00001001
00000000
00000000
00000100
00000000
00000000
00000000
00000000
,
00001001
00000000
00000000
00000010
00000000
00000000
00000000
00000000
,
00011000
00010000
00000100
00010000
,
00001000
01000000
00001000
00020000
,
00000200
00000000
00000000
00030300
,
00000002
00002000
00000000
00003003
,
00001001
00000001
00000100
00000010
,
00001000
00000100
00010000
00001000
,
00100000
00010000
01000000
00100000
,
10000000
01000000
00100000
01000000
,
10000000
00010000
01000000
00100000
,
10000000
00010000
00100000
00010000
,
01000000
00001000
00010000
00100000
,
00010000
00001000
00100000
00001000
,
00010000
00000100
00001000
00000001
,
00000100
00000010
00001000
00000100
,
00000010
00000001
00000100
00000010
,
00010000
00001000
00100000
00010000
,
10000000
00100000
10000000
01000000
,
00100000
01000000
10000000
00010000
,
10010000
00000000
00000000
00010000
00000000
00000000
00100000
00000000
,
00000000
00001000
00000000
00000000
00010000
00000000
00010000
00000000
,
00011000
00010000
00000100
00001000
,
00000010
00000100
00000001
00000010
,
00000110
00000100
00001000
00000001
,
00000100
00000010
00010000
00001000
,
00011000
00001000
01000000
00010000
,
10000000
00100000
10000000
00010000
,
10010000
00010000
01000000
00100000
,
01000000
00000000
01100000
01100000
,
10010000
10000000
01000000
00100000
,
01100000
00100000
00001000
00010000
,
00011000
00001000
00010000
00000100
,
00000110
00000010
00000001
00000100
,
00000010
00000010
00001000
00000100
,
00010000
00010000
00001000
00100000
,
01100000
00000000
10010000
00000000
,
10000000
00010000
01000000
00001000
,
00020000
00002000
00000000
00033000
,
00011000
00000000
00000000
00000000
;

//--------------- dance-double - forcednature ----------------
#NOTES:
     dance-double:
     forcednature:
     Medium:
     10:
     0,0,0,0,0:
00000000
00000000
00000000
00000000
,
00000000
00000000
00000000
00000000
,
00000000
00000000
00000000
00000000
,
00000000
00000000
00000000
00000000
,
00000000
00000000
00000000
00000000
,
00000000
00000000
00000000
00000000
,
00000000
00000000
00000000
00000000
,
00011000
00000000
00001000
00010000
00000000
00100000
00000000
01000000
,
00010000
00000000
10000000
01000000
00000000
00100000
00000000
00001000
,
00010000
00000000
00000010
00000100
00000000
00000001
00000000
00000010
,
00000100
00001000
00000100
00011000
,
00100000
01000000
00000000
00100000
01000000
00000000
10000000
00010000
,
00000000
01000000
00001000
00010000
,
00000100
00000010
00000000
00000100
00000010
00000000
00000001
00001000
,
00000000
00000001
00000100
00001000
,
00010000
00000100
00000000
00010000
00000100
00000000
00001000
00000001
,
00000000
00000100
00000010
00010000
,
00001000
00100000
00000000
00001000
00100000
00000000
01000000
10000000
,
00200000
00000000
01300000
00000000
00001000
00000000
00010000
00010000
,
00001000
00000100
00000000
00001000
00000100
00000000
00000010
00000100
,
00000000
00000001
00001000
00000100
,
00010000
00001000
00000000
00010000
00001000
00000000
00010000
00100000
,
00000000
01000000
00010000
10000000
,
00010000
01000000
00000000
00010000
01000000
00000000
00001000
00010000
,
00000000
00000100
00001000
00000010
,
00000100
00000001
00000000
00000100
00000001
00000000
00001000
00000010
,
00000000
00001000
00000010
00000000
00010000
00000000
00001000
00000000
,
01000000
00010000
00000000
01000000
00010000
00000000
10000000
01000000
,
00000000
00100000
00000000
00001000
00000000
00010000
00000000
00000000
,
00000010
00000100
00000000
00000010
00000100
00000000
00000001
00001000
,
00000000
00000100
00000000
00010000
00000000
00001000
00000000
00000000
,
01000000
00010000
00000000
10000000
00010000
00000000
10000000
00100000
,
00000000
01000000
00000000
00010000
00000000
00100000
00000000
00000000
,
00001000
00010000
00000000
00000100
00010000
00000000
00001000
00010000
,
00000000
00000010
00001000
00000000
00000001
00000000
00001000
00000000
,
00000100
00000000
00000010
00000000
00000100
00000100
00010000
00000000
,
00001000
00010000
00001000
00000000
01000000
00010000
00000000
10000000
,
00000000
00100000
00000000
10000000
00000000
00010000
00100000
00000000
,
01000000
10000000
01000000
00000000
00100000
00001000
00000000
00010000
,
00000000
00000010
00000000
00001000
00000000
00000001
00000100
00000000
,
00000010
00001000
00000010
00000000
00000100
00000001
00000000
00000010
,
00000000
00000100
00000000
00010000
00000000
00001000
01000000
00000000
,
00010000
10000000
00010000
00000000
10000000
00100000
00000000
10000000
,
00000000
01000000
00000000
00100000
00000000
00001000
00010000
00000000
,
00000110
00000000
00000100
00000100
00000000
00000001
00001000
00000000
,
00001001
00000000
00001000
00001000
00000000
00000100
00010000
00000000
,
00011000
00000000
00001000
00001000
00000000
00100000
01000000
00000000
,
10010000
00000000
10000000
10000000
00100000
00000000
00100000
01000000
,
00001000
00000000
00010000
00000100
00000000
00000010
00000010
00000000
,
00001001
00000000
00000001
00000100
00000000
00000010
00000010
00000000
,
00000000
00000000
00010000
00010000
00001000
00001000
00100000
00000000
,
01000000
00000000
10000000
10000000
10000000
00000000
00100000
00000000
,
10010000
00000000
00010000
01000000
00000000
00010000
00000000
00100000
,
00001000
00000000
00010000
00001000
00000000
00010000
00000000
00000010
,
00001000
00000000
00000001
00001000
00000000
00000100
00000000
00000010
,
00000001
00000000
00001000
00000001
00000001
00000000
00000100
00000100
,
00000110
00000000
00010000
00001000
00000000
00100000
00000000
00010000
,
10010000
00000000
10000000
00100000
00000000
10000000
00010000
10000000
,
00010000
00000000
00000000
00100000
00000000
00000000
00001000
00000000
00010000
00000000
00001000
00000000
,
00020000
00000000
00001000
00000000
00000100
00000000
00000010
00030000
,
00000000
00000000
00000000
00000000
,
00002000
00000000
00103000
00000000
00100000
01000000
10000000
00000000
,
00010000
01000000
00010000
00000000
00100000
00001000
00000000
00010000
,
00000000
00000010
00000000
00001000
00000000
00000001
00000100
00000000
,
00000010
00000100
00000000
00000001
00001000
00000000
00000100
00000010
,
00000000
00000100
00010000
00000000
00001000
00000000
00100000
00000000
,
00010000
10000000
00010000
00000000
01000000
00100000
00000000
10000000
,
00000000
01000000
00000000
00100000
00000000
00010000
01000000
00000000
,
00001000
00010000
00000000
00000100
00001000
00000000
00000001
00001000
,
00000000
00000010
00000100
00000000
00000001
00000000
00000010
00000000
,
00000100
00001000
00000100
00000000
00010000
00001000
00000000
01000000
,
00000000
00010000
00000000
10000000
00000000
00100000
01000000
00000000
,
00010000
00100000
00000000
01000000
10000000
00000000
00010000
01000000
,
00000000
00100000
10000000
00000000
00010000
00000000
00100000
00000000
,
00001000
00010000
00001000
00000000
00000100
00000010
00000000
00001000
,
00000000
00000100
00000000
00000010
00000000
00000001
00000100
00000000
,
00000110
00000000
00000000
00001001
00000000
00000000
00011000
00000000
,
00000000
01100000
00000000
00000000
10000000
00010000
10000000
00000000
,
00100000
01000000
00100000
00000000
10000000
00010000
00000000
00100000
,
00000000
00001000
00000000
00010000
00000000
00000100
00001000
00000000
,
00000001
00000100
00000000
00000001
00000100
00000000
00000010
00001000
,
00000000
00000010
00001000
00000000
00000100
00010000
00000100
00000000
,
00011000
00001000
01000000
00010000
,
10010000
10000000
00100000
10000000
,
01000000
00110000
00001000
00000100
,
00000110
00000000
00000001
00000000
00001000
00000001
00001000
00000000
,
00000101
00000001
00000100
00001000
,
00011000
00001000
00010000
01000000
,
11000000
10000000
01000000
00010000
,
00011000
00010000
00001000
00000100
,
00000001
00000010
00000001
00000000
00000100
00000010
00000100
00000000
,
00001000
00010000
00001000
00000000
00100000
00010000
00100000
00000000
,
01000000
10000000
01000000
00000000
00100000
00010000
00100000
00000000
,
00002000
00000000
00000000
00003000
00000000
00000000
00020000
00000000
00000000
00030000
00000000
00000000
00000010
00000000
00000000
00000000
00000100
00000000
00000000
00000000
00000001
00000000
00000000
00000000
,
00002000
00000000
00003100
00000000
00010000
00001000
00010000
00000000
,
01100000
00000000
00000000
00000000
;

//--------------- dance-double - forcednature ----------------
#NOTES:
     dance-double:
     forcednature:
     Hard:
     13:
     0,0,0,0,0:
00000000
00000000
00000000
00000000
,
00000000
00000000
00000000
00000000
,
00000000
00000000
00000000
00000000
,
00000000
00000000
00000000
00000000
,
00000000
00000000
00000000
00000000
,
00000000
00000000
00000000
00000000
,
00000000
00000000
00000000
00000000
,
00011000
00000000
00001000
01000000
00000000
00010000
00000000
10000000
,
01000000
00000000
00100000
00010000
00000000
01000000
00001000
01000000
,
00001000
00000000
00010000
00000100
00000000
00001000
00000001
00001000
,
00000001
00000200
00000300
00000110
,
00000001
00000100
00000001
00000100
00000010
00001000
00000010
00001000
,
00000000
00000100
00010000
00001000
,
00100000
00010000
00100000
00010000
10000000
01000000
10000000
01000000
,
00000000
00000000
10000000
00000000
00010000
00000000
01000000
01000000
,
00010000
00100000
00010000
00100000
00001000
00010000
00001000
00010000
,
00000000
00000010
00001000
00000001
,
00001000
00000100
00001000
00000100
00010000
00001000
00010000
00001000
,
00100000
00000000
00001000
00000000
00010000
00000100
00001000
00001000
,
00000001
00000100
00000001
00000100
00000010
00001000
00000010
00001000
,
00000100
00010000
00001000
01000000
,
00010000
10000000
00010000
10000000
01000000
00100000
01000000
00100000
,
01000000
00000000
10000000
00000000
00010000
00000000
00100000
00100000
,
00001000
00010000
00001000
00010000
00000100
00001000
00000100
00001000
,
00000001
00000100
00000010
00001000
,
00000100
00010000
00000100
00010000
00001000
00100000
00001000
00100000
,
00010000
10000000
00010000
10000000
00100000
01000000
00010000
10000000
,
01000000
10000000
01000000
10000000
01000000
00100000
01000000
10000000
,
00010000
00100000
01000000
10000000
00010000
01000000
00100000
10000000
,
00010000
00100000
00010000
00100000
00001000
00010000
00001000
00010000
,
00000100
00001000
00000001
00000100
00000010
00001000
00000001
00000010
,
00000100
00001000
00000100
00001000
00000010
00000100
00000010
00000100
,
00000001
00000010
00000001
00001000
00000010
00000100
00000001
00001000
,
00000100
00010000
00001000
00100000
00001000
00010000
00000010
00010000
,
00001000
01000000
00001000
00100000
00010000
00010000
00100000
01000000
,
10000000
00000000
00100000
01000000
00010000
00010000
00100000
00001000
,
00020000
00001000
00100000
00001000
,
00000100
00001000
00000010
00001000
,
00030200
00000000
00001000
00000000
,
00000010
00000000
00001000
00000000
,
00020300
00000000
00001000
00000000
,
00000010
00000000
00001000
00000000
,
02030000
00000000
10000000
00000000
,
00100000
00000000
10000000
00000000
,
13000000
00000000
00010000
01000000
00000000
00001000
00010000
00001000
,
00010000
00000000
00000100
00010000
00000000
00001000
00100000
00001000
,
00100000
00000000
00001000
00010000
00000000
00000010
00000100
00001000
,
00000100
00000000
00000010
00000000
00000110
00000000
00000001
00001000
,
00000001
00000000
00001000
00000100
00000000
00010000
00001000
01000000
,
00001000
00000000
01000000
00010000
00000000
10000000
00100000
10000000
,
01000000
00000000
00200000
00000000
00300000
00010000
01000000
00000000
,
00001000
00010000
00000100
00010000
00001000
00100000
00001000
00000000
,
00010000
00001000
00010000
00001000
00010000
00000100
00010000
00000100
,
00001000
00000010
00001000
00000010
00000100
00000001
00000010
00000000
,
00000100
00010000
00000100
00010000
00001000
00100000
00001000
00100000
,
00010000
10000000
01000000
00100000
01000000
10000000
00010000
00000000
,
10000000
00100000
10000000
00100000
01000000
00010000
01000000
00010000
,
00100000
00001000
00010000
00000100
00010000
00001000
00100000
00000000
,
00001000
00000000
00000000
00010000
00000000
00000000
00000100
00000000
00000000
00001000
00000000
00000000
00000001
00000000
00001000
00000000
00000001
00000000
00001000
00000000
00000001
00000000
00001000
00000000
,
00000001
00000100
00000010
00001000
00000100
00000010
00000001
00000100
,
00000020
00000000
00000000
00000000
,
00010030
00000000
00001000
00100000
01000000
01000000
10000000
00010000
,
10000000
00100000
10000000
00100000
00010000
00100000
00010000
00100000
,
01000000
00001000
00100000
00010000
01000000
00001000
00010000
00000100
,
00001000
00000100
00001000
00000100
00000001
00000100
00000001
00000100
,
00001000
00000010
00000100
00000001
00001000
00000010
00000100
00000000
,
00000001
00000010
00000001
00000010
00001000
00000010
00001000
00000010
,
00000100
00010000
00001000
01000000
00010000
10000000
00100000
01000000
,
10000000
01000000
10000000
01000000
00010000
00100000
00010000
00100000
,
01000000
10000000
00010000
00100000
00001000
01000000
00010000
00000000
,
00100000
00010000
00100000
00010000
01000000
00001000
01000000
00001000
,
00010000
00000100
00001000
00000001
00000100
00000010
00001000
00000100
,
00010000
00001000
00010000
00001000
00100000
01000000
00100000
01000000
,
10000000
00100000
01000000
00010000
00100000
00001000
00010000
00000000
,
00000100
00001000
00000100
00001000
00000001
00000100
00000001
00000100
,
00000010
00001000
00000100
00000010
00000001
00000100
00000010
00000000
,
00000110
00000000
00000000
00001100
00000000
00000000
00011000
00000000
,
00000000
01010000
00000000
00000000
01100000
00100000
00100000
00000000
,
10000000
00010000
10000000
00100000
01000000
00010000
00100000
01000000
,
10000000
00010000
01000000
00010000
00100000
00001000
00010000
00000010
,
00001000
00000100
00000010
00000001
00000010
00000100
00001000
00000001
,
00000100
00000001
00001000
00000100
00010000
00001000
00100000
00010000
,
10000000
00100000
01000000
00010000
00100000
01000000
10000000
00010000
,
01000000
00010000
10000000
00100000
10000000
01000000
00100000
00010000
,
01000000
00001000
00010000
00000100
00010000
00001000
00100000
00001000
,
00010000
00000000
00000010
00000000
00000000
00001000
00000000
00000000
00000100
00000000
00000010
00000000
00000001
00000000
00000100
00000000
,
00000010
00000001
00000010
00001000
00000010
00000001
00000010
00001000
,
00000100
00000010
00000100
00010000
00000100
00000010
00000100
00010000
,
00001000
00000100
00001000
00010000
00001000
00000100
00001000
00010000
,
00100000
10000000
00100000
00010000
00100000
10000000
00100000
00010000
,
00001000
00010000
01000000
10000000
00010000
01000000
00100000
10000000
,
01000000
00010000
00001000
00000100
00000001
00000010
00000100
00001000
,
00001001
00000000
00000000
00001100
00000000
00000000
00011000
00000000
,
00010000
00000000
00000000
00001000
00000000
00000000
01000000
00000000
00000000
00010000
00000000
00000000
10000000
00000000
00010000
00000000
10000000
00000000
00010000
00000000
10000000
00000000
00010000
00000000
,
10000000
00100000
01000000
00000000
00010000
00010000
00100000
00001000
,
00010000
00000000
00000000
00000000
;

//--------------- dance-double - forcednature ----------------
#NOTES:
     dance-double:
     forcednature:
     Challenge:
     14:
     0,0,0,0,0:
00000000
00000000
00000000
00000000
,
00000000
00000000
00000000
00000000
,
00000000
00000000
00000000
00000000
,
00000000
00000000
00000000
00000000
,
00000000
00000000
00000000
00000000
,
00000000
00000000
00000000
00000000
,
00000000
00000000
00000000
00000000
,
00011000
00000000
00010000
00000100
00000000
00000010
00000001
00000100
,
00000010
00000000
00001000
00000100
00000000
01000000
00010000
00100000
,
01000000
00000000
00000000
00000000
10000000
00000000
10000000
00000000
00000000
00000000
00010000
01000000
00010000
00000000
00100000
00000000
,
00001000
00000000
00000000
00000000
00010000
00001000
00010000
00001000
00010000
00000000
00000100
00000000
00000010
00000000
00000000
00000000
,
00001001
00000000
00000002
00000010
00001003
00000001
00000000
00000010
,
00000001
00000100
00000010
00001000
00000100
00001000
00000100
00000000
,
00011000
00000000
00001000
01000000
00020000
00000000
00030000
00100000
,
00010000
01000000
00100000
10000000
01000000
10000000
00010000
00000000
,
10100000
00000000
00200000
10000000
02300000
00000000
00000000
03000000
,
00100000
10000000
01000000
00100000
00001000
00010000
00001000
00000000
,
00010000
00000100
00001000
00000001
00000100
00000010
00001000
00000100
,
00020000
00000000
00030000
00000000
00001000
00000000
00000000
00000000
01000000
00000000
00100000
00000000
10000000
00010000
10000000
00010000
,
10000000
00100000
10000000
01000000
10000000
00100000
00010000
00001000
,
00000010
00000001
00000100
00000001
00000010
00000001
00000100
00000000
,
00001000
00010000
00100000
00010000
00001000
00000010
00001000
00010000
,
00100000
00010000
00001000
00000010
00001000
00010000
00100000
00000000
,
10000000
01000000
10000000
00100000
10000000
00010000
00100000
00010000
,
01000000
00001000
00010000
00000100
00010000
00000010
00010000
00000100
,
00000010
00000001
00000100
00000001
00001000
00000001
00000100
00000010
,
00001000
00000010
00010000
00000010
00000100
00000010
00010000
00000000
,
00001000
00010000
00000100
00001000
00000010
00000100
00001000
00010000
,
01000000
10000000
00100000
01000000
00010000
00100000
00001000
00010000
,
00000010
00000100
00000100
00000001
00001000
00001000
00000100
00000001
,
00000001
00000100
00001000
00001000
00000010
00010000
00001000
00100000
,
00001000
01000000
00010000
00100000
01000000
10000000
00100000
01000000
,
00001000
00010000
00000100
00001000
00000001
00000100
00000010
00010000
,
00001000
01000000
01000000
00010000
00100000
00100000
00001000
00010000
,
00010000
00000100
00001000
00001000
00000001
00000100
00000100
00000010
,
00020000
00000000
00030000
00000000
00001000
00000000
00100000
00000000
00010000
10000000
00010000
10000000
00010000
00000000
01000000
00000000
,
00001000
00010000
00000010
00000100
00001000
00000100
00000010
00002000
,
00000000
00003200
00000000
00020300
00000000
00031000
01000000
00010000
,
00100000
20000000
00000000
30100000
02000000
00000000
13000000
00200000
,
00000000
00310000
00002000
00000000
00003010
00000001
00000100
00001000
,
00010000
00000010
00001000
00010000
01000000
00100000
10000000
00020000
,
00000000
00230000
00000000
20300000
00000000
30100000
01000000
00010000
,
00001000
00000200
00000000
00000310
00002000
00000000
00003001
00000020
,
00000000
00000130
00020000
00000000
00031000
01000000
00010000
10000000
,
00100000
00000000
00010000
00001000
00000000
00000010
00000001
00000100
,
00000010
00000000
00100000
00001000
00000000
00010000
01000000
10000000
,
00100000
00000000
00010000
00001000
00000000
01000000
00000000
00000100
,
00001000
00000000
00000000
00000000
00000002
00000000
00000003
00000000
00000100
00000010
00000000
00000000
00001000
00000001
00001000
00000001
,
00001000
00000000
00000100
00010000
00000000
01000000
00100000
00010000
,
10000000
00000000
00100000
10000000
00000000
00010000
01000000
00001000
,
00000000
00000000
00000000
00000000
00010000
00000100
00010000
00000100
00010000
00000000
00000010
00000000
00001000
00000000
00000000
00000000
,
00000002
00000000
00000003
00000000
00001000
00000100
00001000
00000100
00002000
00000000
00000000
00000000
00000000
00000000
00000000
00003000
,
00000100
00010000
00001000
00100000
00010000
01000000
10000000
01000000
,
00010000
00100000
01000000
10000000
00100000
00010000
00001000
00010000
,
00100000
01000000
00010000
00100000
00001000
00010000
00000100
00001000
,
00000001
00000100
00001000
00010000
00001000
00000100
00000001
00000010
,
00001000
00010000
00100000
00010000
00001000
00010000
01000000
10000000
,
00010000
01000000
00100000
10000000
01000000
00010000
00001000
00100000
,
00101000
00000000
00000000
00010010
00000000
00000000
00000010
00010000
00001000
01000000
00001000
00010000
,
00000100
00001000
00000001
00000100
00001000
00010000
01000000
10000000
,
00200000
00000000
00000000
00000000
00000000
00000000
00000000
00300000
,
02000000
00000000
03000000
00000000
00010000
00000000
00100000
00000000
00001000
00010000
00001000
00010000
00001000
00000000
00000100
00000000
,
00000010
00010000
00001000
00010000
00001000
00100000
00010000
00100000
,
00010000
01000000
00100000
10000000
00010000
01000000
00010000
00100000
,
00010000
01000000
00100000
10000000
00010000
10000000
01000000
00100000
,
00010000
00100000
00001000
00010000
00000100
00000010
00000001
00000000
,
00002000
00000100
00003100
00000020
00000001
00000031
00001000
00000001
,
00000020
00000100
00000130
00002000
00000001
00003001
00001000
00000001
,
00002000
00000100
00003100
00000020
00000001
00000031
00001000
00000001
,
00000020
00000100
00000130
00002000
00000001
00003001
00000200
00000010
,
00000310
00001000
00000100
00000010
00000001
00000100
00001000
00010000
,
00100000
01000000
00010000
00100000
01000000
10000000
00010000
01000000
,
00100000
10000000
01000000
00100000
00010000
01000000
00010000
00100000
,
00001000
00010000
00000100
00010000
00001000
01000000
00001000
00010000
,
00000100
00000010
00000001
00000100
00000010
00001000
00000100
00000010
,
00001000
00010000
00000010
00000100
00001000
00010000
01000000
00100000
,
00110000
00000000
00000000
00001010
00000000
00000000
00001100
00000000
,
00000000
01010000
00000000
00000000
00001000
00010000
00011000
00000000
,
00010000
00000100
00001000
00000010
00000001
00000010
00001000
00000100
,
00000010
00001000
00010000
00100000
10000000
01000000
00100000
00010000
,
10000000
01000000
00010000
00001000
00000100
00000001
00000001
00000010
,
00001000
00010000
00100000
10000000
10000000
00010000
01000000
00010000
,
00100000
01000000
00010000
00001000
00000010
00000001
00001000
00000100
,
00100000
00001000
00010000
00001000
00000100
00000001
00001000
00000001
,
00001000
00000100
00000001
00001000
00000010
00001000
00010000
01000000
,
01100000
00000000
00101000
00000000
00000000
00011000
00000000
00000000
00000001
00000000
00001000
00000000
00000001
00000000
00001000
00000000
,
00000001
00000100
00000001
00000100
00010000
01000000
00010000
01000000
,
00100000
10000000
01000000
00100000
00010000
10000000
01000000
01000000
,
10000000
01000000
10000000
01000000
00001000
00000100
00001000
00000100
,
00000010
00000000
00000001
00000000
00000100
00000000
00000010
00000000
00001000
00000000
00000001
00000000
00001000
00000100
00001000
00000100
,
00010000
00000000
00001000
00010000
00001000
00000000
01000000
00001000
01000000
00000000
00000010
00010000
00000010
00000000
00001000
00000100
,
00001000
00000000
00000010
00010000
00000010
00000000
00010000
00001000
00010000
00000000
00001000
00100000
00001000
00000000
01000000
00010000
,
01000000
00010000
00000000
10000000
00100000
10000000
00000000
00010000
00100000
00010000
00000000
01000000
00001000
01000000
00000000
00001000
,
00020000
00000000
00000000
00030010
00000000
00000000
00020000
00000000
00000000
00030100
00000000
00000000
00010000
00000000
00001000
00000000
00000010
00000000
00000100
00000000
00001000
00000000
00000010
00000000
,
00000200
00000000
00001300
00000000
00010000
00000000
00000000
00000000
01000000
00000000
00100000
00000000
00010000
10000000
00010000
10000000
,
00010000
00000000
00000000
00000000
;
