#TITLE:IN;
#SUBTITLE:;
#ARTIST:Zris feat. Katie;
#TITLETRANSLIT:;
#SUBTITLETRANSLIT:;
#ARTISTTRANSLIT:;
#GENRE:;
#CREDIT:Telperion;
#BANNER:IN.png;
#BACKGROUND:IN-bg.png;
#LYRICSPATH:;
#CDTITLE:;
#MUSIC:IN.ogg;
#OFFSET:-0.006000;
#SAMPLESTART:22.570999;
#SAMPLELENGTH:28.872000;
#SELECTABLE:YES;
#BPMS:0.000000=133.000000
;
#STOPS:
;
#BGCHANGES:0.958=in.avi=1.000=0=0=0=StretchNoLoop==CrossFade_Fastest==,
99999=-nosongbg-=1.000=0=0=0 // don't automatically add -songbackground-
;
#KEYSOUNDS:;
#ATTACKS:;

//---------------dance-single - Telperion----------------
#NOTES:
     dance-single:
     Telperion:
     Hard:
     14:
     0.617164,0.718587,0.415549,0.352825,0.744853,551.000000,498.000000,53.000000,45.000000,0.000000,0.000000,0.617164,0.718587,0.415549,0.352825,0.744853,551.000000,498.000000,53.000000,45.000000,0.000000,0.000000:
0000
0000
0000
0000
,
0000
0000
0000
0000
,
0000
0000
0000
0000
,
0000
0000
0000
0000
,
0000
0000
0000
0000
1001
0000
0000
0102
,
0000
0003
0000
1000
1100
0000
0000
0011
,
0000
0001
0100
0010
1000
0000
0000
2100
,
0000
3000
0000
0001
0011
0000
0000
1010
,
0000
0000
0000
0000
0000
0000
0001
0000
1001
0000
1000
0000
1100
0000
0001
0100
,
0000
0000
0010
0000
0000
0000
1000
0000
1001
0000
0001
0000
0010
0100
0010
0100
,
0000
0000
1000
0000
0010
0000
0100
0000
0101
0000
0001
0000
0011
0000
1000
0100
,
0000
0000
0010
0000
0100
0000
1000
0000
1002
0000
0000
0103
0000
0000
0110
0000
,
0000
0000
0000
0000
0000
0000
0000
0000
1000
0020
0000
0130
0001
0100
0010
1000
,
0000
0200
0000
0310
0001
0010
0100
2000
0000
0001
0000
3200
0000
0010
0000
2300
,
0000
0001
0000
3020
0000
0130
0000
0000
0001
0200
0000
0310
1000
0010
0100
0000
,
0001
0010
0000
0010
0100
0000
1000
0010
0000
0100
0010
1000
0000
0001
0010
0100
,
0000
0010
0001
1000
0000
0010
0000
0000
1000
0002
0000
0103
0000
0010
1000
0010
,
1000
0100
0000
0010
0000
0100
0010
0002
0000
1000
0000
0203
0000
0010
0000
0302
,
0000
1000
0000
0023
0000
0130
0000
0000
2000
0000
0100
0000
3001
1000
0002
0000
,
0100
0000
1003
0001
2000
0000
0010
0000
3001
1000
0002
0000
0010
0000
1003
0000
,
1010
0000
0110
0000
0102
0000
0000
0000
0013
0000
0100
0000
1000
0100
1000
0001
,
0100
0000
0010
0000
1000
0010
0100
0001
1000
0000
0100
0000
0010
0100
1000
0001
,
0100
0000
0010
0100
0001
1000
0100
0010
0001
0000
1000
0000
0020
0000
0000
0031
,
0000
0010
1000
0000
0100
1000
0100
0020
0000
0000
1030
0000
0010
0001
1000
0000
,
0010
0000
0010
0000
0200
0000
0000
0000
0301
0000
1000
0000
0100
0010
0100
0010
,
0001
1000
0000
0010
0000
0100
0010
0100
0010
1000
0001
0000
0010
0000
0100
0000
,
1000
0010
1000
0001
0010
0001
1000
0000
0010
0100
0000
0001
0000
0001
0010
0000
,
0100
1000
0000
1000
0010
0000
0100
0000
2002
0000
0000
0000
0000
0000
0000
0000
,
3003
0000
0000
0000
1100
1000
0000
0001
,
0101
0100
0000
0010
1010
1000
0000
0001
,
0011
0000
0000
1000
1100
0100
0000
0010
,
0011
0000
0001
0000
0000
0000
1000
0000
1010
0000
0010
0000
0110
0000
0000
1001
,
0000
0011
0010
0100
1100
1000
0000
0001
,
0101
0100
0000
0010
1010
1000
0000
0001
,
0011
0000
0010
0000
0100
0000
1000
0000
1010
0000
0010
0000
0100
0000
0000
0101
,
0000
0000
1100
0000
0000
0110
0000
0000
1001
0000
0000
0110
0000
0000
2002
0000
,
0000
0000
0000
3003
0000
0000
1000
0100
0010
0001
1000
0010
,
0100
0001
1000
0010
0001
1000
0100
0010
1000
0001
0010
0100
,
1000
0000
0000
0000
0000
0000
0000
0000
1000
0000
0000
0000
0001
0000
0000
0000
0000
0000
0100
0000
0000
0000
0000
0000
0001
0000
0000
0000
0000
0000
1000
0000
0000
0100
0000
0000
0000
0000
0000
0100
0000
0000
0010
0000
0000
0000
0000
0000
,
0010
0001
0000
0001
1000
0000
1000
0010
0000
0010
0100
0000
0100
0001
0000
0001
,
0010
0000
0000
0000
0000
0000
0010
0000
0000
0100
0000
0000
0000
0000
0000
0100
0000
0000
1000
0000
0000
0000
0000
0000
0001
0000
0000
0000
0100
0000
0000
0000
0010
0000
0000
0000
1000
0000
0000
0000
0001
0000
0000
0000
0010
0000
0000
0000
,
0100
1000
0001
0010
1000
0001
0100
0010
0001
1000
0010
0100
,
0001
0000
0000
0000
0001
0000
1000
0000
0000
0100
0000
0000
1000
0000
0000
0001
0100
0000
0000
0100
0010
0000
0000
0010
,
1000
0000
0000
1000
0001
0000
0000
0001
0010
0000
0000
0010
0100
0000
0000
0100
1000
0000
0000
1000
0010
0000
0000
0010
,
0100
0000
0000
0000
0000
0000
0100
0000
0001
0000
0000
0000
0000
0000
0001
0000
1000
0000
0000
0000
0000
0000
0000
0000
1002
0000
0000
0000
0000
0000
0000
0000
0000
0000
0000
0000
0103
0000
0000
0010
0000
0000
0100
0000
0000
0010
0000
0000
,
1000
0001
0000
0010
0000
0100
0010
0100
0010
0001
1000
0000
0010
0000
0100
0000
,
0001
0010
0001
1000
0010
1000
0001
0000
0100
0000
0001
0000
0020
0000
0000
1030
,
0000
0010
0001
0000
0100
0001
0100
0020
0000
0000
0031
0000
0010
1000
0001
0000
,
0010
0000
0100
0000
2000
0000
0000
0000
3001
0020
0000
0130
1000
0100
0010
0001
,
0000
0200
0000
0310
1000
0010
0100
0002
0000
1000
0000
0203
0000
0010
0000
0302
,
0000
1000
0000
0023
0000
0130
0000
0000
1000
0200
0000
0310
0001
0010
0100
0000
,
1000
0010
0000
0010
0100
0000
0001
0010
0000
0100
0010
0001
0000
1000
0010
0100
,
0001
0000
1000
0100
0000
1000
0001
0000
0200
0000
0000
0000
0000
0000
0000
0000
,
0000
0000
0300
0000
1010
0000
1000
0001
,
0000
0011
0000
0000
0010
0000
0100
0000
1100
0000
1000
0000
0000
0000
0101
0000
,
0000
0001
1000
0010
0110
0000
1000
0001
,
0000
0011
0000
0000
1000
0010
1000
0100
0010
0000
0001
0000
0100
0000
0001
0000
,
0010
0100
1000
0020
0000
0100
0000
0000
1030
0000
0000
0000
0001
0000
1000
0000
,
0000
1010
0000
0000
0010
0000
0100
0000
0101
0000
0001
0000
0000
0000
1100
0000
,
0000
0000
1000
0000
0001
0000
0100
0000
0110
0000
0010
0000
1000
0000
0001
0010
,
0000
0100
1000
0000
0101
0000
0001
0000
2001
0000
0000
3100
0000
0000
0110
0000
,
0000
0000
0000
0000
0001
1000
0000
1000
,
0010
0100
0000
0001
0001
0010
0000
0100
,
0010
0000
0100
1000
0000
0000
1000
0000
0001
0000
0100
0000
0000
0000
0001
0000
,
1000
0100
0000
1000
1000
0010
0000
0100
,
0010
0000
0100
0001
0000
0000
0001
0000
2000
0000
0000
0000
0000
0000
0000
0000
,
0000
0000
3200
0000
,
0000
0000
0320
0000
,
0000
0000
0032
0000
,
0000
0000
0000
0000
,
0000
0000
0003
0000
;

//---------------dance-single - Telperion----------------
#NOTES:
     dance-single:
     Telperion:
     Challenge:
     17:
     0.806457,1.158736,0.619404,0.211695,1.105518,720.000000,641.000000,79.000000,27.000000,9.000000,0.000000,0.806457,1.158736,0.619404,0.211695,1.105518,720.000000,641.000000,79.000000,27.000000,9.000000,0.000000:
// measure 0
0000
0000
0000
0000
,  // measure 1
0000
0000
0000
0000
,  // measure 2
0000
0000
0000
0000
,  // measure 3
0000
0000
0000
0000
,  // measure 4
0000
0000
0000
0000
1001
0000
0000
2100
,  // measure 5
0000
3000
0000
0001
0101
0000
0000
1010
,  // measure 6
0000
0000
1000
0000
0001
0000
0010
0100
1000
0000
0000
0000
0000
0000
0102
0000
,  // measure 7
0000
0003
0000
1000
1100
0000
0000
0011
,  // measure 8
0000
0000
0000
0000
0000
0000
0010
0100
1000
0000
0001
0000
0011
0000
1000
0010
,  // measure 9
0000
0000
0100
0000
0000
0000
0001
0000
0101
0000
1000
0000
0010
1000
0100
0010
,  // measure 10
0000
0000
0001
0000
0100
0000
0010
0100
0001
0000
1000
0000
1010
0000
0001
0010
,  // measure 11
0000
0000
0010
0000
0100
0000
1000
0000
1100
0000
0001
0100
0000
0000
0110
0000
,  // measure 12
0000
0000
0000
0000
0000
0000
0000
0000
1000
0010
0000
0100
0010
1000
0001
0010
,  // measure 13
0000
2000
0000
3010
0001
0100
0010
0001
0000
00M1
0000
0100
0000
010M
0000
1000
,  // measure 14
0000
1M00
0000
0010
0000
0100
1000
0000
0001
0100
0000
0010
0100
0001
1000
0010
,  // measure 15
0001
0010
0000
0100
0001
0000
0010
1000
0000
10M0
0000
0100
0000
M100
0000
0001
,  // measure 16
0000
0M01
0000
0010
0000
0100
0001
0000
0010
0100
1000
0001
0100
0100
1000
0100
,  // measure 17
0100
0001
0000
0010
0000
0100
0000
1000
0000
0001
0100
0010
1000
0001
0100
1000
,  // measure 18
0000
0100
0010
1000
0100
0010
0001
0000
2000
0000
0010
0000
3100
1000
0002
0000
,  // measure 19
0010
0000
0103
0001
2000
0000
0010
0000
3100
1000
0010
0000
0100
0001
0010
0001
,  // measure 20
0100
0000
0010
0000
2001
0000
0000
0000
3100
0010
0100
1000
0010
0100
0001
1000
,  // measure 21
0100
1000
0010
0100
1000
0001
0010
1000
0001
0010
0100
0010
0001
0100
0010
1000
,  // measure 22
0001
0000
1000
0000
0100
0000
0010
0000
1000
0000
0001
0000
0100
0000
1000
0000
0001
0000
0000
0000
0200
0000
0000
0000
0310
0000
1000
0000
0000
0000
0001
0010
,  // measure 23
0001
0000
0000
1000
0000
0000
0100
0000
0000
0000
0000
0000
0010
0000
0000
0100
0000
0000
1000
0000
0000
0020
0000
0000
0000
0000
0000
0000
0000
0000
0130
0000
0001
0000
0100
0000
0010
0000
0000
1000
0000
0000
0001
0000
0000
0000
0000
0000
,  // measure 24
0100
0000
0000
0000
0100
0000
0000
0000
0002
0000
0000
0000
1003
0100
1000
0000
0001
0000
0100
0000
0010
0000
1000
0000
0100
0000
0100
0000
0001
0000
0100
0000
,  // measure 25
0100
1000
0000
0010
0000
0100
0000
0001
0000
1000
0100
0010
0001
1000
0100
0001
,  // measure 26
0000
0100
0010
0001
0100
0010
1000
0000
0001
0100
0001
0010
0000
0010
0100
0000
,  // measure 27
1000
0000
0000
0010
0000
0000
0000
0000
0000
1000
0000
0000
0100
0000
0010
0000
0001
0000
1000
0000
0010
0000
0100
0000
0001
0000
0000
0000
0000
0000
0000
0000
0000
0000
0000
0000
0000
0000
0000
0000
0000
0000
0000
0000
0000
0000
0000
0000
,  // measure 28
0000
0000
0000
0000
1001
0001
0000
0010
,  // measure 29
0011
0000
0000
1000
0000
0001
0100
0000
0000
0010
0000
0000
1010
0000
0000
1000
0000
0000
0000
0000
0000
0100
0000
0000
,  // measure 30
0110
0000
1000
0001
0010
0100
1000
0001
0100
0000
0001
0000
0000
0000
1000
0000
,  // measure 31
1100
0000
0000
0000
0000
0000
0001
0000
0000
0000
0100
0000
0010
0000
0000
0000
0000
0000
1000
0000
0000
0000
0000
0000
0001
0000
0000
0000
0000
0000
0010
0000
0000
0000
0000
0000
1001
0000
0000
0000
0000
0000
1000
0000
0000
0011
0000
0000
,  // measure 32
0000
0000
1100
0000
1001
0000
0001
0000
0101
0000
1000
0100
1000
0001
0100
0020
,  // measure 33
1000
0000
0000
0000
0000
0000
0130
0000
0000
0000
0001
0000
0010
0000
0000
0000
0000
0000
0100
0000
0000
0000
0000
0000
1100
0000
0000
0000
0000
0000
0001
0000
0000
0100
0000
0000
0001
0000
0000
1000
0000
0000
0100
0000
0000
0010
0000
0000
,  // measure 34
0002
0000
1000
0000
0010
0000
0103
0000
0110
0000
0001
0000
1001
0000
1000
0011
,  // measure 35
0000
0100
0011
0000
1000
0011
0100
0100
1010
0000
0000
0101
0000
0000
2001
0000
,  // measure 36
0000
0000
0000
0000
0000
0000
3010
1000
0001
0010
0100
1000
,  // measure 37
0001
0100
0010
0001
1000
0100
0001
0010
0100
1000
0001
0100
,  // measure 38
0010
0000
0100
0000
0001
0000
0000
0000
1000
0000
0100
0000
0010
0000
0000
0000
0100
0000
0000
0000
1000
0000
0000
0000
0010
0000
0000
0100
0000
0000
0001
0000
0000
1010
0000
0000
0000
0000
0000
0100
0000
0000
1010
0000
0000
0001
0000
0000
,  // measure 39
0100
0011
0000
1000
0011
0100
0001
1010
0000
0001
1100
0001
1000
0101
0000
1000
,  // measure 40
0011
0000
0000
0100
0000
0000
0100
0000
0000
1010
0000
0000
0000
0000
0000
0002
0000
0000
1000
0000
0000
0000
0000
0000
0013
0000
0000
0000
0100
0000
0000
0000
1000
0000
0000
0000
0010
0000
0000
0000
0100
0000
0000
0000
0001
0000
0000
0000
,  // measure 41
1000
0100
0010
1000
0001
0100
1000
0010
0100
0001
1000
0100
,  // measure 42
0010
0000
0100
0000
1000
0000
0000
0000
0001
0000
0100
0000
0010
0000
0000
0000
0100
0000
0000
0000
0001
0000
0000
0000
0010
0000
0000
0100
0000
0000
1010
0000
0001
0000
0000
0000
0000
0000
1010
0000
0100
0000
0000
1000
0000
0000
0011
0000
,  // measure 43
0100
0000
0000
0000
0000
0000
0011
0000
1000
0000
0000
0100
0000
0000
1010
0000
0001
0000
0000
0000
0000
0000
1100
0000
0010
0000
0000
1000
0000
0000
0101
0000
0010
0000
0000
0000
0000
0000
0101
0000
1000
0000
0000
0010
0000
0000
1100
0000
,  // measure 44
0001
0000
0000
0000
0000
0000
1010
0000
0100
0000
0000
0100
0000
0000
0011
0000
1000
0000
0000
0001
0000
0000
0000
0000
1000
0000
0000
0100
0000
0000
1000
0000
0000
0001
0000
0000
0010
0000
0000
0010
0000
0000
1000
0000
0000
0100
0000
0000
,  // measure 45
0100
0001
0000
0010
0000
0100
0000
1000
0001
0100
0010
0100
0001
1000
0100
0001
,  // measure 46
0000
0000
0100
0000
0010
0000
0001
0000
0100
0000
0010
0000
1000
0000
0000
0000
0001
0000
0000
0000
0020
0000
0000
0000
0130
0000
1000
0000
0000
0000
0001
0100
,  // measure 47
0001
0000
1000
0000
0100
0000
0000
0000
0010
0000
0100
0000
1000
0000
0020
0000
0000
0000
0000
0000
0130
0000
0000
0001
1000
0000
0010
0000
1000
0000
0000
0000
,  // measure 48
0100
0000
0000
0000
0100
0000
0000
0000
0020
0000
0000
0000
0130
1000
0001
0000
0100
0000
0000
0000
0010
0000
1000
0000
0001
0000
0010
0000
0001
0000
0100
0000
,  // measure 49
0000
2000
0000
3100
0010
1000
0100
0001
0000
0M01
0000
0010
0000
001M
0000
1000
,  // measure 50
0000
10M0
0000
0100
0000
0010
1000
0000
0001
0010
0000
0100
0010
0001
1000
0100
,  // measure 51
0001
0100
0000
0010
0001
0000
1000
0010
0000
0100
1000
0100
0001
1000
0100
0010
,  // measure 52
0101
0000
1000
0011
0000
0100
0011
0000
2000
0000
0000
0000
0000
0000
0002
0000
,  // measure 53
0000
0000
0000
0000
0000
0000
3003
0000
0000
0000
0000
0000
1001
0000
0000
0001
0000
0000
0100
0000
0010
1000
0000
0010
,  // measure 54
0000
0000
0000
0100
0000
0000
0001
0000
0000
0000
0000
0000
0011
0000
0000
0000
0000
0000
0010
0000
0000
0000
0100
0000
1000
0000
0000
0000
0000
0000
0001
0000
0000
0000
0000
0000
0100
0000
0000
0000
0010
0000
1000
0000
0000
0000
0001
0000
,  // measure 55
0000
0000
0000
0012
0000
0000
1000
0000
0000
0103
0000
0000
0110
0000
0000
1000
0000
0000
0001
0000
0010
0100
0000
0010
,  // measure 56
0000
0001
1000
0010
0100
0001
1000
0100
0020
0000
0001
0000
1000
0000
0130
0000
,  // measure 57
0010
0000
0000
0001
0000
0000
1000
0000
0000
0020
0000
0000
0000
0000
0000
0100
0000
0000
0000
0000
0000
0030
0000
0000
1010
0000
0000
0000
0000
0000
0001
0000
0000
0000
0000
0000
0010
0000
0000
0000
0100
0000
1000
0000
0000
0000
0100
0000
,  // measure 58
0000
0000
0000
0010
0000
0000
0001
0000
0000
0000
0000
0000
1001
0000
0000
0000
0000
0000
1000
0000
0000
0000
0001
0000
0100
0000
0000
0000
0000
0000
0010
0000
0000
0000
0000
0000
1000
0000
0000
0000
0001
0000
1000
0000
0000
0000
0100
0000
,  // measure 59
0020
0000
1000
0000
0100
0000
0031
0000
0110
0000
1000
0000
1001
0000
0001
1100
,  // measure 60
0000
0011
1000
0000
0001
0000
1010
0000
1001
0000
0000
0001
0100
0000
0020
0000
,  // measure 61
0000
0000
0030
0000
1010
1000
0000
0001
,  // measure 62
0011
0010
0100
1000
1001
0000
0000
0001
,  // measure 63
0101
0000
1000
0011
0000
0000
1001
0000
1010
0000
0010
0000
0000
0000
0100
0000
,  // measure 64
0101
0000
0000
0001
1001
0000
0000
1000
,  // measure 65
1100
0000
0001
1010
0000
0000
1001
0000
0000
0001
0000
0000
0010
0000
0000
0100
,  // measure 66
0000
0000
1000
0000
0001
0000
0000
1000
0000
0000
0010
0000
0000
0100
0000
0100
,  // measure 67
0001
1000
0100
0010
0002
1000
0000
0100
,  // measure 68
0000
1003
0000
0001
2000
0001
0000
0100
,  // measure 69
0000
3001
0000
1000
0100
0010
0001
0100
,  // measure 70
0010
1000
0100
0010
0000
0000
0000
0000
;
