#TITLE:ICHIBANBOSHI☆ROCKET;
#SUBTITLE:;
#ARTIST:Umeboshi Chazuke;
#TITLETRANSLIT:;
#SUBTITLETRANSLIT:;
#ARTISTTRANSLIT:;
#GENRE:;
#CREDIT:;
#BANNER:ICHIBANBOSHI ROCKET.png;
#BACKGROUND:ICHIBANBOSHI ROCKET-bg.png;
#LYRICSPATH:;
#CDTITLE:;
#MUSIC:ICHIBANBOSHI ROCKET.ogg;
#OFFSET:-0.001679;
#SAMPLESTART:54.357155;
#SAMPLELENGTH:16.410252;
#SELECTABLE:YES;
#DISPLAYBPM:468.000000;
#BPMS:0.000000=468.000000
,808.000000=234.000000
,832.000000=468.000000
,842.000000=936.000000
,844.000000=468.000000
;
#STOPS:840.000000=0.256000,
841.000000=0.256000,
842.000000=0.256000
;
#BGCHANGES:;
#KEYSOUNDS:;
#ATTACKS:;

//---------------dance-single - ----------------
#NOTES:
     dance-single:
     :
     Challenge:
     20:
     1.158655,1.759024,0.664447,0.498335,0.155278,1123.000000,1031.000000,92.000000,69.000000,0.000000,0.000000,1.158655,1.759024,0.664447,0.498335,0.155278,1123.000000,1031.000000,92.000000,69.000000,0.000000,0.000000:
0000
0000
0000
0000
,
0000
0000
0000
0000
,
0000
0000
0000
0000
,
0000
0000
0000
0000
,
0000
0000
0000
0000
,
0000
0000
0000
0000
,
0000
0000
0000
0000
,
0000
0000
0000
0000
,
0000
0000
0000
0000
,
0000
0000
0000
0000
,
0000
0000
0000
0000
,
0000
0000
0000
0000
,
0000
0000
0000
0000
,
0000
0000
0000
0000
,
0000
0000
0000
0000
,
0000
0000
0000
0000
,
0000
0000
0000
0000
,
0000
0000
0000
0000
,
0001
0000
1000
0000
0010
0000
1000
0001
,
1000
0100
0010
0002
,
0000
0000
0013
0100
0010
0000
0001
0000
,
0100
1000
0100
0001
,
2000
0000
0000
0000
3010
0000
0100
0001
,
0100
0010
1000
0200
,
0010
0000
1000
0000
,
0310
0001
0010
0100
,
1100
0000
1000
0000
0100
1000
0100
0010
,
0001
0100
0010
0100
,
0101
0001
0010
0001
,
1000
0010
1000
0000
0001
0000
0100
0000
,
0010
0100
0010
1000
0001
0010
0001
0100
,
0020
0030
2000
3000
0200
0300
0020
0030
,
0000
0000
0100
0000
,
0010
0000
0001
0000
,
0010
0001
0000
0000
0001
0000
0010
0000
,
1000
0000
0010
1000
,
0010
0000
0001
0000
,
0100
0001
1000
0000
,
0010
1000
0000
0000
0001
0000
0010
0000
,
0000
0000
0100
0000
0000
0000
1000
0100
,
0010
0000
0002
0000
,
0103
0000
2000
0010
,
3010
0000
0000
0000
1000
0000
0010
0100
,
0001
0000
0010
0000
,
0100
0000
1000
0000
,
0001
0000
0100
0000
,
1000
0100
0001
0010
,
0000
0000
0100
0000
0000
0000
0022
0033
,
0000
0000
0001
0010
0100
0000
1100
0000
,
0000
0000
0000
0000
0000
0000
0010
0000
0000
1000
0000
0000
0010
0000
1000
0000
0001
0000
0100
0000
0010
0000
1000
0000
,
0001
0000
0000
0000
1000
0000
0001
0010
,
0001
0000
0100
1000
,
0100
0000
0101
0000
,
0001
1000
1010
0000
,
0010
0000
0001
0010
,
1000
0000
0001
0000
1000
0000
0100
0010
,
0001
0000
1100
0000
,
1000
0000
0011
0001
,
2000
0000
0000
0000
3010
0000
0100
0010
,
1000
0000
1010
0000
,
0100
0000
0110
0000
,
0001
0000
0011
0000
,
0010
0100
1100
0000
,
0100
0000
0000
0100
1000
0000
0001
0000
,
0101
0000
0021
0030
,
0201
0000
0000
0300
0000
0000
2001
0000
0000
3010
0100
0010
,
1000
0010
1000
0001
,
1000
0100
0010
0000
,
0002
0000
0203
0000
,
0310
0000
1010
0000
,
0001
0010
0001
1000
,
0001
0100
0010
0000
,
2000
0000
3002
0000
,
0103
0010
1010
1000
,
0001
0000
0000
0000
0010
0000
0001
0100
,
0001
0000
0000
0000
0100
0000
0010
1000
,
0010
0000
0000
1010
0000
0000
1100
0000
,
0110
0000
0000
0011
0000
0000
0101
0000
,
1001
1000
0001
1000
,
0010
1000
0010
1000
0100
0010
0001
0010
,
0100
0000
2000
0000
,
3002
0000
0203
0000
,
0310
0000
1000
0010
1000
0000
0001
0010
,
0001
1000
1100
0110
,
0000
0010
0011
0010
,
0001
0000
1000
0001
1000
0000
0100
0010
,
0001
0000
1000
0100
1000
0000
0001
0100
,
0001
0100
0110
1010
,
0000
1000
1100
0000
,
0001
0000
0100
0001
0100
0000
0001
0100
,
0001
0010
0100
0100
,
1000
0010
0001
0010
,
1000
0000
0101
0000
,
0001
0000
1100
0000
,
1000
0100
0010
0010
,
0001
0100
1000
0100
,
0001
0000
1010
0000
,
1000
0000
0011
0001
,
2000
0100
0001
0000
,
0010
0000
3001
0000
,
0012
0000
1003
0000
,
0120
0000
1030
0000
,
1000
1000
0001
0001
,
1000
0100
0010
0001
0100
0010
1000
0001
,
0100
0000
0000
0000
,
0001
1000
0001
1000
0001
1000
0001
1000
0001
1000
0001
1000
,
0010
0000
1000
0000
0001
0000
0100
0001
,
0100
0001
0010
0100
,
1000
0000
0010
0100
0000
0010
1000
0000
,
0001
0010
1000
0010
,
0100
0000
1000
0000
0010
0000
0100
0001
,
0100
0010
1000
1010
,
0010
0100
0101
0001
,
0010
0100
1200
0010
,
0310
0000
0001
0000
1000
0000
0010
1000
,
0001
0100
0010
1000
,
0100
0000
0020
0030
0002
0003
0020
0030
,
0100
1000
0001
0100
,
0010
0000
0100
0001
0000
0100
0010
0000
,
1000
0001
0010
0100
,
1000
0000
0000
0010
0000
0000
1000
0000
0000
0010
0000
0000
1000
0000
0010
0000
0100
0000
0001
0000
0000
0100
0000
0000
,
0001
0100
0001
0000
0010
0100
0010
0001
,
1000
0000
0001
0000
0010
0000
0100
1000
,
0100
1000
0010
0100
,
0001
0000
0010
0100
0000
0010
0001
0000
,
1000
0010
0001
0010
,
0100
0000
0001
0000
0010
0000
0100
1000
,
0100
0010
0001
0101
,
0100
0010
1010
1000
,
0100
0010
0012
1000
,
1003
0010
0001
0010
,
1000
0000
0001
1000
0010
0000
0000
0000
,
2001
0000
3100
0001
,
0100
0010
0001
0100
,
0010
1000
0001
0001
,
0010
1000
0010
0001
,
0200
0310
0020
1030
,
1000
0000
0000
0001
0010
0100
1000
0000
0000
0010
1000
0001
,
0100
0010
1000
0010
,
0000
0010
1000
0010
,
0000
0010
1000
0010
,
0000
0010
1000
0010
,
0110
0000
0010
1000
0001
0000
0011
0000
,
0010
0001
1000
0000
1100
0000
0100
0010
,
0001
0000
0101
0000
0100
0010
1000
0000
,
1100
0110
0000
1001
,
0000
1000
0100
1000
,
0001
1000
0010
0100
,
1000
0001
0010
1000
,
0001
0010
1000
0000
,
0010
0001
1000
0001
,
0010
0001
0100
0010
,
0001
1000
0100
0001
,
0010
0100
1000
0000
,
0010
1000
1010
0000
,
1000
0001
0101
0000
,
0001
0010
0110
0000
,
1000
0001
1001
0000
,
1000
0010
0101
0001
,
0010
0100
1010
0100
,
0001
1000
0100
0010
0001
1000
0010
1000
,
0001
0010
0100
0000
1000
0000
0001
0000
1000
0010
0100
0000
0001
0000
1000
0000
,
0020
0000
0000
0000
0030
0000
1000
0001
,
0010
0000
0100
0010
0100
0000
2000
0000
,
3000
0001
1000
0010
,
0100
0010
1000
0000
0001
0000
0010
0000
,
0100
0000
0010
0100
0000
0010
0001
0000
,
1000
0001
0000
0010
0100
0000
1000
0000
,
0001
0000
0000
1000
0000
0000
0000
0000
0000
0010
1000
0010
,
1000
0010
1000
0001
0000
0000
0010
0000
0000
0001
0000
0000
,
2000
0000
3000
0000
0100
1000
0100
0010
,
0001
1000
0010
1000
0001
0010
0100
1000
,
0020
0000
0130
0001
2000
0000
3100
0010
,
0002
0000
0103
0010
2000
0000
3000
0000
,
0002
0000
0000
0000
1003
0000
0100
1000
,
0020
0000
1030
0000
,
0001
0000
0100
0000
0010
0000
1000
0001
,
0010
0001
1000
0100
,
0010
0000
0001
1000
0001
0100
0010
1000
,
0000
1000
0010
0100
0001
1000
0100
0010
,
0001
0000
0010
0100
1000
0001
0100
0010
,
0000
0010
0100
0001
1000
0100
0010
0001
,
0100
0000
0010
1000
0001
0010
0100
1000
,
0000
1000
0010
1000
0100
0010
0001
0100
,
0010
0000
2000
0000
3001
0010
0001
1000
,
0001
0000
1000
0100
0000
1000
0010
1000
,
0001
0000
0100
0010
0100
0000
0010
1000
,
0000
0001
0010
0000
0001
0010
0100
1000
,
0001
0100
0010
1000
0020
0030
2000
3000
,
0200
0300
0020
0030
0002
0003
0020
0030
,
0100
1000
0100
1000
0001
0010
0100
1000
,
0010
1000
0010
0100
0001
0100
0010
1000
,
0001
0000
0010
0001
0010
0000
0100
0010
,
0100
1000
0001
0010
0001
1000
0100
0010
,
0001
0010
0100
1000
0001
0010
0100
1000
,
0001
0010
0100
1000
0001
0010
0100
1000
,
0001
0100
0010
1000
0001
0100
0010
1000
,
0001
0100
0010
1000
0001
0100
0001
1000
,
0100
0010
0001
1000
0100
0010
0001
1000
,
0100
0010
0001
1000
0100
0010
0001
1000
,
0100
0000
1000
0010
0001
0000
0010
1000
,
0100
0010
0001
0100
1000
0000
0000
0000
,
0102
0000
0000
0000
0000
0000
1003
0010
2000
0000
0000
0000
3000
0000
0100
0000
,
0010
0000
0000
0100
0000
0000
0010
0000
0002
0000
0000
0000
1003
0000
0000
0000
,
1000
0020
0000
0000
0000
0000
1030
0001
0200
0000
0000
0000
0000
0000
0000
0000
,
0301
0000
0000
0000
1000
0000
0000
0000
0100
0000
0000
0000
0010
0001
0000
0000
,
0010
0000
0000
0000
0000
0000
0100
0000
0010
0000
0000
0001
0000
0000
1000
0000
,
1000
0000
0000
0020
0000
0000
0000
0000
0000
0000
0000
0000
0000
0000
0000
0000
0000
0000
0130
0000
0000
0000
0000
0000
0000
0000
0000
0000
0000
0000
0000
0000
0000
0000
0000
0000
0100
0000
0010
0000
0100
0000
0010
0000
0100
0000
0010
0000
,
1000
0001
0101
0100
,
0110
0010
1010
1000
,
1001
0110
1001
0000
,
0000
0000
1001
0000
1000
0010
0100
0000
,
0001
1000
0001
0010
,
0100
0001
0100
1000
0010
0000
0100
0000
,
0001
1001
1000
0010
,
1000
0000
0100
0000
0010
0100
1000
0000
,
0001
0011
0001
1000
,
0010
1010
1000
0001
,
0100
0110
1010
1001
,
0001
0000
0010
0000
1000
0010
0001
0000
,
0100
0010
2000
3010
,
0220
0330
0202
0303
0220
0330
0010
0000
,
0100
0001
0010
0100
,
1000
0001
1000
0000
0010
0000
0100
0000
,
0001
0000
0100
0000
0010
0000
1000
0010
,
1000
0000
0000
0010
0000
0000
1000
0000
0100
0000
0010
0000
0001
0000
0000
0100
0000
0000
0001
0000
0000
0100
0000
0000
,
0001
0000
1000
0100
0001
0100
1000
0000
,
0010
0000
0100
0000
0001
0010
0100
0000
,
1000
0001
1000
0010
,
0100
1000
0100
0001
1000
0000
0100
0000
,
0001
1000
0010
0001
,
0010
0000
0110
0000
0100
0010
0001
0000
,
0100
0110
0010
1000
,
0001
0101
0100
0010
,
1000
1100
0110
0012
,
0203
0310
1020
0130
,
1000
0100
0002
0000
1003
0000
1200
0000
,
0310
0001
1000
0010
,
0001
1000
0100
0001
,
1000
0100
0100
1000
,
0010
0001
0010
0110
,
0100
0101
0001
1001
,
1000
0100
0010
0001
0000
0000
0100
0001
1000
0010
0000
0000
,
0100
0001
0100
0000
,
0100
0001
0100
0000
,
0100
0001
0100
0000
,
0100
0001
0100
0110
,
0010
1000
0001
0000
0011
0000
0010
0100
,
1000
0000
1010
0000
0010
0100
0001
0000
,
1001
0000
1000
0001
1000
0000
1100
0000
,
0110
0000
0011
0000
,
0010
0100
2002
0000
0000
0000
0000
0000
,
0000
0000
0000
0000
,
0000
0000
0000
0000
,
0000
0000
0000
0000
,
0000
0000
0000
0000
,
0000
0000
0000
3003
0000
0000
0000
0000
;

//---------------dance-single - ----------------
#NOTES:
     dance-single:
     :
     Hard:
     18:
     0.941988,1.548541,0.274446,0.527224,0.014445,913.000000,875.000000,38.000000,73.000000,0.000000,0.000000,0.941988,1.548541,0.274446,0.527224,0.014445,913.000000,875.000000,38.000000,73.000000,0.000000,0.000000:
0000
0000
0000
0000
,
0000
0000
0000
0000
,
0000
0000
0000
0000
,
0000
0000
0000
0000
,
0000
0000
0000
0000
,
0000
0000
0000
0000
,
0000
0000
0000
0000
,
0000
0000
0000
0000
,
0000
0000
0000
0000
,
0000
0000
0000
0000
,
0000
0000
0000
0000
,
0000
0000
0000
0000
,
0000
0000
0000
0000
,
0000
0000
0000
0000
,
0000
0000
0000
0000
,
0000
0000
0000
0000
,
0000
0000
0000
0000
,
0000
0000
0000
0000
,
0010
0000
1000
0000
0001
0000
1000
0010
,
1000
0001
0100
0020
,
0000
0000
1030
0001
1000
0000
0100
0000
,
0010
0001
0010
0100
,
2000
0000
0000
0000
3001
0000
0100
0001
,
1000
0010
0100
0001
,
0000
1000
0100
1000
,
0000
0001
1000
0010
,
0020
0000
0000
0000
0130
0001
0100
0010
,
1000
0001
0010
0100
,
0000
1000
0010
1000
,
0001
0010
0001
0000
1000
0000
0100
0000
,
0010
0001
0010
0001
1000
0100
1000
0100
,
0020
0032
2003
3010
,
0000
0000
1000
0000
,
0100
0000
0010
0000
,
0011
0000
0010
0001
,
1000
0000
0010
1000
,
0001
0000
1000
0000
,
0001
0100
0010
0000
,
0010
0000
1000
0100
,
0000
0000
0010
0000
0000
0000
0100
0010
,
0001
0000
1000
0000
,
0010
0000
0100
0000
,
0010
0000
0000
0000
1000
0000
0001
0010
,
0100
0000
1000
0000
,
0001
0000
0100
0000
,
0010
0000
1000
0000
,
0010
1000
0001
0100
,
0000
0001
0000
1010
,
0000
0000
1000
0010
0100
0000
0101
0000
,
0000
0022
0033
0000
,
1001
0000
0000
0000
1000
0000
0010
1000
,
0001
0000
1000
0100
,
2000
0000
3001
0000
,
0100
0010
1000
0000
,
1000
0000
0001
0010
,
0000
0000
0100
0000
0000
0000
1000
0100
,
0010
0000
0001
0000
,
0100
0000
0010
1000
,
1000
0000
0000
0000
0001
0000
0010
0001
,
2000
0000
3010
0000
,
0020
0000
0130
0000
,
0200
0000
0301
0000
,
0001
1000
0001
0000
,
0010
0000
0000
0010
0100
0000
1000
0000
,
0001
0000
0202
0303
,
0220
0330
2020
3030
,
1000
0010
0100
1000
,
0000
0100
0001
0000
,
2000
0000
3200
0000
,
0302
0000
0023
0000
,
0031
0010
0100
0001
,
0000
0100
1000
0000
,
0200
0000
0320
0000
,
0031
1000
0100
1000
,
0001
0000
0000
0000
1000
0000
0010
1000
,
0100
0000
0000
0000
1000
0000
0001
0100
,
0010
0000
0000
1010
0000
0000
1000
0000
,
0001
0000
0000
0011
0000
0000
0010
0000
,
0100
0010
0100
0010
,
0001
1000
0001
0010
0001
1000
0001
0010
,
0100
0000
1000
0000
,
0010
0000
0110
0000
,
0100
0000
0001
1000
0001
0000
1000
0001
,
1000
0100
0010
0001
,
0000
0001
0010
0001
,
0000
0200
0320
2030
,
3010
0000
1000
0001
1000
0000
0001
1000
,
0001
0100
1000
0100
,
0000
0001
0020
0000
,
1000
0000
0031
0000
,
1000
0000
1010
0010
,
1000
0001
0011
0000
,
0100
0000
1001
0000
,
0100
0000
0110
0000
,
1000
0000
1100
0100
,
1000
0001
0101
0000
,
0010
0000
1001
0000
,
1000
0000
0100
0010
,
0010
0001
0010
0000
,
0001
0000
0101
0000
,
0100
0000
0110
0000
,
1000
0000
1010
0000
,
0010
1000
0001
1000
,
0100
1000
0100
0010
0001
0100
0010
1000
,
0001
0000
0200
0000
,
1300
0100
0001
0100
,
0020
0000
0000
0000
1030
0000
0001
0100
,
0001
0000
1000
0010
,
0001
0000
0000
0010
0000
0000
1000
0000
,
0001
0000
0011
0000
,
0100
0000
0000
0000
1000
0000
0100
0010
,
0001
0000
1000
0010
,
0000
0010
1000
0000
,
0001
0000
0010
0100
,
0100
0000
0000
0000
0010
0000
0001
1000
,
0010
0100
0001
0010
,
0000
0000
0200
0300
2000
3000
0200
0300
,
0000
0001
0100
1000
,
0010
0000
0000
1000
0000
0000
1000
0000
,
0000
0001
1000
0100
,
0010
0001
0010
0001
0010
0000
0100
1000
,
0100
1000
0100
0000
1000
0001
1000
0001
,
2000
0000
0000
0000
3001
0000
1000
0010
,
1000
0000
0001
0100
,
1000
0000
0000
0100
0000
0000
0001
0000
,
1000
0000
1010
0000
,
0100
0000
0000
0000
0001
0000
0100
0010
,
1000
0000
0001
0100
,
0000
0100
1000
0000
,
1010
0000
0100
0001
,
0001
1000
0000
1001
,
0000
0000
1000
0001
0010
0000
0000
0000
,
1200
0000
1300
0001
,
1000
0100
0010
0001
,
0100
0001
0100
1000
,
0100
0010
1000
0001
,
0010
0100
1000
0001
,
1000
0000
0010
1000
0010
0000
0100
0001
,
0200
0000
0000
0310
,
0020
0000
0100
0000
,
0000
0000
0100
0000
,
0000
0000
0130
0000
,
0001
0000
1000
0100
1000
0000
0010
0000
,
0100
0001
0100
0000
0010
0000
1000
0100
,
1000
0000
0010
0000
1000
0001
1000
0000
,
0001
0010
0000
0110
,
0000
0100
1000
0000
,
0100
0000
0010
0001
,
0000
1000
0000
0010
,
0000
0100
0001
0000
,
1000
0000
0001
0000
,
1000
0000
0010
1000
,
0000
0001
0000
0010
,
0100
0000
1000
0000
,
0010
0000
0100
0000
,
0010
0000
1000
0100
,
0000
0010
0000
0001
,
0000
0010
0100
0000
,
1000
0010
0001
0010
,
1000
0100
0001
0100
,
1000
0010
1000
0010
0100
0001
0100
0001
,
2000
0000
3100
0010
0002
0000
0103
0010
,
1000
0000
0000
0000
0001
0000
1000
0100
,
0010
0000
0001
1000
0001
0000
0010
0000
,
0000
1000
0010
0001
,
0100
0010
0100
0000
0010
0000
1000
0000
,
0001
0000
0000
0001
0000
0000
1000
0000
,
0000
1000
0000
0000
0010
0000
1000
0000
,
0001
0000
1000
0000
0000
0000
0100
0010
,
0100
0010
0001
0000
1000
0000
0010
0000
,
0100
0000
0000
0000
0001
0100
0010
1000
,
0001
0100
0010
1000
0001
1000
0100
0010
,
0002
0003
0000
0001
2000
3000
0000
1000
,
0020
0030
0000
0010
0200
0000
0000
0000
,
0302
0000
0000
0000
1003
0000
0010
1000
,
0001
0000
0011
0000
,
0100
0000
1000
0000
0001
0000
0100
0010
,
1000
0010
0100
0001
,
2000
3000
0001
0100
0001
0100
0010
2000
,
3000
0000
0001
0010
0001
0010
0100
1000
,
0002
0003
1000
0100
1000
0100
0010
0002
,
0003
0000
1000
0010
1000
0010
0100
0001
,
2000
3000
0010
0100
0010
0100
0001
2000
,
3000
0000
0100
0010
0100
0010
0001
1000
,
0200
0000
0320
0000
0031
1000
0001
1000
,
0001
0000
0100
0010
0000
0100
0010
1000
,
0010
0000
1000
0001
1000
0000
0001
0010
,
0000
0001
1000
0000
0001
0100
0010
1000
,
0001
1000
0001
1000
0020
0000
0230
0000
,
0302
2003
3200
0310
,
0001
0000
1000
0010
1000
0001
1000
0001
,
0010
0100
0010
0100
1000
0100
0010
0001
,
1000
0000
0001
0100
0010
1000
0001
1000
,
0100
0010
0001
0010
0100
1000
0010
0100
,
0002
0000
1003
0010
2000
0000
3001
0010
,
0002
0000
1003
0010
2000
0000
3001
0100
,
0020
0000
0130
0001
0200
0300
0010
1000
,
0020
0000
0130
0001
0200
0000
0301
1000
,
0001
1000
0010
1000
0010
1000
0001
0010
,
0001
0010
0100
1000
0100
0010
0001
1000
,
0010
0000
0110
0000
,
0100
0001
1000
0100
,
0010
0000
0000
0000
0000
0000
0001
1000
0001
0000
0000
0000
0000
0000
0100
0000
,
1000
0000
0000
0100
0000
0000
0001
0000
1000
0000
0000
0000
0010
0000
0000
0000
,
1000
0000
0000
0000
0000
0000
0001
0010
0100
0000
0000
0000
0000
0000
0000
0000
,
0000
1000
0001
0100
,
0010
0000
0000
0000
0000
0000
0100
0000
0010
0000
0000
1000
0000
0000
0001
0000
,
0001
0000
0000
0010
0000
0000
0100
0000
,
1001
0000
0110
0010
,
1010
0000
0110
0100
,
0101
1100
0011
0000
,
0000
0000
1000
0000
0001
0100
0001
0000
,
1000
0010
1000
0001
,
0000
1000
0000
0000
0001
0000
0010
0000
,
0100
0001
0100
1000
,
0010
0000
1000
0000
0100
0010
0001
0000
,
1000
0010
0100
0000
,
0100
0010
1000
0001
,
1000
0010
0100
0100
,
0001
0000
1000
0000
0100
0010
0001
0000
,
1000
0010
1000
0001
,
0020
0030
0200
0300
0020
0030
0001
0000
,
1000
0100
0010
0001
,
0000
1000
0000
0000
1000
0000
0000
0000
,
0010
0000
0100
0000
0010
0000
1000
0100
,
1000
0100
1000
0000
0001
0010
0001
0010
,
0001
0000
1000
0001
0100
0010
1000
0000
,
0000
0000
0001
0000
1000
0010
1000
0000
,
0001
0010
0001
1000
,
0000
0100
0000
0000
1000
0000
0100
0000
,
0010
1000
0010
0001
,
1000
0000
0010
0000
0100
0010
1000
0000
,
0001
0100
1000
0000
,
1000
0100
0001
1000
,
0100
0010
0001
0001
,
1000
0001
0100
0000
,
0100
0010
1000
0000
0001
0000
0020
0000
,
0000
0130
1000
0001
,
0010
1000
0010
0001
,
0100
0010
0010
0100
,
1000
0100
0001
1000
,
0010
1000
0001
0010
,
0100
1000
0001
0000
0100
0010
2000
0000
,
0000
0000
3001
0002
,
0000
1000
0000
0000
,
0000
1000
0000
0000
,
0000
1003
0000
0010
,
1000
0001
0010
0000
0100
0000
0010
0001
,
1000
0000
0100
0000
1000
0001
0100
0000
,
0010
0000
1000
0001
0010
0000
0100
0000
,
1000
0000
1001
0000
,
0100
0010
2002
0000
0000
0000
0000
0000
,
0000
3003
0000
0000
;

//---------------dance-single - ----------------
#NOTES:
     dance-single:
     :
     Medium:
     15:
     0.712939,1.184178,0.130001,0.404446,0.007222,691.000000,673.000000,18.000000,56.000000,0.000000,0.000000,0.712939,1.184178,0.130001,0.404446,0.007222,691.000000,673.000000,18.000000,56.000000,0.000000,0.000000:
0000
0000
0000
0000
,
0000
0000
0000
0000
,
0000
0000
0000
0000
,
0000
0000
0000
0000
,
0000
0000
0000
0000
,
0000
0000
0000
0000
,
0000
0000
0000
0000
,
0000
0000
0000
0000
,
0000
0000
0000
0000
,
0000
0000
0000
0000
,
0000
0000
0000
0000
,
0000
0000
0000
0000
,
0000
0000
0000
0000
,
0000
0000
0000
0000
,
0000
0000
0000
0000
,
0000
0000
0000
0000
,
0000
0000
0000
0000
,
0000
0000
0000
0000
,
0010
1000
0001
1000
,
0100
0010
0001
1000
,
0000
0000
0001
0100
,
0010
1000
0010
0100
,
0001
0000
1000
0100
,
0010
0100
1000
0001
,
0100
0000
0010
0000
,
0100
0001
1000
0010
,
0010
0000
1000
0100
,
0010
0100
0010
0001
,
0000
1000
0001
0010
,
1000
0010
0001
1000
,
0010
1000
0010
0100
,
0002
0003
2000
3000
0200
0300
0020
0030
,
0000
0000
0002
0000
,
0203
0000
0320
0000
,
1030
0000
0000
1000
,
0001
0000
0000
0001
,
1000
0000
0010
0000
,
0010
0100
0001
0000
,
0001
0000
0010
0100
,
0000
1000
0000
0001
,
1000
0000
0100
0000
,
0001
0000
0100
0000
,
1000
0000
0001
0010
,
0001
0000
1000
0000
,
0010
0000
0100
0000
,
0001
0000
0100
0000
,
0010
1000
0001
0010
,
0000
0100
0000
1000
,
0000
0000
0001
1000
0001
0000
1000
0000
,
0000
2002
3003
0000
,
2000
0000
3010
0100
,
0020
0000
0130
0001
,
0200
0000
0301
0000
,
0001
1000
0010
0000
,
0010
0000
0001
0010
,
0000
1000
0000
0100
,
0010
0000
0001
0000
,
1000
0000
0001
0000
,
1000
0000
0010
1000
,
0100
0000
0010
0000
,
0100
0000
0010
0000
,
0001
0000
0100
0000
,
0100
0000
0010
1000
,
1000
0000
0001
0000
,
1000
0000
1100
0000
,
0110
0000
0011
0000
,
0010
0001
1000
0001
,
0000
1000
0100
0000
,
0001
0000
0100
0000
,
1000
0000
0100
0000
,
1000
0010
1000
0010
,
0000
0100
0001
0000
,
1000
0000
0010
0000
,
0001
0000
0010
0000
,
0010
0000
0100
0001
,
0100
0000
0010
1000
,
0010
0000
0000
1000
0000
0000
0001
0000
,
1000
0000
0000
0100
0000
0000
0010
0000
,
0001
1000
0001
1000
,
0010
1000
0001
0100
,
0010
0000
2000
0000
,
3200
0000
0320
0000
,
0031
1000
0001
1000
,
0001
1000
0100
0010
,
0000
0010
0100
0010
,
0000
0100
0010
0001
,
1000
0001
1000
0001
,
1000
0010
0100
0001
,
0000
1000
0100
0000
,
2000
0000
3020
0000
,
0130
0000
0001
0001
,
0000
0100
1000
0000
,
0100
0000
0001
0000
,
0010
0000
1000
0000
,
0010
0000
0001
0001
,
0000
0010
1000
0000
,
0010
0000
0001
0000
,
0100
0000
1000
0000
,
0100
0010
0010
0000
,
1000
0000
0010
0000
,
1000
0000
0001
0000
,
0010
0000
0100
0000
,
0010
0001
0010
0001
,
1000
0001
1000
0010
,
0100
0000
0000
0000
,
0020
0000
0000
0000
,
1030
0000
0001
1000
,
0001
0000
1000
0000
,
0010
0000
0000
1000
0000
0000
0010
0000
,
0100
0000
0001
0000
,
1000
0000
0001
0010
,
0100
0000
1000
0001
,
0000
0001
1000
0000
,
0010
0000
0100
0000
,
0010
0000
1000
0001
,
0010
0100
1000
0001
,
0000
1000
0001
1000
,
0000
0100
1000
0010
,
0100
0000
0000
0001
0000
0000
0001
0000
,
0000
1000
0100
1000
,
0020
0030
0010
2000
,
3000
0000
1000
0000
0001
1000
0001
1000
,
0001
0000
1000
0010
,
1000
0000
0001
0000
,
0010
0000
0000
0100
0000
0000
0010
0000
,
0001
0000
1000
0000
,
0010
0000
1000
0100
,
0010
0000
0001
0100
,
0000
0100
0002
0000
,
2003
0000
3010
0000
,
0100
0010
0000
0010
,
0000
0000
1000
0010
1000
0000
0000
0000
,
0011
0000
0010
0001
,
0010
0100
1000
0001
,
1000
0000
0010
0010
,
0000
1000
0000
0001
,
0010
0000
0200
0000
,
2300
0000
3001
0000
,
0002
0000
0000
1003
,
2000
0000
0000
0000
,
0000
0000
0000
0000
,
0000
0000
0000
0000
,
3010
0000
0100
0101
,
0000
0000
0001
0000
,
0001
0011
0000
0000
,
0010
0100
0000
1100
,
0000
0000
1000
0000
,
0001
0000
0010
0001
,
0000
1000
0000
0100
,
0000
0010
0001
0000
,
1000
0000
0001
0000
,
1000
0000
0010
1000
,
0000
0001
0000
0100
,
0010
0000
1000
0000
,
0001
0000
1000
0000
,
0001
0000
1000
0100
,
0000
0010
0000
0001
,
0000
0100
0010
0000
,
1000
0001
1000
0001
,
0010
0100
1000
0100
,
0010
0001
1000
0010
,
1000
0001
0100
0001
,
1000
0000
0010
1000
,
0001
1000
0010
0001
,
0000
0010
1000
0001
,
0010
1000
0010
0001
,
1000
0000
0000
1000
0000
0000
0100
0000
,
0000
0010
0000
0000
0001
0000
1000
0000
,
0001
0000
0100
0000
0000
0000
0010
0100
,
0010
0100
0010
0000
1000
0000
0001
0000
,
0010
0000
0200
2300
,
3200
0320
0032
0203
,
2300
3200
0320
0230
,
0302
0203
0310
0000
,
2000
0000
0000
0000
3000
0000
0010
1000
,
0002
0003
0200
0300
,
0000
0000
0001
0000
0100
0000
0010
1000
,
0001
0010
0100
1000
,
0010
0000
1000
0000
0001
0000
0010
0100
,
0000
0010
0001
1000
,
0100
0000
1000
0000
0010
0000
0100
0001
,
0000
0100
0010
1000
,
0001
0000
0010
0000
0001
0000
1000
0010
,
0000
1000
0001
0100
,
0010
0000
0100
0000
0001
1000
0001
0000
,
0010
0000
0000
0100
0000
0000
0010
0001
,
0010
0100
1000
0001
,
1000
0010
0000
0000
1000
0000
0001
0000
,
0010
0000
0100
0000
2000
3000
0002
0003
,
0200
0300
0020
0030
2000
3000
0020
0030
,
1000
0010
0100
0010
,
1000
0100
0010
0001
,
1000
0001
0010
0100
,
1000
0001
1000
0010
,
0100
0001
0100
0001
,
0100
0001
0100
0001
,
0010
0001
0010
0001
,
0010
0001
0010
0001
,
1000
0100
1000
0100
,
1000
0001
1000
0001
1000
0001
1000
0001
,
1000
0000
0110
0000
,
0010
1000
0001
0100
,
0010
0000
0000
0010
0100
0000
0000
0000
,
0001
0000
0000
1000
0000
0000
0001
0000
0010
0000
0000
0000
0100
0000
0000
0000
,
1000
0000
0000
0001
0100
0000
0000
0000
,
0000
0001
0010
0100
,
1000
0000
0000
0000
0000
0000
0010
0000
1000
0000
0000
0001
0000
0000
0010
0000
,
0010
0000
0000
0100
0000
0000
0010
0000
,
1001
0000
0101
0000
,
1001
0000
1100
0000
,
0110
1001
0110
0000
,
0000
1000
0010
1000
,
0000
0001
0100
0001
,
0000
1000
0000
0000
0001
0000
0010
0000
,
0000
0100
0000
0010
,
0000
0001
0010
0100
,
0000
1000
0010
0000
,
0010
1000
0000
0001
,
0000
0100
0000
0010
,
0000
0100
0001
1000
,
0100
0010
0001
0000
,
0100
0001
0100
0000
,
0010
1000
0100
0010
,
0000
0100
0000
0000
0100
0000
0000
0000
,
1000
0100
0010
0002
,
0003
0001
2000
3000
,
1000
0000
0010
0100
0010
0100
0010
0000
,
0000
1000
0010
1000
,
0000
0001
0100
0010
,
0000
0100
0000
0000
0010
0000
1000
0000
,
0000
0001
0000
1000
,
0000
0010
0100
0001
,
0000
0100
0010
0000
,
0010
0100
0000
0010
,
0000
1000
0000
0001
,
0010
0000
0010
0000
,
0001
1000
0010
0000
0000
0000
1100
0000
,
0000
1000
0010
0100
,
0001
0010
0100
0010
,
0000
0001
0001
0000
,
1000
0000
0100
0020
,
0000
0230
0000
2300
,
0000
3010
0000
0020
,
0000
0000
0130
0200
,
0000
0000
0000
0000
,
0000
0000
0000
0000
,
0000
0000
0000
0310
,
1000
1000
0001
0010
,
0010
0100
0010
0010
,
0001
0100
0100
0010
,
1000
0000
0110
0000
,
1000
0002
2000
0000
0000
0000
0000
0000
,
0000
3003
0000
0000
;

//---------------dance-single - ----------------
#NOTES:
     dance-single:
     :
     Easy:
     11:
     0.412700,0.640162,0.115556,0.166112,0.000000,400.000000,384.000000,16.000000,23.000000,0.000000,0.000000,0.412700,0.640162,0.115556,0.166112,0.000000,400.000000,384.000000,16.000000,23.000000,0.000000,0.000000:
0000
0000
0000
0000
,
0000
0000
0000
0000
,
0000
0000
0000
0000
,
0000
0000
0000
0000
,
0000
0000
0000
0000
,
0000
0000
0000
0000
,
0000
0000
0000
0000
,
0000
0000
0000
0000
,
0000
0000
0000
0000
,
0000
0000
0000
0000
,
0000
0000
0000
0000
,
0000
0000
0000
0000
,
0000
0000
0000
0000
,
0000
0000
0000
0000
,
0000
0000
0000
0000
,
0000
0000
0000
0000
,
0000
0000
0000
0000
,
0000
0000
0000
0000
,
0010
0000
1000
0000
,
0100
0000
1000
0001
,
0000
0000
0010
0000
,
0001
0000
0100
0000
,
0010
0000
0100
0000
,
0001
1000
0001
1000
,
0000
0000
0010
0000
,
1000
0000
0010
0000
,
0110
0000
0000
0000
,
1000
0000
0100
0000
,
1010
0000
0000
0000
,
0001
0000
0010
0000
,
0101
0000
0000
0000
,
1000
0001
1000
0001
,
0000
0000
0000
0000
,
0000
0000
0000
0000
,
1000
0000
0000
0000
,
0001
0000
0000
0000
,
0010
0000
0000
0000
,
0001
0000
0010
0000
,
0010
0000
0000
0100
,
0000
0100
0000
0000
,
1000
0000
0100
0000
,
0001
0000
0100
0000
,
1000
0000
0000
1000
,
0001
0000
0000
0000
,
0100
0000
0010
0000
,
0100
0000
0001
0000
,
1000
0000
0000
0010
,
0000
0010
0000
1010
,
0000
0000
0000
1010
,
0000
0101
0000
0000
,
1002
0000
0000
0000
,
0023
0000
0000
0000
,
0031
0000
0000
0000
,
1000
0000
0100
0000
,
0100
0000
0000
1000
,
0000
0001
0000
0000
,
0100
0000
0010
0000
,
1000
0000
0001
0000
,
1000
0000
0000
0001
,
0010
0000
0000
0000
,
0001
0000
0100
0000
,
0010
0000
1000
0000
,
1000
0000
0000
0100
,
0200
0000
0000
0000
,
0300
0000
0020
0000
,
0032
0000
2003
0000
,
3100
0000
0000
0010
,
0000
0000
0001
0000
,
1000
0000
0010
0000
,
1000
0000
0001
0000
,
0100
0000
0000
0010
,
0000
0000
1000
0000
,
0001
0000
0010
0000
,
0001
0000
0010
0000
,
0100
0000
0000
0100
,
0010
0000
0000
0010
,
0100
0000
0000
0100
0000
0000
0000
0000
,
0010
0000
0000
0010
0000
0000
0000
0000
,
0001
0000
1000
0000
,
0001
0000
1000
0000
,
0010
0000
0000
0000
,
0100
0000
1001
0000
,
0001
0000
0000
0000
,
0000
0000
0001
0001
,
0000
0000
0001
0000
,
0100
0000
0001
0000
,
1000
0000
0000
0000
,
0000
0000
1000
1000
,
0000
0000
1000
0000
,
0100
0000
0010
0000
,
0001
0000
0000
0100
,
0000
0000
0010
0000
,
0100
0000
0000
0000
,
0100
0000
0001
0000
,
0010
0000
0000
0100
,
0000
0000
1000
0000
,
0100
0000
0000
0000
,
0100
0000
1000
0000
,
0010
0000
0000
0000
,
1000
0000
0000
0000
,
0001
0000
0000
0000
,
0010
0000
0000
0000
,
0001
0000
0010
0000
,
0100
0000
1000
0000
,
0001
0000
0000
0000
,
2000
0000
0000
0000
,
3010
0000
0000
0000
,
0100
0000
0000
0000
,
0001
0000
1000
0000
,
0100
0000
0010
0000
,
0002
0000
0000
0000
,
1003
0000
0000
0000
,
0100
0000
0010
0000
,
0100
0000
1000
0000
,
0001
0000
0000
0000
,
0100
0000
0010
0000
,
1000
0000
0010
0000
,
0100
0000
0000
0000
,
0001
0000
1000
0000
,
0001
0000
0010
0000
,
0200
0000
0300
0020
,
0000
0030
0002
0000
,
1003
0000
0000
0000
,
0010
0000
0000
0000
,
0100
0000
0010
0000
,
1000
0000
0001
0000
,
0020
0000
0000
0000
,
0130
0000
0000
0000
,
1000
0000
0100
0000
,
0010
0000
0001
0000
,
1000
0000
0000
0010
,
0000
0000
0010
0000
,
1000
0000
0001
0000
,
0100
0000
0001
0000
,
0010
0000
0000
0010
,
0000
0010
0000
0000
,
0001
0000
1000
0000
,
0010
0000
0100
0000
,
0100
0000
0000
0001
,
0002
0000
0000
0000
,
0000
0000
0000
0000
,
0000
0000
0000
0000
,
1003
0000
0000
0101
,
0000
0000
0001
0000
,
0000
1100
0000
0000
,
1000
0000
0000
1001
,
0000
0000
0000
0000
,
1000
0000
0000
0000
,
0001
0000
0100
0000
,
0001
0000
0000
0000
,
1000
0000
0000
0000
,
0001
0000
0000
0000
,
1000
0000
0010
0000
,
1000
0000
0100
0000
,
0010
0000
0000
0000
,
0001
0000
0000
0000
,
0100
0000
0000
0000
,
0010
0000
0000
0000
,
1000
0000
0010
0000
,
0100
0000
0001
0000
,
1000
0000
1000
0000
,
0001
0000
0001
0000
,
0010
0000
0000
0000
,
0100
0000
0010
0000
,
0001
0000
0010
0000
,
0100
0000
1000
0000
,
0010
0000
1000
0000
,
0010
0000
1000
0000
,
0001
0000
0100
0000
,
0001
0000
0100
0000
,
0010
0000
1000
0000
,
0001
0000
1000
0000
,
0100
0000
0010
0000
,
0001
0000
1000
0000
,
0100
0000
1000
0000
,
0010
0000
0100
0000
,
0000
0000
0010
0000
,
0100
0000
0001
0000
,
1000
0000
1000
0001
,
0000
0000
0010
0000
,
0001
0000
0001
1000
,
0000
0000
0010
0000
,
1000
0000
1000
0001
,
0000
0000
0010
0000
,
0001
0000
0010
0000
,
0100
0000
1000
0000
,
0010
0000
0001
0000
,
0010
0000
1000
0000
,
0001
0000
0010
0000
,
0100
0000
1000
0000
,
0001
0000
1000
0000
,
0100
0000
0010
0000
,
0001
0000
0100
0000
,
0010
0000
1000
0000
,
0100
0000
0100
0000
,
0100
0000
0100
0000
,
0010
0000
0010
0000
,
0010
0000
0010
0000
,
0001
0000
1000
0000
,
0001
0000
1000
0000
,
1001
0000
0000
0000
,
0000
0000
0000
0000
,
0020
0000
0000
0000
,
2030
0000
0000
0000
,
3002
0000
0000
0000
,
0013
0100
0010
0001
,
2000
0000
0000
0000
,
3020
0000
0000
0000
,
0130
0000
0100
0000
,
0010
0000
0100
0000
,
0001
1000
0001
0000
,
0000
1001
0000
0001
,
0000
0010
0000
0001
,
0000
1000
0000
0010
,
0000
0100
0000
0010
,
0000
1000
0000
0001
,
0000
0000
0010
0000
,
0000
0100
0000
1000
,
0000
0010
0000
1000
,
0000
0001
0000
0100
,
0000
0010
0000
0100
,
0000
0001
0000
1000
,
0000
0100
0000
0010
,
0000
0001
0000
1000
,
0000
0010
0000
0200
,
0000
0300
0020
0000
,
0030
1000
0001
1000
,
0000
0100
0000
0010
,
0000
0001
0000
1000
,
0000
0001
0000
0010
,
0000
0100
0000
1000
,
0000
0010
0000
1000
,
0000
0000
0001
0000
,
0000
0001
0000
1000
,
0000
0010
0000
0100
,
0000
0000
0010
0000
,
0000
0010
0000
1000
,
0000
0001
0000
1000
,
0000
0100
0000
0010
,
0000
0000
0001
0000
,
0000
1000
0000
0001
,
0000
0100
0000
0010
,
0000
1000
0000
0001
,
0000
0000
1000
2000
,
0000
0000
0000
0000
,
0000
0000
0000
0000
,
0000
0000
0000
3001
,
0000
0000
0011
0000
,
0000
1000
0000
0000
,
1010
0000
0000
0010
,
0100
0000
0001
0000
,
0000
2002
0000
0000
,
0000
0000
0000
0000
,
0000
3003
0000
0000
;

//---------------dance-single - ----------------
#NOTES:
     dance-single:
     :
     Beginner:
     7:
     0.278572,0.544377,0.057778,0.000000,0.000000,270.000000,262.000000,8.000000,0.000000,0.000000,0.000000,0.278572,0.544377,0.057778,0.000000,0.000000,270.000000,262.000000,8.000000,0.000000,0.000000,0.000000:
// measure 0
0000
0000
0000
0000
,  // measure 1
0000
0000
0000
0000
,  // measure 2
0000
0000
0000
0000
,  // measure 3
0000
0000
0000
0000
,  // measure 4
0000
0000
0000
0000
,  // measure 5
0000
0000
0000
0000
,  // measure 6
0000
0000
0000
0000
,  // measure 7
0000
0000
0000
0000
,  // measure 8
0000
0000
0000
0000
,  // measure 9
0000
0000
0000
0000
,  // measure 10
0000
0000
0000
0000
,  // measure 11
0000
0000
0000
0000
,  // measure 12
0000
0000
0000
0000
,  // measure 13
0000
0000
0000
0000
,  // measure 14
0000
0000
0000
0000
,  // measure 15
0000
0000
0000
0000
,  // measure 16
0000
0000
0000
0000
,  // measure 17
0000
0000
0000
0000
,  // measure 18
1000
0000
0000
0000
,  // measure 19
0001
0000
0000
0000
,  // measure 20
0010
0000
0000
0000
,  // measure 21
0001
0000
1000
0000
,  // measure 22
0001
0000
0000
0000
,  // measure 23
1000
0000
0010
0000
,  // measure 24
1000
0000
0000
0000
,  // measure 25
0000
0000
0000
0000
,  // measure 26
0001
0000
0000
0000
,  // measure 27
0010
0000
0000
0000
,  // measure 28
0001
0000
0000
0000
,  // measure 29
1000
0000
0000
0000
,  // measure 30
0100
0000
0000
0000
,  // measure 31
0010
0000
0000
0010
,  // measure 32
0000
0000
0000
0000
,  // measure 33
0000
0000
0000
0000
,  // measure 34
1000
0000
0000
0000
,  // measure 35
0010
0000
0000
0000
,  // measure 36
1000
0000
0000
0000
,  // measure 37
0000
0000
0000
0000
,  // measure 38
0001
0000
0000
0000
,  // measure 39
0010
0000
0000
0000
,  // measure 40
0001
0000
0000
0000
,  // measure 41
1000
0000
0000
0000
,  // measure 42
0001
0000
0000
0000
,  // measure 43
0100
0000
0000
0000
,  // measure 44
0000
0000
0000
0000
,  // measure 45
0010
0000
0000
0000
,  // measure 46
1000
0000
0000
0000
,  // measure 47
0001
0000
0000
1000
,  // measure 48
0000
0000
0000
1000
,  // measure 49
0000
0001
0000
0000
,  // measure 50
1001
0000
0000
0000
,  // measure 51
0001
0000
0000
0000
,  // measure 52
0100
0000
0000
0000
,  // measure 53
0001
0000
0000
0000
,  // measure 54
1000
0000
0000
0000
,  // measure 55
0010
0000
0000
0000
,  // measure 56
0100
0000
0000
0000
,  // measure 57
0001
0000
0000
0000
,  // measure 58
0010
0000
0000
0000
,  // measure 59
0010
0000
0000
0000
,  // measure 60
0100
0000
0000
0000
,  // measure 61
0100
0000
0000
0000
,  // measure 62
1000
0000
0000
0000
,  // measure 63
0010
0000
0000
0000
,  // measure 64
1000
0000
0001
0000
,  // measure 65
1000
0000
0001
0000
,  // measure 66
1000
0000
0000
0000
,  // measure 67
0100
0000
0000
0000
,  // measure 68
0100
0000
0000
0000
,  // measure 69
0010
0000
0000
0000
,  // measure 70
0010
0000
0000
0000
,  // measure 71
0001
0000
0000
0000
,  // measure 72
1000
0000
0000
0000
,  // measure 73
0001
0000
0100
0000
,  // measure 74
0001
0000
0000
0000
,  // measure 75
1000
0000
0000
0000
,  // measure 76
0011
0000
0000
0000
,  // measure 77
1010
0000
0000
0000
,  // measure 78
1001
0000
0000
0000
,  // measure 79
0000
0000
0000
0000
,  // measure 80
0000
0000
0100
0000
,  // measure 81
0010
0000
0001
0000
,  // measure 82
1000
0000
0000
0000
,  // measure 83
0000
0000
0000
1000
,  // measure 84
0000
0000
0000
0000
,  // measure 85
0010
0000
0100
0000
,  // measure 86
0001
0000
0000
0000
,  // measure 87
0000
0000
0000
0001
,  // measure 88
0000
0000
0000
0000
,  // measure 89
0010
0000
0100
0000
,  // measure 90
1000
0000
0000
0000
,  // measure 91
0010
0000
0000
0000
,  // measure 92
0100
0000
0000
0000
,  // measure 93
0100
0000
0000
0000
,  // measure 94
0001
0000
0000
0000
,  // measure 95
0010
0000
0000
0000
,  // measure 96
0100
0000
0000
0000
,  // measure 97
0100
0000
0000
0000
,  // measure 98
1000
0000
0000
0000
,  // measure 99
0000
0000
0000
0000
,  // measure 100
0001
0000
0000
0000
,  // measure 101
0010
0000
0000
0000
,  // measure 102
0001
0000
0000
0000
,  // measure 103
0000
0000
0000
0000
,  // measure 104
1001
0000
0000
0000
,  // measure 105
0000
0000
0000
0000
,  // measure 106
1000
0000
0000
0000
,  // measure 107
0010
0000
0000
0000
,  // measure 108
0010
0000
0100
0000
,  // measure 109
0010
0000
0100
0000
,  // measure 110
0010
0000
0000
0000
,  // measure 111
1000
0000
0000
0000
,  // measure 112
0001
0000
0000
0000
,  // measure 113
0010
0000
0000
0000
,  // measure 114
0001
0000
0000
0000
,  // measure 115
1000
0000
0000
0000
,  // measure 116
0001
0000
1000
0000
,  // measure 117
0001
0000
0000
0000
,  // measure 118
0010
0000
0000
0000
,  // measure 119
0100
0000
0000
0000
,  // measure 120
1000
0000
0000
1000
,  // measure 121
0000
0000
0000
0000
,  // measure 122
0001
0000
0000
0000
,  // measure 123
1000
0000
0000
0000
,  // measure 124
0100
0000
0010
0000
,  // measure 125
0100
0000
0010
0000
,  // measure 126
0100
0000
0000
0000
,  // measure 127
0010
0000
0000
0000
,  // measure 128
0001
0000
0000
0000
,  // measure 129
0100
0000
0000
0000
,  // measure 130
0010
0000
0000
0000
,  // measure 131
1000
0000
0001
0000
,  // measure 132
1000
0000
0000
0000
,  // measure 133
0010
0000
0100
0000
,  // measure 134
0010
0000
0000
0000
,  // measure 135
1000
0000
0000
0000
,  // measure 136
0001
0000
0010
0000
,  // measure 137
0001
0000
1000
0000
,  // measure 138
0001
0000
0000
0000
,  // measure 139
1000
0000
0000
0000
,  // measure 140
0000
0000
0000
0000
,  // measure 141
0000
0000
0000
0000
,  // measure 142
1000
0000
0000
1000
,  // measure 143
0000
0000
0001
0000
,  // measure 144
0000
0001
0000
0000
,  // measure 145
1000
0000
0000
1001
,  // measure 146
0000
0000
0000
0000
,  // measure 147
0010
0000
0000
0000
,  // measure 148
1000
0000
0000
0000
,  // measure 149
0100
0000
0000
0000
,  // measure 150
0010
0000
0000
0000
,  // measure 151
0001
0000
0000
0000
,  // measure 152
1000
0000
0000
0000
,  // measure 153
0001
0000
0000
0000
,  // measure 154
0100
0000
0000
0000
,  // measure 155
0010
0000
0000
0000
,  // measure 156
1000
0000
0000
0000
,  // measure 157
0010
0000
0000
0000
,  // measure 158
0100
0000
0000
0000
,  // measure 159
0001
0000
0000
0000
,  // measure 160
1000
0000
0001
0000
,  // measure 161
1000
0000
0001
0000
,  // measure 162
1000
0000
0000
0000
,  // measure 163
0100
0000
0000
0000
,  // measure 164
0010
0000
0000
0000
,  // measure 165
0001
0000
0001
0000
,  // measure 166
1000
0000
0000
0000
,  // measure 167
0010
0000
0000
0000
,  // measure 168
1000
0000
0000
0000
,  // measure 169
0100
0000
0100
0000
,  // measure 170
1000
0000
0000
0000
,  // measure 171
0010
0000
0000
0000
,  // measure 172
0100
0000
0000
0000
,  // measure 173
0001
0000
1000
0000
,  // measure 174
0001
0000
0000
0000
,  // measure 175
0010
0000
0000
0000
,  // measure 176
0100
0000
0010
0000
,  // measure 177
0100
0000
1000
0000
,  // measure 178
0100
0000
0000
0100
,  // measure 179
0000
0000
0000
0000
,  // measure 180
0010
0000
0000
0010
,  // measure 181
0000
0000
0000
0000
,  // measure 182
0001
0000
0000
0001
,  // measure 183
0000
0000
0000
0000
,  // measure 184
1000
0000
0000
1000
,  // measure 185
0000
0000
0001
0000
,  // measure 186
1000
0000
0000
0000
,  // measure 187
0010
0000
0000
0000
,  // measure 188
1000
0000
0000
0000
,  // measure 189
0001
0000
0000
0000
,  // measure 190
0010
0000
0000
0000
,  // measure 191
0100
0000
0000
0000
,  // measure 192
1000
0000
0001
0000
,  // measure 193
1000
0000
0001
0000
,  // measure 194
0010
0000
0010
0000
,  // measure 195
0010
0000
0000
0000
,  // measure 196
0100
0000
0100
0000
,  // measure 197
0100
0000
0000
0000
,  // measure 198
1000
0000
1000
0000
,  // measure 199
1000
0000
1000
0000
,  // measure 200
0001
0000
0000
0000
,  // measure 201
0000
0000
0000
0000
,  // measure 202
1000
0000
0000
0000
,  // measure 203
0100
0000
0000
0000
,  // measure 204
1000
0000
0000
0000
,  // measure 205
0001
0000
0000
0000
,  // measure 206
0100
0000
0000
0000
,  // measure 207
0010
0000
0000
0000
,  // measure 208
1000
0000
0001
0000
,  // measure 209
1000
0000
0001
0000
,  // measure 210
1000
0000
0000
0000
,  // measure 211
0000
0000
0000
0001
,  // measure 212
0000
0000
0000
1000
,  // measure 213
0000
0001
0000
1000
,  // measure 214
0000
0001
0000
1000
,  // measure 215
0000
0000
0000
0010
,  // measure 216
0000
0000
0000
0100
,  // measure 217
0000
0000
0000
0001
,  // measure 218
0000
0000
0000
1000
,  // measure 219
0000
0000
0000
0100
,  // measure 220
0000
0000
0000
0010
,  // measure 221
0000
0000
0000
0001
,  // measure 222
0000
0000
0000
1000
,  // measure 223
0000
0000
0000
0010
,  // measure 224
0000
0000
0000
0100
,  // measure 225
0000
0000
0100
0000
,  // measure 226
0000
0100
0000
0010
,  // measure 227
0000
0000
0000
1000
,  // measure 228
0000
0000
0000
0001
,  // measure 229
0000
1000
0000
0001
,  // measure 230
0000
1000
0000
0001
,  // measure 231
0000
0000
0000
0010
,  // measure 232
0000
0000
0000
0100
,  // measure 233
0000
0000
0000
1000
,  // measure 234
0000
0000
0000
0010
,  // measure 235
0000
0000
0000
0100
,  // measure 236
0000
0001
0000
0100
,  // measure 237
0000
0000
0000
0010
,  // measure 238
0000
1000
0000
0010
,  // measure 239
0000
0000
0000
1000
,  // measure 240
0000
0000
0000
0001
,  // measure 241
0000
0000
0000
0010
,  // measure 242
0000
0000
0000
0100
,  // measure 243
0000
0000
0000
0010
,  // measure 244
0000
0000
0000
0000
,  // measure 245
0000
0000
0000
0000
,  // measure 246
0000
0000
0000
0010
,  // measure 247
0000
0000
0100
0000
,  // measure 248
0000
0100
0000
0000
,  // measure 249
0010
0000
0000
0100
,  // measure 250
0000
0000
0110
0000
,  // measure 251
0000
1001
0000
0000
;
