#TITLE:I WILL FLY;
#SUBTITLE:(Euro Turbo Mix);
#ARTIST:CAT;
#TITLETRANSLIT:;
#SUBTITLETRANSLIT:;
#ARTISTTRANSLIT:;
#GENRE:;
#CREDIT:;
#BANNER:I WILL FLY (Euro Turbo Mix).png;
#BACKGROUND:I WILL FLY (Euro Turbo Mix)-bg.png;
#LYRICSPATH:;
#CDTITLE:cdtitle.png;
#MUSIC:I WILL FLY (Euro Turbo Mix).mp3;
#OFFSET:-0.020620;
#SAMPLESTART:52.220001;
#SAMPLELENGTH:12.000000;
#SELECTABLE:YES;
#BPMS:0.000000=146.000000
;
#STOPS:
;
#BGCHANGES:31.000=heart4.avi=1.000=0=0=1===CrossFade_Faster==,
40.000=dance1.avi=1.000=0=0=1=====,
48.000=heart1.avi=1.000=0=0=1=====,
56.000=circle5.avi=1.000=0=0=1=====,
64.000=clouds1.avi=1.000=0=0=1=====,
72.000=circle8.avi=1.000=0=0=1=====,
76.000=colors3.avi=1.000=0=0=1=====,
79.000=box1.avi=1.000=0=0=1=====,
80.000=sun1.avi=1.000=0=0=1=====,
87.000=fireworks1.avi=1.000=0=0=1=====,
96.000=heart1.avi=1.000=0=0=1=====,
104.000=dancers3.avi=1.000=0=0=1=====,
111.000=box1.avi=1.000=0=0=1=====,
112.000=sun3.avi=1.000=0=0=1=====,
128.000=dancers3.avi=1.000=0=0=1=====,
136.000=dance2.avi=1.000=0=0=1=====,
144.000=dance1.avi=1.000=0=0=1=====,
152.000=sun1a.avi=1.000=0=0=1=====,
160.000=balloon1.avi=1.000=0=0=1=====,
176.000=fireworks1.avi=1.000=0=0=1=====,
184.000=box1.avi=1.000=0=0=1=====,
192.000=heart4.avi=1.000=0=0=1=====,
200.000=clouds1.avi=1.000=0=0=1=====,
208.000=heart1.avi=1.000=0=0=1=====,
215.000=sun1a.avi=1.000=0=0=1=====,
220.000=I WILL FLY (Euro Turbo Mix)-bg.png=1.000=1=0=1===CrossFade==,
99999=-nosongbg-=1.000=0=0=0 // don't automatically add -songbackground-
;
#KEYSOUNDS:;
#ATTACKS:;

//---------------dance-single - ----------------
#NOTES:
     dance-single:
     :
     Hard:
     13:
     0.525668,0.601175,0.537964,0.021519,0.118352,342.000000,292.000000,50.000000,2.000000,0.000000,0.000000,0.525668,0.601175,0.537964,0.021519,0.118352,342.000000,292.000000,50.000000,2.000000,0.000000,0.000000:
0000
0000
0000
0000
,
0000
0000
0000
0000
,
0000
0000
0000
0000
,
0000
0000
0000
0000
,
1100
1100
0000
0000
,
0000
0000
0000
1100
,
1001
1001
0000
0000
,
0000
0000
0000
0000
0000
0010
0010
0000
,
1001
0000
0010
1000
0001
0000
0010
1000
,
1010
1010
0011
0000
,
1001
0000
0001
0100
1000
0000
0100
0001
,
0101
0000
0101
0000
1100
0000
0001
1000
,
1001
0000
0001
0010
1000
0000
0010
0100
,
0110
0110
0011
0001
,
1100
0000
0011
0000
1010
0000
0100
0100
,
0000
0101
0000
0101
0000
0101
0000
0000
,
1001
0000
1000
0100
0001
0000
0100
0000
,
0011
0011
1010
0100
,
1100
0000
0101
0000
0001
0010
0001
0100
,
0001
0010
0001
0000
0100
0000
0010
1000
,
0001
0000
0001
0100
1000
0000
0100
0000
,
0001
0010
1000
0000
0010
0000
0001
1000
,
0001
0100
0001
0100
0010
1000
0010
1000
,
0001
0010
0001
1000
0001
0010
0100
1000
,
0001
0000
1000
0100
0001
0000
0010
0000
,
0001
0100
1000
0100
0001
0100
1000
0000
,
0101
0000
1100
0000
0010
0001
1000
0000
,
0001
0100
1000
0000
0100
0000
0010
1000
,
1001
0000
0100
0010
0001
0000
0100
0010
,
0001
0010
1000
0000
0001
0000
0010
0000
,
0100
0000
1000
0000
0001
0000
0100
0100
,
0000
0110
0000
0110
0000
0110
0000
0000
,
0001
0000
1000
0000
0010
0000
0100
0000
0001
0010
0000
0001
0010
0000
0100
0000
,
1000
0000
0010
0000
0100
0000
0001
0010
0000
0001
0010
0000
0001
0000
0100
0000
,
0001
0000
0010
0000
0100
0000
1000
0000
0010
0100
0000
0010
0100
0000
0001
0000
,
1000
0000
0100
0000
1000
0000
0010
0100
0000
0010
0100
0000
0001
0000
0010
0000
,
0001
0000
1000
0000
0100
0000
0010
0000
0001
1000
0000
0001
1000
0000
0010
0000
,
0100
0000
0001
0000
0010
0000
0001
1000
0000
0001
1000
0000
0100
0000
0010
0000
,
0001
0000
0001
0000
1000
0000
0010
0010
,
0000
0101
0000
0101
0000
0101
0000
0000
,
0001
0000
1000
0000
0010
0000
0100
0000
0001
0010
0001
0000
1000
0000
0100
0000
,
0010
0000
0100
0000
1000
0000
0100
0010
0000
0010
0100
0000
1000
0000
0010
0000
,
1000
0000
0100
0000
0010
0000
0001
0000
1000
0100
1000
0000
0001
0000
0100
0000
,
0010
0000
1000
0000
0100
0000
1000
0010
0000
0010
1000
0000
0100
0000
0000
0000
,
0010
0000
0001
0000
1000
0100
1000
0000
0010
0000
0100
0000
0001
0010
0001
0000
,
1000
0000
0100
0000
0010
0000
0001
1000
0000
0100
0010
0000
0001
0000
1000
0000
,
0010
0000
1000
0000
0001
0000
0000
0002
,
0000
0000
0000
0000
0000
0010
0013
0000
,
1001
0000
0010
1000
0001
0000
0010
1000
,
1010
1010
0101
0000
,
1001
0000
0001
0010
1000
0000
0010
0100
,
0110
0000
0110
0000
1100
0000
0001
1000
,
1001
0000
0100
1000
0001
0000
0100
1000
,
1100
1100
0101
0010
,
1000
0000
0001
0000
1000
0000
0010
0020
,
0000
0000
0000
0000
0000
0000
0000
0030
;

//---------------dance-single - ----------------
#NOTES:
     dance-single:
     :
     Medium:
     9:
     0.407316,0.450881,0.333538,0.290501,0.000000,265.000000,234.000000,31.000000,27.000000,0.000000,0.000000,0.407316,0.450881,0.333538,0.290501,0.000000,265.000000,234.000000,31.000000,27.000000,0.000000,0.000000:
0000
0000
0000
0000
,
0000
0000
0000
0000
,
0000
0000
0000
0000
,
0000
0000
0000
0000
,
1100
1100
0000
0000
,
0000
0000
0000
1100
,
0011
0011
0000
0000
,
0000
0000
0000
0000
0000
0010
0010
0000
,
1000
0000
0001
1000
0100
0000
1000
0000
,
0001
1000
0020
0000
1000
0000
1030
0000
,
0001
0000
0010
0100
0010
0000
0100
0000
,
1000
0100
0020
0000
0001
0000
0031
0000
,
1000
0000
0001
1000
0100
0000
1000
0000
,
0100
0010
0002
0000
1000
0000
0103
0000
,
0010
0000
0001
0000
1000
0000
0001
1000
,
0000
1001
0000
1001
0000
1001
0000
0000
,
2001
0000
3100
0010
0001
0000
0001
1000
,
0001
0100
0001
0000
1000
0000
0000
0000
,
0120
0000
1030
0000
0001
0010
0100
1000
,
0100
0010
0002
0000
1003
0000
0001
1000
,
0100
0000
0010
0001
1000
0000
0001
0000
,
1000
0010
2000
0000
0100
0000
3100
0000
,
0002
0010
0100
0013
,
2000
0010
0100
3001
,
1002
0000
0103
0010
1000
0000
0001
0000
,
0010
0100
0020
0000
0100
0000
0130
0000
,
0210
0000
0301
0000
1000
0010
0100
0001
,
0100
0010
2000
0000
3001
0000
0000
0000
,
2001
0000
3100
0010
0001
0000
1000
0000
,
0001
1000
0001
1000
0001
0000
1000
0000
,
0010
0000
0001
0000
1000
0000
0100
0010
,
0000
1001
0000
1001
0000
1001
0000
0000
,
2001
0100
0001
3100
,
0010
0001
1000
0001
0100
0000
1010
0000
,
1002
0100
1000
0103
,
0010
0100
0010
0100
0010
0000
0101
0000
,
2010
0100
0010
3100
,
0001
0010
0001
1000
0001
0000
1000
0000
,
1002
0000
1003
0000
2001
0000
3001
0001
,
0000
0110
0000
0110
0000
0110
0000
0000
,
2100
0010
0100
3010
,
0001
0100
0001
1000
0010
0000
0101
0000
,
0012
0100
0010
0103
,
1000
0100
1000
0001
0010
0000
0110
0000
,
2001
0100
0010
3001
,
1000
0001
1000
0100
0010
0000
0001
0000
,
1000
0000
0001
0000
0010
0000
0100
2000
,
0000
0000
0000
0000
0000
0001
3001
0000
,
0001
0000
1000
0001
0010
0000
0001
0000
,
1000
0001
0200
0000
0001
0000
0301
0000
,
1000
0000
0100
0010
0100
0000
0010
0000
,
0001
0010
0200
0000
1000
0000
1300
0000
,
0001
0000
1000
0001
0010
0000
0001
0000
,
0010
0100
2000
0000
0001
0000
3010
0000
,
0100
0000
1000
0000
0001
0000
1000
0002
,
0000
0000
0000
0000
0000
0000
0000
0003
;

//---------------dance-single - ----------------
#NOTES:
     dance-single:
     :
     Easy:
     6:
     0.278204,0.330646,0.172149,0.075315,0.000000,181.000000,165.000000,16.000000,7.000000,0.000000,0.000000,0.278204,0.330646,0.172149,0.075315,0.000000,181.000000,165.000000,16.000000,7.000000,0.000000,0.000000:
0000
0000
0000
0000
,
0000
0000
0000
0000
,
0000
0000
0000
0000
,
0000
0000
0000
0000
,
1100
1100
0000
0000
,
0000
0000
0000
1100
,
0011
0011
0000
0000
,
0000
0000
0000
0010
,
0010
1000
0010
0000
,
1000
0001
1000
0000
,
0001
0010
0001
0000
,
1000
0001
1000
0000
,
0010
0100
0001
0000
,
1000
0010
1000
0000
,
0100
0000
0010
0000
,
0000
1001
0000
1001
0000
1001
0000
0000
,
1000
0001
1000
0001
,
1000
0010
1000
0010
,
1000
0001
1000
0001
,
0010
0001
0010
0001
,
1000
0010
1000
0100
,
0010
0001
0100
0001
,
0010
0010
0100
0100
,
1000
0010
1000
0001
,
0010
0010
0100
0100
,
1000
1000
0010
0010
,
0100
0001
0100
0001
,
1000
0010
1000
0010
,
1000
1000
0100
0100
,
0010
0010
0001
0000
,
1000
0010
1000
0000
,
0000
0110
0000
0110
0000
0110
0000
0000
,
0020
1000
0100
1030
,
0001
0001
0001
0000
,
0002
0010
0100
0013
,
0100
0100
0100
0000
,
2000
0010
0100
3010
,
1000
1000
1000
0000
,
1001
0000
1100
0000
,
1001
0000
0000
0000
,
0020
1000
0100
1030
,
0001
0001
0001
0000
,
0020
0100
1000
0130
,
0010
0010
0010
0000
,
0002
0100
0010
0103
,
0001
0001
0001
0000
,
1001
0000
1001
0000
,
0000
0000
0000
0000
,
0010
1000
0010
1000
,
0001
0100
0001
0100
,
0001
0010
0001
0010
,
0100
0010
0100
0010
,
0100
1000
0100
1000
,
0010
1000
0010
1000
,
0001
0000
0000
0000
1000
0000
1000
0002
,
0000
0000
0000
0000
0000
0000
0000
0003
;

//---------------dance-single - ----------------
#NOTES:
     dance-single:
     :
     Beginner:
     2:
     0.090685,0.118352,0.000000,0.000000,0.000000,59.000000,59.000000,0.000000,0.000000,0.000000,0.000000,0.090685,0.118352,0.000000,0.000000,0.000000,59.000000,59.000000,0.000000,0.000000,0.000000,0.000000:
0000
0000
0000
0000
,
0000
0000
0000
0000
,
0000
0000
0000
0000
,
0000
0000
0000
0000
,
0010
0010
0000
0000
,
0000
0000
0000
0001
,
1000
1000
0000
0000
,
0000
0000
0000
0000
,
0010
0000
0000
0000
,
1000
0000
0000
0000
,
0001
0000
0000
0000
,
0100
0000
0000
0000
,
0010
0000
0000
0000
,
1000
0000
0000
0000
,
0001
0000
0000
0000
,
0000
0000
0000
0000
,
0010
0000
0000
0000
,
1000
0000
0000
0000
,
0001
0000
0000
0000
,
1000
0000
0000
0000
,
0010
0000
0000
0000
,
1000
0000
0000
0000
,
0001
0000
0000
0000
,
0001
0000
0000
0000
,
0100
0000
0000
0000
,
1000
0000
0000
0000
,
0100
0000
0000
0000
,
0010
0000
0000
0000
,
0001
0000
0000
0000
,
0100
0000
0000
0000
,
0010
0000
0000
0000
,
0000
0000
0000
0000
,
1000
0000
0001
0000
,
1000
0000
0000
0000
,
0010
0000
0100
0000
,
0010
0000
0000
0000
,
1000
0000
0100
0000
,
1000
0000
0000
0000
,
0001
0000
0001
0000
,
0001
0000
0000
0000
,
0010
0000
1000
0000
,
0010
0000
0000
0000
,
0100
0000
0001
0000
,
0100
0000
0000
0000
,
0010
0000
1000
0000
,
0010
0000
0000
0000
,
0100
0000
0100
0000
,
0100
0000
0000
0000
,
1000
0000
0000
0000
,
0100
0000
0000
0000
,
0010
0000
0000
0000
,
0001
0000
0000
0000
,
1000
0000
0000
0000
,
0010
0000
0000
0000
,
0100
0000
0000
0000
,
0001
0000
0000
0000
;

//---------------dance-double - ----------------
#NOTES:
     dance-double:
     :
     Hard:
     13:
     0.485705,0.541057,0.258223,0.268982,0.096834,316.000000,292.000000,24.000000,25.000000,0.000000,0.000000,0.485705,0.541057,0.258223,0.268982,0.096834,316.000000,292.000000,24.000000,25.000000,0.000000,0.000000:
00000000
00000000
00000000
00000000
,
00000000
00000000
00000000
00000000
,
00000000
00000000
00000000
00000000
,
00000000
00000000
00000000
00000000
,
00101000
00101000
00000000
00000000
,
00000000
00000000
00000000
00101000
,
00011000
00011000
00000000
00000000
,
00000000
00000000
00000000
00000000
00000000
00010000
00010000
00000000
,
20010000
00000000
30100000
01000000
00002000
00000000
00103000
00001000
,
00010000
00000010
00000200
00000000
00000301
00000000
00000000
00000000
,
00001002
00000000
00000103
00000010
00002000
00000000
00003100
00010000
,
00001000
01000000
00200000
00000000
10300000
00000000
00000000
00000000
,
20010000
00000000
30100000
01000000
00002000
00000000
00103000
00001000
,
00010000
00000010
00002000
00000000
00003001
00000000
00000010
00000100
,
00001000
00000000
00000010
00000000
00001000
00000000
00000100
00010000
,
00000000
00011000
00000000
00011000
00000000
00011000
00000000
00000000
,
00001000
00100000
00001000
00010000
00001000
01000000
00001000
00000000
,
00010000
00000100
00010000
00001000
00010000
00000000
00000010
00000100
,
00000002
00000000
00001003
00000000
00000100
00010000
00001000
00100000
,
00001000
00010000
00000200
00000000
00001300
00000000
00000000
00000000
,
00001000
00000100
00000001
00000100
00001000
00000100
00010000
00001000
,
00010000
00000100
00020000
00000000
00031000
00000000
00110000
00000000
,
00010000
10000000
00010000
00100000
00001000
01000000
00001000
00100000
,
00010000
10000000
00010000
01000000
00001000
00010000
00000100
00000010
,
00000001
00000100
00000001
00000010
00000001
00001000
00000100
00000000
,
00000010
00000100
00020000
00000000
00031000
00000000
00000000
00000000
,
10000000
00010000
10000000
00100000
10000000
01000000
00100000
00010000
,
01000000
00001000
00020000
00000000
00031000
00000000
00000000
00000000
,
00000100
00001000
00000100
00000010
00000100
00000000
00010000
00000000
,
01000000
00100000
01000000
10000000
02000000
00000000
03100000
00000000
,
10010000
01010000
00110000
00000000
,
00000000
00011000
00000000
00011000
00000000
00011000
00000000
00000000
,
00010000
00000000
00000100
00000000
00010000
00000000
00001000
00000000
00100000
00010000
00100000
00000000
00001000
00000000
00000000
00000000
,
00100000
00000000
00010000
00000000
10000000
00000000
01000000
10000000
00000000
01000000
00100000
00000000
01000000
00000000
00000000
00000000
,
00100000
00000000
00010000
00000000
00100000
00000000
00001000
00000000
00010000
00000100
00010000
00000000
00001000
00000000
00010000
00000000
,
00000010
00000000
00000100
00000000
00000001
00000000
00001000
00000100
00000000
00010000
00001000
00000000
00010000
00000000
00000000
00000000
,
00001000
00000000
00100000
00000000
10000000
00000000
00100000
00000000
00010000
01000000
00010000
00000000
10000000
00000000
01000000
00000000
,
10000000
00000000
01000000
00000000
00100000
00000000
00001000
00010000
00000000
00000100
00001000
00000000
00000001
00000000
00000000
00000000
,
00000001
00000000
00000010
00000000
00000100
00000000
00010000
00001000
,
00000000
00011000
00000000
00011000
00000000
00011000
00000000
00000000
,
00001000
00000000
00100000
00000000
00001000
00000000
00010000
00000000
00000100
00001000
00000100
00000000
00010000
00000000
00000000
00000000
,
00000100
00000000
00001000
00000000
00000001
00000000
00000010
00000001
00000000
00000010
00000100
00000000
00000010
00000000
00000000
00000000
,
00000100
00000000
00001000
00000000
00000100
00000000
00010000
00000000
00001000
00100000
00001000
00000000
00010000
00000000
00001000
00000000
,
01000000
00000000
00100000
00000000
10000000
00000000
00010000
00100000
00000000
00001000
00010000
00000000
00001000
00000000
00000000
00000000
,
00010000
00000000
00000100
00000000
00000001
00000000
00000100
00000000
00001000
00000010
00001000
00000000
00000001
00000000
00000010
00000000
,
00000001
00000000
00000010
00000000
00000100
00000000
00010000
00001000
00000000
00100000
00010000
00000000
10000000
00000000
00000000
00000000
,
10000000
00000000
01000000
00000000
00100000
00000000
00010000
00002000
,
00000000
00000000
00000000
00000000
00000000
00010000
00013000
00000000
,
01001000
00000000
00100000
01000000
00002000
00000000
00103000
00001000
,
00010000
00000010
00000200
00000000
00000301
00000000
00000000
00000000
,
00001002
00000000
00000103
00000010
00002000
00000000
00003100
00010000
,
00001000
01000000
00200000
00000000
10300000
00000000
00000000
00000000
,
12000000
00000000
13000000
00010000
02000000
00000000
03010000
00100000
,
00001000
00100000
00020000
00000000
00130000
00000000
01000000
00000000
,
10000000
00000000
00010000
00000000
01000000
00000000
00001000
00020000
,
00000000
00000000
00000000
00000000
00000000
00000000
00000000
00030000
;

//---------------dance-double - ----------------
#NOTES:
     dance-double:
     :
     Medium:
     11:
     0.439594,0.510999,0.312019,0.225945,0.000000,286.000000,257.000000,29.000000,21.000000,0.000000,0.000000,0.439594,0.510999,0.312019,0.225945,0.000000,286.000000,257.000000,29.000000,21.000000,0.000000,0.000000:
00000000
00000000
00000000
00000000
,
00000000
00000000
00000000
00000000
,
00000000
00000000
00000000
00000000
,
00000000
00000000
00000000
00000000
,
00101000
00101000
00000000
00000000
,
00000000
00000000
00000000
00101000
,
00011000
00011000
00000000
00000000
,
00000000
00000000
00000000
00000000
00000000
00100000
00100000
00000000
,
10010000
00000000
01000000
00100000
00010000
00000000
00100000
00000000
,
00001000
00010000
00002000
00000000
00013000
00000000
00000000
00000000
,
00011000
00000000
00010000
00000010
00010000
00000000
00001000
00000000
,
00000100
00001000
00000200
00000000
00001300
00000000
00000000
00000000
,
00000011
00000000
00000100
00000001
00000100
00000000
00001000
00000000
,
00000010
00010000
00000020
00000000
00001030
00000000
00000000
00000000
,
00000010
00000000
00001000
00000000
00000100
00000000
00010000
00001000
,
00000000
00011000
00000000
00011000
00000000
00011000
00000000
00000000
,
20010000
00000000
30010000
01000000
00010000
00000000
10000000
00000000
,
00010000
00100000
00020000
00000000
00130000
00000000
00001000
00000000
,
00020000
00000000
00031000
00000000
00010000
00000100
00010000
00000010
,
00001000
00000001
00000200
00000000
00000301
00000000
00000000
00000000
,
00002010
00000000
00003100
00000010
00000001
00000000
00000010
00000100
,
00001000
00000100
00000020
00000000
00000130
00000000
00000000
00000000
,
00001000
00010000
00001000
00100000
00001000
00010000
00000010
00010000
,
00001000
01000000
00001000
00010000
00000100
00010000
00000010
00000000
,
00001002
00000000
00001003
00000010
00001000
00000000
00000001
00000000
,
00001000
00000100
00002000
00000000
00003100
00000000
00010000
00000000
,
00002000
00000000
00013000
00000000
00001000
00100000
00001000
01000000
,
00010000
10000000
00200000
00000000
10300000
00000000
00000000
00000000
,
01020000
00000000
00130000
01000000
10000000
00000000
01000000
00100000
,
00010000
00100000
02000000
00000000
03100000
00000000
00100000
00001000
,
00010000
00000000
00001000
00000000
00010000
00000000
00001000
00010000
,
00000000
00011000
00000000
00011000
00000000
00011000
00000000
00000000
,
00100000
00001000
00010000
00001000
00100000
00010000
00100000
00000000
,
01000000
10000000
00010000
01000000
00010000
00000000
10010000
00000000
,
01000000
00100000
00001000
00010000
00000100
00001000
00000100
00010000
,
00001000
00010000
00001000
00000000
00001100
00000000
00000000
00000000
,
00000100
00010000
00001000
00010000
00000100
00001000
00000100
00000000
,
00000010
00000001
00001000
00000010
00001000
00000000
00001001
00000000
,
00000010
00000100
00010000
00001000
00100000
00010000
00100000
00001000
,
00010000
00011000
00000000
00011000
00000000
00011000
00000000
00000000
,
00001000
00100000
00001000
01000000
00010000
01000000
00001000
00100000
,
00010000
00000100
00010000
00001000
00100000
00000000
00101000
00000000
,
00010000
00001000
00010000
00000100
00001000
00000100
00010000
00001000
,
00010000
00000010
00010000
00001000
00010000
00000000
00011000
00000000
,
00100000
00001000
00100000
00010000
01000000
00010000
00100000
00000000
,
00010000
10000000
00010000
10000000
01000000
00000000
00100000
00000000
,
00010000
00000000
00001000
00000000
00010000
00000000
00001000
00020000
,
00000000
00000000
00000000
00000000
00000000
00001000
00031000
00000000
,
01002000
00000000
00013000
00001000
00010000
00000000
00000010
00000000
,
00001000
00010000
00002000
00000000
00013000
00000000
00000000
00000000
,
00011000
00000000
00010000
00000010
00010000
00000000
00001000
00000000
,
00000100
00001000
00000200
00000000
00001300
00000000
00000000
00000000
,
00000011
00000000
00000100
00000001
00000100
00000000
00001000
00000000
,
00000010
00010000
00000020
00000000
00001030
00000000
00000000
00000000
,
00000010
00000000
00001000
00000000
00000100
00000000
00010000
00002000
,
00000000
00000000
00000000
00000000
00000000
00000000
00000000
00003000
;

//---------------dance-double - ----------------
#NOTES:
     dance-double:
     :
     Easy:
     7:
     0.324316,0.389889,0.150630,0.096834,0.000000,211.000000,197.000000,14.000000,9.000000,0.000000,0.000000,0.324316,0.389889,0.150630,0.096834,0.000000,211.000000,197.000000,14.000000,9.000000,0.000000,0.000000:
// measure 0
00000000
00000000
00000000
00000000
,  // measure 1
00000000
00000000
00000000
00000000
,  // measure 2
00000000
00000000
00000000
00000000
,  // measure 3
00000000
00000000
00000000
00000000
,  // measure 4
11000000
11000000
00000000
00000000
,  // measure 5
00000000
00000000
00000000
00001100
,  // measure 6
00000011
00000011
00000000
00000000
,  // measure 7
00000001
00000010
00000100
00000000
,  // measure 8
00010000
00001000
00010000
00000000
,  // measure 9
00010000
10000000
00010000
01000000
,  // measure 10
00100000
10000000
00010000
00000000
,  // measure 11
00010000
00000100
00010000
00001000
,  // measure 12
00010000
00000100
00010000
00000000
,  // measure 13
00001000
00000000
00000100
00000000
00000010
00000000
00000001
00000010
,  // measure 14
00000000
00001001
00000000
00001001
00000000
00001001
00000000
00000000
,  // measure 15
00000001
00000000
00001000
00000100
00001000
00000000
00000001
00000000
,  // measure 16
00001000
00000100
00001000
00000000
00000001
00000000
00000000
00000000
,  // measure 17
00001000
00000000
00000100
00000000
00010000
00001000
00010000
00000000
,  // measure 18
00001000
00010000
00001000
00000000
00010000
00000000
00000000
00000000
,  // measure 19
00010000
00100000
01000000
10000000
,  // measure 20
00010000
01000000
00010000
00000000
10000000
00000000
00000000
00000000
,  // measure 21
00010000
00100000
00001000
00010000
,  // measure 22
00001000
00000000
00001000
00000000
00010000
00001000
00010000
00000000
,  // measure 23
00010000
00000000
00010000
00000000
00001000
00010000
00001000
00010000
,  // measure 24
00001000
00100000
00010000
01000000
,  // measure 25
00100000
10000000
00100000
00000000
10000000
00000000
00000000
00000000
,  // measure 26
01000000
00000000
00100000
00000000
00010000
00100000
00010000
00000000
,  // measure 27
01000000
00100000
01000000
00000000
00010000
00000000
00000000
00000000
,  // measure 28
10000000
01000000
00100000
00001000
,  // measure 29
00010000
00001000
00010000
00000000
00001000
00000000
00010000
00000000
,  // measure 30
00000100
00000000
00010000
00000000
00001000
00000000
00010000
00002000
,  // measure 31
00000000
00010000
00000000
00010000
00000000
00010000
00003000
00000000
,  // measure 32
00012000
00010000
00010000
00103000
,  // measure 33
00100000
00010000
00100000
00010000
00100000
00000000
00000000
00000000
,  // measure 34
00021000
00001000
00001000
00030010
,  // measure 35
00001000
00000010
00001000
00000010
00001000
00000000
00000000
00000000
,  // measure 36
00021000
00001000
00001000
00030100
,  // measure 37
00001000
00000100
00001000
00000100
00001000
00000000
00000000
00000000
,  // measure 38
00000001
00000000
00000010
00000000
00000100
00000000
00000010
00000100
,  // measure 39
00000000
00000000
00000000
00000000
,  // measure 40
00012000
00010000
00010000
00103000
,  // measure 41
00100000
00010000
00100000
00010000
00100000
00000000
00000000
00000000
,  // measure 42
00021000
00001000
00001000
00030010
,  // measure 43
00001000
00000010
00001000
00000010
00001000
00000000
00000000
00000000
,  // measure 44
00021000
00001000
00001000
00030100
,  // measure 45
00001000
00000100
00001000
00000100
00001000
00000000
00000000
00000000
,  // measure 46
00000001
00000000
00000010
00000000
00000100
00000000
00000010
00000002
,  // measure 47
00000000
00000000
00000000
00000003
,  // measure 48
00000001
00000010
00000100
00000000
,  // measure 49
00010000
00001000
00010000
00000000
,  // measure 50
00010000
10000000
00010000
01000000
,  // measure 51
00100000
10000000
00010000
00000000
,  // measure 52
00010000
00000100
00010000
00001000
,  // measure 53
00010000
00000100
00010000
00000000
,  // measure 54
00001000
00000000
00000100
00000000
00000010
00000000
00000001
00000020
,  // measure 55
00000000
00000000
00000000
00000030
;
