#TITLE:I Turn to You (Hex Hector Radio Mix);
#SUBTITLE:;
#ARTIST:MELANIE C;
#TITLETRANSLIT:;
#SUBTITLETRANSLIT:;
#ARTISTTRANSLIT:;
#GENRE:;
#CREDIT:;
#BANNER:I Turn to You (Hex Hector Radio Mix).png;
#BACKGROUND:I Turn to You (Hex Hector Radio Mix)-bg.png;
#LYRICSPATH:;
#CDTITLE:;
#MUSIC:I Turn to You (Hex Hector Radio Mix).ogg;
#OFFSET:0.000000;
#SAMPLESTART:56.083000;
#SAMPLELENGTH:20.640003;
#SELECTABLE:YES;
#DISPLAYBPM:138.000000;
#BPMS:0.000000=138.000000
;
#STOPS:
;
#BGCHANGES:0.000=I Turn to You (Hex Hector Radio Mix).avi=1.000=0=0=0=StretchNoLoop====,
99999=-nosongbg-=1.000=0=0=0 // don't automatically add -songbackground-
;
#KEYSOUNDS:;
#ATTACKS:;

//---------------dance-single - ----------------
#NOTES:
     dance-single:
     :
     Beginner:
     2:
     0.157211,0.218512,0.023751,0.000000,0.000000,139.000000,136.000000,3.000000,0.000000,0.000000,0.000000,0.157211,0.218512,0.023751,0.000000,0.000000,139.000000,136.000000,3.000000,0.000000,0.000000,0.000000:
// measure 0
0000
0000
0000
0000
,  // measure 1
0000
0000
0000
0000
,  // measure 2
0000
0000
0000
0000
,  // measure 3
0000
0000
0000
0000
,  // measure 4
0000
0000
0000
0000
,  // measure 5
1000
0000
0000
0000
,  // measure 6
0001
0000
0000
0000
,  // measure 7
0100
0000
0000
0000
,  // measure 8
0010
0000
0000
0000
,  // measure 9
1000
1000
1000
0000
,  // measure 10
0001
0001
0001
0000
,  // measure 11
0100
0100
0100
0000
,  // measure 12
0010
0010
0010
0000
,  // measure 13
1000
0000
1000
0000
,  // measure 14
0001
0000
0001
0000
,  // measure 15
0100
0000
0010
0000
,  // measure 16
0100
0000
0010
0000
,  // measure 17
1000
0000
1000
0000
,  // measure 18
0100
0000
0100
0000
,  // measure 19
0001
0000
0001
0000
,  // measure 20
0010
0000
0010
0000
,  // measure 21
1000
1000
1000
0000
,  // measure 22
0100
0100
0100
0000
,  // measure 23
0001
0001
0001
0000
,  // measure 24
0010
0010
0010
0000
,  // measure 25
1000
1000
1000
0000
,  // measure 26
0001
0001
0001
0000
,  // measure 27
0100
0000
0000
0000
,  // measure 28
0010
0000
0000
0000
,  // measure 29
1000
0000
0001
0000
,  // measure 30
0100
0000
0001
0000
,  // measure 31
0010
0010
0010
0000
,  // measure 32
0100
0000
0100
0000
,  // measure 33
0010
0000
0001
0000
,  // measure 34
0100
0000
0001
0000
,  // measure 35
1000
0000
1000
0000
,  // measure 36
0010
0000
0100
0000
,  // measure 37
0001
0001
0001
0000
,  // measure 38
0100
0100
0100
0000
,  // measure 39
1000
1000
1000
0000
,  // measure 40
0010
0010
0010
0000
,  // measure 41
0001
0000
0010
0000
,  // measure 42
0001
0000
1000
0000
,  // measure 43
0100
0000
0100
0000
,  // measure 44
1000
0000
0010
0000
,  // measure 45
0100
0000
0010
0000
,  // measure 46
0100
0000
0010
0000
,  // measure 47
0100
0000
0001
0000
,  // measure 48
1000
0000
0100
0100
,  // measure 49
0100
0000
0010
0000
,  // measure 50
0001
0000
1000
0000
,  // measure 51
0001
0001
0001
0000
,  // measure 52
1000
1000
1000
0000
,  // measure 53
0010
0000
0000
0000
,  // measure 54
0100
0000
0010
0000
,  // measure 55
0100
0000
0100
0000
,  // measure 56
0001
0000
0010
0000
,  // measure 57
0100
0100
0100
0000
,  // measure 58
1000
1000
1000
0000
,  // measure 59
0110
0000
0000
0000
,  // measure 60
0101
0000
0000
0000
,  // measure 61
0001
0000
0010
0000
,  // measure 62
0100
0000
1000
0000
,  // measure 63
0001
0001
0001
0000
,  // measure 64
1000
1000
1000
0000
,  // measure 65
0010
0000
0000
0000
,  // measure 66
0000
0000
0000
0000
,  // measure 67
0100
0000
0000
0000
,  // measure 68
0000
0000
0000
0000
,  // measure 69
1001
0000
0000
0000
;

//---------------dance-single - ----------------
#NOTES:
     dance-single:
     :
     Easy:
     4:
     0.183224,0.273140,0.071254,0.126673,0.000000,162.000000,153.000000,9.000000,16.000000,0.000000,0.000000,0.183224,0.273140,0.071254,0.126673,0.000000,162.000000,153.000000,9.000000,16.000000,0.000000,0.000000:
0000
0000
0000
0000
,
0000
0000
0000
0000
,
0000
0000
0000
0000
,
0000
0000
0000
0000
,
0000
0000
0000
0000
,
2000
3000
0000
0000
,
0002
0003
0000
0000
,
0200
0300
0000
0000
,
0020
0030
0000
0000
,
1000
1000
1000
0000
,
0001
0001
0001
0000
,
0100
0100
0100
0000
,
0010
0010
0010
0000
,
1000
0000
1000
0000
,
0001
0000
0001
0000
,
0100
0000
0010
0000
,
0100
0000
0010
0000
,
1000
0000
0001
0000
,
1000
0000
1000
0000
,
0010
0000
0100
0000
,
0001
0000
0001
0000
,
0010
0100
1000
0000
,
1000
0010
0100
0000
,
0001
0001
1000
0000
,
1000
1000
0001
0000
,
0100
0100
0101
0000
,
0010
0010
1010
0000
,
1000
1000
1100
0000
,
0010
0010
0011
0000
,
0001
1000
0001
0000
,
0001
0100
0010
0000
,
0220
0000
0000
0330
,
2002
0000
0000
3003
,
0001
0100
0010
0000
,
0010
1000
0100
0000
,
1000
1000
0001
0000
,
1000
1000
0001
0000
,
0001
0100
0010
0000
,
0010
1000
0100
0000
,
1000
1000
0001
0001
,
2000
0000
0010
3100
,
0100
0010
0001
0000
,
0001
0100
0010
0000
,
0010
1000
0100
0000
,
1000
1000
0001
0000
,
0002
0000
0100
0000
,
0010
0000
1000
0003
,
0100
0000
0100
0000
,
0010
0000
0010
0000
,
1001
0000
0110
0000
,
0010
1000
0100
0000
,
1000
1000
0001
0000
,
0001
0001
1000
0000
,
0010
0100
0001
0000
,
0010
0100
1000
0000
,
2000
0000
3001
0000
,
0002
0000
1003
0000
,
1000
0010
0100
0000
,
0001
0010
0100
0000
,
0010
0001
0100
0000
,
0010
0010
1000
0000
,
0200
0000
1000
0000
,
0010
0000
0301
0000
,
0002
0000
1000
0000
,
0010
0000
0103
0000
,
0200
0000
0000
0000
,
0000
0000
0000
0300
,
0002
0000
0000
0000
,
0000
0000
0000
0003
,
1001
0000
0000
0000
;

//---------------dance-single - ----------------
#NOTES:
     dance-single:
     :
     Medium:
     10:
     0.352876,0.464337,0.055420,0.205844,0.047503,312.000000,305.000000,7.000000,26.000000,0.000000,0.000000,0.352876,0.464337,0.055420,0.205844,0.047503,312.000000,305.000000,7.000000,26.000000,0.000000,0.000000:
0000
0000
0000
0000
,
0000
0000
0000
0000
,
0000
0000
0000
0000
,
0000
0000
0000
0000
,
0000
0000
0000
0000
,
0020
0000
0000
0030
,
0200
0000
0000
0300
,
0020
0000
0000
0030
,
0200
0000
0000
0300
,
1000
0000
0000
0100
0000
0000
0010
0000
0001
0000
0000
0100
0000
0000
0010
0000
,
1000
0000
0001
0100
0001
0000
1000
0100
,
0010
0000
0000
0001
0000
0000
0100
0000
0010
0000
0000
1000
0000
0000
0100
0000
,
0010
0000
0001
1000
0010
0000
1000
0001
,
0100
0000
0000
0010
0000
0000
0010
0000
1000
0000
0000
0100
0000
0000
0100
0000
,
0010
0000
0000
0001
0000
0000
0001
0000
0100
0000
0000
1000
0000
0000
1000
0000
,
0001
0000
0000
0010
0000
0000
0010
0000
0100
0000
0000
0001
0000
0000
0001
0000
,
1000
0000
0000
0010
0000
0000
0010
0000
0001
0000
0000
0010
0000
0000
0100
0000
,
1000
1000
0001
0001
,
0010
0010
0100
0100
,
0010
0001
0010
0000
0001
0100
0001
0000
,
1000
0010
1000
0000
0010
0100
0010
0000
,
0000
0010
0100
0001
0000
0001
0010
0001
,
0010
0100
0000
0100
0010
0001
0000
0001
,
1000
0001
0000
0001
0000
0100
0000
0100
,
0000
0010
0000
0010
0000
1000
0000
1000
,
1010
0000
1100
0000
0010
0001
0100
0000
,
0010
1000
0100
0000
0100
1000
0001
0000
,
0002
0000
0103
0000
0010
1000
0100
0000
,
2000
0000
3001
0000
0001
0010
0100
0000
,
0010
0001
0010
0000
0100
1000
0100
0000
,
1000
0010
0100
0000
0001
0010
0001
0000
,
0001
0100
1000
0100
0001
0000
0001
0000
,
0020
0000
0100
0130
,
1000
0100
1000
0000
0010
0100
0001
0000
,
0001
0010
0100
1000
0001
0001
1000
0000
,
0001
0001
1000
0000
0001
0001
1000
0000
,
2000
0010
0100
3001
,
0001
0100
0010
0000
0010
1000
0100
0000
,
0100
1000
0001
1000
0002
0000
0013
0000
,
0100
1000
0001
0000
0001
0100
0010
0000
,
1000
0100
0001
0010
,
1000
0000
1000
0000
0001
0100
0001
0000
,
0001
0010
0100
1000
0001
0001
1000
0000
,
0002
0000
0103
0000
0001
0001
0100
0000
,
0010
1000
0100
1000
,
0002
0010
1000
0103
,
0200
0010
1000
0301
,
0020
0000
2000
3000
,
0200
0300
0002
0033
,
0010
0000
0011
0000
0001
0010
0100
0000
,
0100
0010
0001
1000
0010
0100
0001
0000
,
2000
3001
0002
1003
,
0100
0000
1000
0000
0010
0100
0001
0000
,
0010
0010
0100
0100
,
0010
0001
1000
0000
0001
0000
1000
0000
,
1010
0100
0110
0001
,
0201
0010
1000
0301
,
0001
0010
0001
0000
1000
0100
1000
0000
,
0010
0100
0001
0010
0001
0001
1000
0000
,
2000
3100
2000
3001
,
2000
0000
3010
0000
0010
0100
0001
0010
,
0001
1000
0010
0100
0001
0010
0001
1000
,
0010
0100
0001
0010
0100
1000
0010
0100
,
0001
0001
1000
1000
0001
0001
1000
1000
,
0200
0000
0010
0310
,
0002
0000
0000
0000
,
0200
0000
0000
0003
,
0020
0000
0000
0000
,
0000
0000
0000
0330
,
1001
0000
0000
0000
;

//---------------dance-single - ----------------
#NOTES:
     dance-single:
     :
     Hard:
     13:
     0.523659,0.737477,0.063337,0.079171,0.237513,463.000000,455.000000,8.000000,10.000000,0.000000,0.000000,0.523659,0.737477,0.063337,0.079171,0.237513,463.000000,455.000000,8.000000,10.000000,0.000000,0.000000:
0000
0000
0000
0000
,
0000
0000
0000
0000
,
0000
0000
0000
0000
,
0000
0000
0000
0000
,
0000
0000
0000
0000
,
1000
0100
2000
0000
0000
0000
0000
0000
0000
0000
0000
0000
3000
0000
0000
0000
,
0001
0100
0002
0000
0000
0000
0000
0000
0000
0000
0000
0000
0003
0000
0000
0000
,
1000
0010
1000
0000
0000
0000
0000
0000
0001
0010
0001
0000
0000
0000
0000
0000
,
0100
0001
0100
0000
0001
0010
0001
0000
0100
0001
0100
0000
0010
1000
0100
0000
,
1000
0000
0000
0100
0000
0010
0001
0000
0100
0000
0000
0010
0000
1000
0100
0000
,
0010
0001
0100
0010
1000
0001
0010
0100
,
1000
0000
0000
0010
0000
0100
0001
0000
0010
0000
0000
0100
0000
1000
0001
0000
,
0100
0010
1000
0100
0010
0001
1000
0010
,
0100
0000
0000
0001
0000
1000
0010
0000
0100
0000
0000
0001
0000
0010
0100
0000
,
1000
0000
0000
0001
0000
0010
0100
0000
1000
0000
0000
0010
0000
0100
0001
0000
,
0010
0000
0000
0100
0000
1000
0010
0000
0100
0000
0000
0001
0000
0010
0100
0000
,
1000
0000
0000
0001
0000
0100
0010
0000
1000
0000
0000
0100
0000
0010
0100
0000
,
1000
0000
1000
0000
0010
0100
0001
0000
,
0010
0001
0100
0000
0001
0010
0100
0000
,
0020
0001
0000
0001
0000
0001
0000
0001
,
0000
0100
0000
0100
0000
0100
0000
0130
,
0000
0010
0001
0100
0000
0001
1000
0010
,
0000
0010
0100
0010
0000
0010
0100
0001
,
0010
0001
1000
0010
0100
0001
0001
0010
,
0001
1000
0010
0100
0010
1000
1000
0001
,
1000
1000
1010
0000
1000
1000
1100
0000
,
0010
0010
0011
0000
0001
0001
0101
0000
,
0001
0100
1000
0100
0001
0100
1000
0100
,
0001
0010
1000
0010
0001
0010
1000
0010
,
0001
0001
0100
0000
0100
0100
0010
0000
,
0010
0010
1000
0000
1000
1000
0100
0000
,
0010
0010
0001
1000
0001
0001
0100
0000
,
0120
0000
0000
0000
0130
0000
0000
0000
0001
1000
0001
1000
0001
1000
0001
0000
,
0010
0001
0100
0010
1000
0100
1000
1000
,
0001
0010
0100
1000
0010
0100
0001
0001
,
0100
0100
0010
0000
0100
0100
0010
0000
,
0010
0010
0100
0000
0010
0010
0100
0000
,
0100
0001
0010
0100
1000
0010
1000
0100
,
1000
1000
0001
0001
1000
0010
0100
0001
,
0010
0001
0010
0000
0010
0001
0010
0000
,
0001
0001
1000
0100
0001
0010
1000
0001
,
1000
1000
0001
0000
1000
1000
0001
0000
,
0001
0100
0010
1000
0100
0010
0001
1000
,
0100
0010
0001
0100
0001
0001
0100
0100
,
0010
1000
0100
0010
0100
0100
1000
1000
,
0001
0001
1000
0000
0001
0001
1000
0000
,
1000
1000
0001
0000
1000
1000
0001
0000
,
0001
0100
0001
0000
0001
0010
0001
0000
1000
0010
1000
0000
0010
0100
0010
0000
,
0100
0010
1000
0000
1000
0100
0010
0000
0010
0100
0010
0100
0010
0100
0010
0100
,
0010
0000
0011
0000
0001
0001
0101
0000
,
0100
0010
1000
0000
0100
0000
1000
0000
0010
0000
0100
0000
0001
0000
0010
0000
,
0001
0010
0100
0000
0010
0000
0001
0000
0100
0001
0010
0000
0100
0000
0010
0000
,
0001
1000
0001
0000
0010
0000
0100
0000
1000
0010
0100
0000
0001
0000
0001
0000
,
0010
0100
1000
0010
0001
0010
1000
0000
,
1000
0000
0100
0000
0001
0000
0100
0000
1000
0000
0010
0000
0100
0000
0010
0100
,
0010
0000
0100
0000
0000
0000
0100
0000
0000
0000
0100
0000
0000
0000
0001
0100
,
0001
1000
0001
0010
1000
0100
0001
1000
,
0001
1000
0001
0000
0001
0000
0001
0000
0100
0010
0100
0000
0010
0000
0010
0000
,
1000
0100
1000
0000
1000
0001
1000
0000
0001
0100
0010
0000
0010
0100
0001
0000
,
0001
0000
1000
0000
0000
0000
1000
0000
0000
0000
1000
0000
0000
0000
1000
0001
,
0010
0001
0000
0001
0000
0001
0000
0001
,
1000
0010
0100
0001
0010
0010
0001
0001
,
1000
0100
0010
0001
0100
0010
1000
0100
,
1000
1000
0001
0001
0100
0100
0010
0010
,
0100
0000
0001
0000
0010
0000
0100
0000
1000
0000
0010
0000
0100
0010
0100
0000
,
0002
0000
0020
0003
,
0200
0000
0030
2000
0300
0000
3020
0000
,
0200
0000
0000
0000
,
0000
0000
0000
0330
,
1001
0000
0000
0000
;

//---------------dance-double - ----------------
#NOTES:
     dance-double:
     :
     Easy:
     5:
     0.212630,0.245826,0.023751,0.197927,0.000000,188.000000,185.000000,3.000000,25.000000,0.000000,0.000000,0.212630,0.245826,0.023751,0.197927,0.000000,188.000000,185.000000,3.000000,25.000000,0.000000,0.000000:
00000000
00000000
00000000
00000000
,
00000000
00000000
00000000
00000000
,
00000000
00000000
00000000
00000000
,
00000000
00000000
00000000
00000000
,
00000000
00000000
00000000
00000000
,
20000000
00000000
30000000
00000000
,
02000000
00000000
03000000
00000000
,
00020000
00000000
00030000
00000000
,
00002000
00000000
00003000
00000000
,
00000100
00000001
00000100
00000001
,
00001000
00000010
00000001
00000010
,
00000100
00010000
00000100
00010000
,
00001000
00000010
00010000
00100000
,
10000000
01000000
00100000
00000000
,
00010000
01000000
00100000
00000000
,
10000000
01000000
00100000
00000000
,
00001000
00010000
00001000
00010000
,
00100000
10000000
01000000
00000000
,
01000000
01000000
00010000
00000000
,
02000000
00000000
03100000
00000000
,
00020000
00000000
00030100
00000000
,
00000010
00000001
00000010
00000010
,
00000001
00001000
00000010
00000010
,
00000200
00000000
00000310
00000000
,
00000020
00000000
00001030
00000000
,
00000010
00000010
00000010
00000000
,
00001000
00001000
00001000
00000000
,
00010000
00010000
00010000
00000000
,
00100000
00100000
00100000
00000000
,
01000000
10000000
00100000
00100000
,
01000000
00010000
00001000
00001000
,
00000010
00000100
00000001
00000010
,
00000200
00000000
00001000
00001300
,
00000100
00010000
00001000
00000000
,
00001000
01000000
00100000
00000000
,
00100000
10000000
01000000
00000000
,
00100000
00010000
01000000
00000000
,
00001000
00001000
00001000
00000000
,
00010000
00010000
00000100
00000010
,
00000001
00000001
00001000
00001000
,
00000001
00001000
00010000
10000000
,
02000000
00000000
03100000
00000000
,
00010000
01000000
00001000
00000000
,
00020000
00001000
00031000
00000000
,
00000100
00000001
00000010
00000000
,
00000200
00000000
00001300
00000000
,
00020000
00000000
00130000
00000000
,
00001000
00001000
00010000
00010000
,
00001000
00001000
00022000
00033000
,
00001000
00000100
00000001
00000010
,
00000100
00000010
00000001
00000001
,
00001000
10000000
01000000
00010000
,
00100000
00100000
00001000
00000000
,
01000000
01000000
00010000
00010000
,
00100000
00100000
00001000
00001000
,
00000100
00000100
00000001
00000001
,
00000010
00000010
00000200
00000300
,
00001000
00000010
00010000
00000000
,
00010000
00000100
01000000
00000000
,
01000000
00010000
00100000
00000000
,
00100000
01000000
10000000
00000000
,
00020000
00030000
02000000
03000000
,
00002000
00003000
00000020
00000030
,
00000200
00001000
00001000
00001300
,
00020020
00000000
00000000
00030030
,
00200000
00000000
00000000
00000000
,
00000000
00000000
00000000
00300000
,
00000200
00000000
00000000
00000000
,
00000000
00000000
00000000
00000300
,
00011000
00000000
00000000
00000000
;

//---------------dance-double - ----------------
#NOTES:
     dance-double:
     :
     Medium:
     8:
     0.289539,0.382396,0.063337,0.110839,0.000000,256.000000,248.000000,8.000000,14.000000,0.000000,0.000000,0.289539,0.382396,0.063337,0.110839,0.000000,256.000000,248.000000,8.000000,14.000000,0.000000,0.000000:
00000000
00000000
00000000
00000000
,
00000000
00000000
00000000
00000000
,
00000000
00000000
00000000
00000000
,
00000000
00000000
00000000
00000000
,
00000000
00000000
00000000
00000000
,
00000001
00000001
00000001
00000000
,
00001000
00001000
00001000
00000000
,
00000100
00000100
00000100
00000000
,
00010000
00010000
00020000
00030000
,
00001000
00000010
00000001
00000100
,
00001000
00010000
01000000
10000000
,
00010000
01000000
10000000
01000000
,
00010000
00100000
01000000
00100000
,
00001000
01000000
00010000
01000000
,
10000000
01000000
00010000
00010000
,
10000000
01000000
00010000
00001000
,
00000100
00000001
00001000
00000001
,
00000020
00000030
00010000
00000000
,
00200000
00300000
10000000
00000000
,
02000000
03000000
00010000
00000000
,
00002000
00000000
00003000
00000000
00000100
00001000
00000100
00001000
,
00000100
00010000
00000000
00010000
00000000
00001000
00000000
00001000
,
00000000
00100000
00000000
00100000
00000000
10000000
00000000
10000000
,
00000000
00100000
00000000
00010000
00000000
01000000
00000000
01000000
,
00000000
00100000
00000000
00100000
00000000
10000000
01000000
00100000
,
00010000
00110000
00010000
01010000
,
01000000
00001000
00000010
00000000
00000010
00000001
00000010
00000000
,
00000002
00000100
00000100
00000103
,
00002000
00010000
00010000
00013000
,
00100000
10000000
01000000
01000000
,
00100000
00001000
01000000
01000000
,
00010000
00100000
00001000
00001000
,
00020000
00000000
00030100
00000000
00000010
00000001
00000010
00000000
,
00000010
00000000
00000001
00000000
00001000
00000000
00000010
00000100
,
00001000
00000000
00010000
00000000
01000000
00000000
10000000
00010000
,
01000000
00000000
00100000
00000000
00010000
00000000
00001000
00000010
,
00000001
00001000
00000001
00001000
,
00000100
00000000
00010000
00000000
00100000
00000000
10000000
01000000
,
00010000
00000000
00001000
00000000
00000100
00000000
00000001
00000010
,
00000100
00010000
00001000
00100000
,
01000000
00000000
10000000
00000000
00100000
00000000
00010000
00001000
,
00000010
00000000
00000001
00000000
00001000
00000010
00000100
00000000
,
00001000
00010000
01000000
10000000
,
00010000
01000000
10000000
01000000
,
00010000
01000000
10000000
01000000
,
00010000
00001000
00000100
00000001
,
00000100
00000100
00000100
00001001
,
00000100
00010000
01000000
10000000
,
00010000
00000000
00100000
00000000
01000000
00000000
10000000
00010000
,
10000000
00010000
01010000
01010000
,
01000000
00001000
00000010
00000001
,
00000001
00001000
00000001
00000000
00000001
00001000
00000001
00000000
,
00000200
00000000
00000010
00000310
,
00000010
00001000
00010000
00100000
,
00100000
00010000
00001000
00000010
,
00000010
00000001
00000010
00000000
00000011
00000000
00000000
00000000
,
00001000
00000010
00001000
00000000
00001010
00000000
00000000
00000000
,
00020000
00130000
20000000
31000000
,
00100000
00001000
00010000
00000000
,
00000100
00000100
00000100
00000000
00010000
00000000
00000000
00000000
,
00001000
00001000
00001000
00000000
01000000
00000000
00000000
00000000
,
00100000
10000000
01000000
01000000
,
00001000
00000010
00000100
00000100
,
00000001
00001000
00010000
10000000
,
10000000
00010000
00001000
00000001
,
00000020
00000000
00000000
00000000
,
00002000
00000000
00000000
00000030
,
00200000
00000000
00000000
00000000
,
00000000
00000000
00000000
00303000
,
01000100
00000000
00000000
00000000
;

//---------------dance-double - ----------------
#NOTES:
     dance-double:
     :
     Hard:
     12:
     0.488598,0.491651,0.102922,0.190010,0.003959,432.000000,419.000000,13.000000,24.000000,0.000000,0.000000,0.488598,0.491651,0.102922,0.190010,0.003959,432.000000,419.000000,13.000000,24.000000,0.000000,0.000000:
00000000
00000000
00000000
00000000
,
00000000
00000000
00000000
00000000
,
00000000
00000000
00000000
00000000
,
00000000
00000000
00000000
00000000
,
00000000
00000000
00000000
00000000
,
00001000
00001000
00001000
00001000
,
00000100
00000100
00000100
00000100
,
00010000
00010000
00010000
00010000
,
01000000
01000000
01000000
01000000
,
10000000
00100000
01000000
00010000
00100000
01000000
00010000
01000000
,
00010000
00001000
00000100
00000001
00000100
00000010
00001000
00000100
,
00000010
00000001
00000100
00000010
00001000
00000100
00000010
00000001
,
00000100
00001000
00010000
01000000
00010000
00001000
00000100
00000001
,
00001000
00000100
00010000
00000100
00001000
00000010
00000100
00001000
,
00010000
00100000
10000000
01000000
00100000
00010000
01000000
00001000
,
00010000
00000100
00000010
00000001
00000100
00000010
00001000
00000001
,
00000010
00000100
00010000
00001000
00100000
00010000
10000000
10000000
,
00020000
00000000
01030000
00000000
00010000
00010000
01000000
00000000
,
00000200
00000000
00001300
00000000
00000100
00000100
00001000
00000000
,
00000001
00000100
00000010
00000000
00000001
00000100
00000010
00000000
,
00001000
00010000
00100000
00000000
00100000
01000000
10000000
00000000
,
10000000
00010000
10000000
00000000
00010000
00100000
00010000
00000000
,
00000010
00000001
00000010
00000000
00000001
00000100
00000001
00000000
,
00000010
00000100
00001000
00010000
00100000
01000000
10000000
10000000
,
00100000
01000000
00010000
00001000
00000010
00000100
00000001
00000001
,
00000010
00000010
00000010
00000010
00000020
00000030
00000100
00001000
,
00000010
00000010
00000010
00000010
00000020
00000030
00010000
00001000
,
01000000
01000000
01000000
01000000
02000000
03000000
00010000
00100000
,
01000000
01000000
01000000
01000000
02000000
03000000
10000000
00100000
,
01000000
00010000
00100000
01000000
20000000
30000000
00010000
00100000
,
00001000
00010000
00000100
00000010
00000002
00000003
00000100
00000010
,
00001000
00000100
00000010
00000001
00002000
00003000
00000010
00000100
,
00000001
00000010
00001000
00010000
00100000
10000000
01000000
00100000
,
00100000
01000000
10000000
01000000
00200000
00300000
00010000
01000000
,
00100000
00010000
00001000
00000010
00000002
00000003
00001000
00000010
,
00000100
00000001
00001000
00000100
00000020
00000030
00000001
00000100
,
00000010
00001000
00000100
00010000
00002000
00003000
00100000
00010000
,
01000000
00100000
10000000
01000000
00200000
00300000
00010000
01000000
,
00001000
00010000
01000000
00010000
00002000
00003000
00000100
00000001
,
00000010
00000100
00001000
00000010
00000200
00000300
00000001
00000010
,
00000100
00010000
00000010
00000100
00002000
00003000
00020000
00030000
,
00100000
10000000
01000000
00100000
00010000
01000000
01010000
00000000
,
00100000
10000000
01000000
00010000
00001000
00000100
00000101
00000000
,
00001000
00000100
00000010
00000001
00000100
00000010
00001001
00000000
,
00000100
00000010
00001000
00000100
00010000
00001000
00011000
00000000
,
00100000
01000000
10000000
00010000
01000000
00100000
10010000
00000000
,
01000000
00010000
00001000
00000100
00001000
00010000
00011000
00000000
,
00000010
00000100
00000001
00000010
00000100
00001000
00000001
00000100
,
00000010
00001000
00000100
00000010
00001000
00010000
00100000
10000000
,
10000000
10000000
10100000
00000000
00010000
00010000
00110000
00000000
,
00001000
00001000
00011000
00000000
00000100
00000100
00000101
00000000
,
00000001
00000000
00000010
00000000
00000100
00000000
00000010
00000000
00000001
00000000
00000001
00000000
00001000
00000000
00000010
00001000
,
00000010
00000000
00000100
00010000
00100000
01000000
10000000
00010000
,
00010000
00010000
10000000
00000000
10000000
10000000
00001000
00000000
,
00001000
00000010
00000001
00000000
00000001
00000010
00001000
00000000
,
00010000
00100000
00001000
00000000
00001000
00000010
00000100
00000000
,
00000001
00000010
00000001
00000001
00001000
00010000
00100000
01000000
,
00100000
00010000
01000000
00001000
00010000
00001000
00000010
00000001
,
00000010
00000001
00001000
00010000
10000000
00010000
00001000
00000001
,
00000001
00000001
00001000
00000000
00000001
00000001
00001000
00000000
,
00010000
00010000
10000000
00000000
00010000
00010000
00000010
00000000
,
00000100
00000010
00000001
00001000
00000010
00000100
00001001
00000000
,
00000010
00001000
00010000
00100000
00010000
00001000
00011000
00000000
,
01000000
00100000
10000000
01000000
00100000
00010000
10000000
00100000
,
01000000
00010000
00100000
01000000
00010000
00001000
00000100
00000001
,
00000200
00000000
00000020
00000300
,
00020000
00000000
00000030
00200000
00030000
00000000
02300000
00000000
,
00002000
00000000
00000000
00000000
,
00000000
00000000
00000000
03003000
,
00100010
00000000
00000000
00000000
;
