#TITLE:I Fly;
#SUBTITLE:;
#ARTIST:Galantis ft. Faouzia;
#TITLETRANSLIT:;
#SUBTITLETRANSLIT:;
#ARTISTTRANSLIT:;
#GENRE:;
#CREDIT:;
#BANNER:I Fly-bn.jpg;
#BACKGROUND:I Fly-bg.jpg;
#LYRICSPATH:;
#CDTITLE:;
#MUSIC:Galantis - I Fly (feat. Faouzia) (Edit).mp3;
#OFFSET:-0.085;
#SAMPLESTART:35.281;
#SAMPLELENGTH:15.000;
#SELECTABLE:YES;
#BPMS:0.000=114.000
;
#STOPS:64.000=0.263,
64.500=0.263,
127.000=3.684
;
#BGCHANGES:;
#KEYSOUNDS:;
#ATTACKS:;

//---------------dance-single - D4rkFl4m1n90----------------
#NOTES:
     dance-single:
     D4rkFl4m1n90:
     Hard:
     11:
     0.407,0.437,0.210,0.119,0.306,276.000,23.000,13.000,0.000,0.000,0.000,0.407,0.437,0.210,0.119,0.306,276.000,23.000,13.000,0.000,0.000,0.000: // measure 0
0000
0000
0000
0000
,  // measure 1
0000
0000
0000
0000
,  // measure 2
0000
0000
0000
0000
,  // measure 3
0000
0000
0000
0000
,  // measure 4
0000
0000
0000
0000
,  // measure 5
1002
0000
0000
0000
0103
0000
0000
1000
0000
0000
0010
0000
0000
0100
0000
0000
,  // measure 6
1000
0000
0000
0000
0001
0000
0000
0010
0000
0000
0100
0000
0000
0001
0000
0000
,  // measure 7
0210
0000
0000
0000
1300
0000
0000
0001
0000
0000
0010
0000
0000
1000
0000
0000
,  // measure 8
0100
0000
0000
0000
1000
0000
0000
0001
0000
0000
0000
0100
0000
0000
0010
0000
,  // measure 9
0201
0000
1300
0000
0010
1000
0001
0000
,  // measure 10
1200
0000
0301
0000
1000
0001
0010
0000
,  // measure 11
2010
0000
3001
0000
1000
0100
0001
0000
,  // measure 12
0020
0000
0130
0000
1000
0010
0001
0000
,  // measure 13
2001
0100
0001
3100
,  // measure 14
0012
1000
0100
1003
,  // measure 15
0210
0001
0010
1000
0010
0001
0310
0000
,  // measure 16
1001
0000
1100
0000
0011
0000
0000
0100
1000
0000
0001
0000
0100
0000
0000
0100
,  // measure 17
0010
0000
1000
0001
0000
1000
0000
0100
0000
0000
1000
0000
0001
0000
0010
0001
,  // measure 18
0000
0000
1000
0000
0000
0000
0100
0000
0110
0000
1000
0000
0001
0000
0100
0001
,  // measure 19
0000
0000
1000
0000
0010
0000
0001
0000
1000
0100
0000
0001
0000
0000
0001
0010
,  // measure 20
0000
0000
0010
0000
1000
0000
0010
0001
0000
0000
0010
0000
1000
0000
0000
1000
,  // measure 21
0100
0000
0100
0001
0000
0100
0000
1000
0000
0000
0001
0000
0010
0000
0100
1000
,  // measure 22
0000
0000
0001
0000
0000
0000
1000
0000
0100
1000
0000
0000
0010
0000
0010
0100
,  // measure 23
0000
0000
0010
0000
1000
0000
0001
0000
1000
0100
0000
1000
0000
0000
0001
0010
,  // measure 24
0000
0000
0001
0000
0100
0000
0100
1000
0000
0000
0001
0000
1001
0000
0000
0000
,  // measure 25
0100
0000
0000
0001
0000
0000
0100
0000
0000
1000
0000
0000
0010
0000
0000
0000
,  // measure 26
1000
0000
0000
0100
0000
0000
0001
0000
0000
1000
0000
0000
0001
0000
0000
0000
,  // measure 27
0010
0000
0000
0001
0000
0000
1000
0000
0000
0010
0000
0000
0001
0000
0000
0000
,  // measure 28
0100
0000
0000
0010
0000
0000
0100
0000
0000
1000
0000
0000
0002
0000
0000
0000
,  // measure 29
0103
0000
1000
0010
0001
0000
2000
0000
,  // measure 30
3100
0000
0001
0010
1000
0000
0100
0001
,  // measure 31
0010
0100
1000
0010
0100
0001
1000
0000
,  // measure 32
0010
0000
0000
0010
0100
0000
0001
1000
0000
0001
0000
0010
0000
0000
0001
0000
,  // measure 33
1000
0000
0100
1000
0000
0000
0001
0000
0000
0000
0010
0000
0110
0000
0001
0000
,  // measure 34
1000
0000
0010
1000
0000
0000
0001
0000
0100
0000
1000
0000
0001
0010
0000
1000
,  // measure 35
0000
0000
1000
0100
0000
0000
0100
0000
0001
0000
0100
1000
0000
0000
0100
0000
,  // measure 36
0001
0000
0000
0001
0010
0000
0010
1000
0000
0010
0000
0001
0000
0000
1000
0000
,  // measure 37
0100
0000
0010
0001
0000
0000
1000
0000
0000
0000
0001
0000
0010
0001
0000
0000
,  // measure 38
0100
0000
0100
0010
0000
0000
0100
0000
0001
0000
1000
0000
0001
0010
0000
0001
,  // measure 39
0000
0000
1000
0100
0000
0000
1000
0000
0010
0000
0010
0001
0000
1000
0100
0000
,  // measure 40
0010
0000
1000
0001
1000
0000
0000
0000
0100
0000
0000
0000
0110
0000
0000
0000
,  // measure 41
0001
0000
0010
0100
0010
0000
0000
0000
1000
0000
0000
0000
1001
0000
0000
0000
,  // measure 42
0100
0000
1000
0010
1000
0000
0000
0000
0010
0000
0000
0000
0011
0000
0000
0000
,  // measure 43
0200
0000
0001
0000
0010
1000
0310
0000
,  // measure 44
0001
0000
0100
1000
0100
0000
0000
0000
0011
0000
0000
0000
1001
0000
0000
0000
,  // measure 45
1000
0000
0100
0001
0100
0000
1000
0010
1000
0000
0000
0000
1010
0000
0000
0000
,  // measure 46
0100
0000
0001
0010
0001
0000
0000
0000
1010
0000
0000
0000
0110
0000
0000
0000
,  // measure 47
2000
0001
0100
0010
0100
0001
3100
0110
;
