#TITLE:I AM THE BEST;
#SUBTITLE:;
#ARTIST:2NE1;
#TITLETRANSLIT:;
#SUBTITLETRANSLIT:;
#ARTISTTRANSLIT:;
#CREDIT:SupremeX & ledgam3r1279;
#BANNER:I AM THE BEST-bn.png;
#BACKGROUND:I AM THE BEST-bg.png;
#LYRICSPATH:;
#CDTITLE:cdtitle.png;
#MUSIC:I AM THE BEST.ogg;
#OFFSET:1.650;
#SAMPLESTART:22.703;
#SAMPLELENGTH:15.000;
#SELECTABLE:YES;
#DISPLAYBPM:64.000:128.000;
#BPMS:0.000=128.000;
#STOPS:;
#BGCHANGES:;

//---------------dance-single - ----------------
#NOTES:
     dance-single:
     :
     Hard:
     12:
     0.415,0.400,0.141,0.026,0.035:
0000
0000
0000
0000
,
0000
0000
0000
0000
,
0000
0000
0000
0000
,
0000
0000
0000
0000
,
0000
0000
0000
0000
,
0001
0001
0001
0001
,
1000
0000
1000
0000
1000
0000
0010
0100
,
0010
0010
0010
0010
,
0100
0000
0100
0000
0100
0000
0001
1000
,
0001
0001
0001
0001
,
1000
0000
1000
0000
1000
0000
0010
0100
,
0010
0000
0010
0000
0010
0000
1000
1000
,
1000
0000
0001
0100
0001
0000
1000
0000
,
0010
0000
0000
0100
0010
0000
0100
0000
0010
0000
0100
0000
0000
0000
0001
0000
,
1000
0001
1000
0000
1100
0000
0010
0000
,
0100
0000
0000
0010
0100
0000
0010
0000
0100
0000
0010
0000
0000
0000
1000
0000
,
0001
1000
0100
0000
0011
0000
0100
0000
,
1000
0000
0000
0100
1000
0000
0100
0000
1000
0000
0100
0000
0000
0000
0010
0000
,
0001
0010
0001
0000
0101
0000
0010
0000
,
1000
0000
0000
0010
1000
0000
0010
0000
1000
0000
0010
0000
0000
0000
0100
0000
,
0001
0100
0001
0000
0000
0000
1001
0000
,
0100
0000
0010
1000
0001
0000
1000
0001
,
0100
1100
0100
1001
,
0010
0000
0100
0010
0010
0000
1000
0001
,
0001
0000
1000
0100
0100
0000
1000
0000
,
0001
0100
0010
1000
0001
0100
0010
0000
,
1010
0101
1001
0110
,
0001
0000
1000
0100
0100
0000
1000
0010
,
0010
0000
0100
0001
0001
0000
1000
0000
,
0001
0100
0001
0000
1000
0010
1000
0000
,
0001
0010
0100
1000
0010
0100
0010
0000
,
1000
0010
1000
0000
0001
0100
0001
0000
,
1000
0100
0010
0001
0010
0100
0010
0000
,
0100
0000
0001
1000
0100
0000
1000
0010
,
1000
1000
1000
0000
0100
0000
0000
1000
,
0001
0100
0010
0000
1000
0001
0100
0000
,
0010
0010
0010
0000
1000
0000
0010
1000
,
0010
0000
0100
0001
0100
0000
0001
0010
,
0100
0000
1000
1000
0000
0010
0100
0001
,
0100
0000
0010
1000
0010
0000
0100
0000
,
0001
0000
1000
1000
0000
0001
1000
0000
,
0010
0110
0001
1001
,
1000
0100
1000
0100
0000
0010
0010
0010
,
0000
0001
0100
0001
0100
0000
0010
0000
,
2000
3200
0020
0330
,
0001
0000
1000
0100
1000
0000
0001
1000
,
0001
0000
0100
0010
0100
0000
0001
0010
,
0100
0000
1000
0100
0010
0000
1000
0001
,
0100
0000
0001
1000
0001
0100
0001
1000
,
0001
0000
0100
0010
0100
0000
0010
1000
,
0010
0000
1000
0001
1000
0000
0010
0100
,
0010
0000
1000
0001
0100
0000
0010
0010
,
0010
0000
1000
0001
0100
0000
0001
0000
,
1000
0000
0000
0100
1000
0000
0100
0000
0010
0000
0001
0000
0000
0000
1000
0000
,
0100
1000
0100
0000
0110
0000
0010
0000
,
0001
0000
0000
0100
0001
0000
0010
0000
0100
0000
1000
0000
0000
0000
0100
0000
,
1000
0100
0010
0000
0011
0000
0100
0000
,
1000
0000
0000
0100
1000
0000
0100
0000
0010
0000
0001
0000
0000
0000
1000
0000
,
0100
1000
0100
0000
0110
0000
0001
0000
,
0100
0000
0000
0010
0100
0000
0010
0000
1000
0000
0001
0000
0000
0000
0100
0000
,
0010
1000
0001
0000
0000
0000
0110
0000
;

//---------------dance-single - ----------------
#NOTES:
     dance-single:
     :
     Medium:
     7:
     0.297,0.320,0.141,0.035,0.000:
0000
0000
0000
0000
,
0000
0000
0000
0000
,
0000
0000
0000
0000
,
0000
0000
0000
0000
,
0000
0000
0000
0000
,
0001
0001
0001
0001
,
0001
0001
0001
0001
,
1000
1000
1000
1000
,
1000
1000
1000
1000
,
0010
0010
0010
0010
,
0010
0010
0010
0010
,
0100
0100
0100
0000
,
0110
0000
0110
0000
,
0001
1000
0001
0000
,
1000
0010
1000
0000
1000
0000
0010
0000
,
0100
0000
0010
0000
0100
0000
0000
0001
,
1000
0001
1000
0000
1000
0000
0010
0000
,
0100
0000
0010
0000
0100
0000
0000
0001
,
1000
0001
1000
0000
0001
0000
0100
0000
,
0010
0000
0100
0000
0010
0000
0000
1000
,
1000
1000
1000
0000
0000
0000
0110
0000
,
0001
0001
1000
1000
,
0010
0100
0001
1000
,
2002
0000
3003
0000
,
0220
0000
0330
0000
,
0001
1000
0001
0100
,
0010
1000
0010
1000
,
0001
0000
0110
0000
,
1001
0000
0110
0000
,
0001
0001
1000
1000
,
0010
1000
0010
1000
,
0100
0100
0010
0010
,
0001
1000
0001
1000
,
0010
0100
0001
1000
,
0010
0010
0100
0000
0001
1000
0001
0000
,
1000
1000
0010
0100
,
0001
0001
0001
0000
0100
0010
0100
0000
,
0001
0000
1000
0000
,
0110
0000
0000
1001
0000
0000
0000
0000
,
0001
0000
1000
0000
,
0110
0000
0000
1001
0000
0000
0000
0000
,
0001
0001
1000
1000
,
0010
0000
0010
0000
0000
0100
0100
0100
,
0000
0001
0000
1000
,
0001
0000
1000
0000
0001
0000
0100
0010
,
0100
0000
0001
1000
0001
0000
1000
0000
,
0010
0000
1000
0000
0010
0000
0100
0010
,
0100
0000
0001
0100
0001
0000
1000
0000
,
0010
0000
1000
0000
0010
0000
0100
0001
,
0100
0000
0010
1000
0010
0000
1000
0000
,
1000
0000
0010
0000
0010
0000
0100
0001
,
0100
0000
0010
0010
0010
0000
1000
0001
,
1000
0000
0100
0100
0100
0000
0010
0000
,
0001
0001
0001
0010
,
0100
1000
1010
0001
,
0100
0010
0100
0010
,
0100
0100
0110
0001
,
1000
0010
1000
0010
,
0100
0100
0110
0001
,
1000
0001
1000
0001
,
1000
1000
0000
1001
;

//---------------dance-single - ----------------
#NOTES:
     dance-single:
     :
     Easy:
     5:
     0.217,0.240,0.114,0.053,0.000:
0000
0000
0000
0000
,
0000
0000
0000
0000
,
0000
0000
0000
0000
,
0000
0000
0000
0000
,
0000
0000
0000
0000
,
1000
0010
1000
0000
,
0000
0000
0000
0000
,
0001
0100
0001
0000
,
0000
0000
0000
0000
,
1000
0010
1000
0000
,
0000
0000
0000
0000
,
0001
0100
0001
0000
,
1000
0010
1000
0001
,
0100
0100
0100
0000
,
0010
0100
0010
0000
,
1000
1000
1000
0000
,
0001
0100
0001
0000
,
0100
0100
0100
0000
,
0010
0100
0010
0000
,
1000
1000
1000
0000
,
0001
0100
0000
1001
,
0000
1010
0000
0101
,
1000
1000
1000
1000
,
0020
0000
0000
0030
0000
0000
0000
0000
,
0200
0000
0000
0300
0000
0000
0000
0000
,
0001
0100
0001
0100
,
0010
0010
0010
0010
,
0220
0000
0000
0330
0000
0000
0000
0000
,
2000
0000
3000
0000
,
0001
0000
1000
0000
,
0001
1000
0001
1000
,
0010
0000
0100
0000
,
0010
0100
0010
0100
,
0001
0000
1000
0000
,
0010
0000
0100
0000
,
0001
0000
1000
0000
,
0010
0000
0100
0000
,
1001
0000
1010
0000
,
0101
0000
0000
0000
,
1001
0000
1010
0000
,
0101
0000
0000
0000
,
1000
1000
1000
1000
,
0010
0010
0010
0010
,
0100
0100
0100
0100
,
0002
0000
0000
0000
0000
0003
0000
0000
,
1000
0010
1000
0010
,
1000
0010
1000
0010
,
0100
0001
0100
0001
,
0100
0001
0100
0001
,
1000
0010
1000
0010
,
1000
0010
1000
0010
,
0100
0001
0100
0000
,
1001
0000
0110
0000
,
0001
0001
0001
0000
,
1000
0010
1000
0010
,
0100
0100
0100
0000
,
0001
1000
0001
0000
,
1000
0010
0100
0010
,
0100
0100
0001
1000
,
0001
1000
0010
0100
,
0001
1000
0000
0110
;

//---------------dance-single - ----------------
#NOTES:
     dance-single:
     :
     Beginner:
     3:
     0.095,0.133,0.000,0.000,0.000: // measure 1
0000
0000
0000
0000
,  // measure 2
0000
0000
0000
0000
,  // measure 3
0000
0000
0000
0000
,  // measure 4
0000
0000
0000
0000
,  // measure 5
0000
0000
0000
0000
,  // measure 6
0010
0000
0000
0000
,  // measure 7
0000
0000
0000
0000
,  // measure 8
0010
0000
0000
0000
,  // measure 9
0000
0000
0000
0000
,  // measure 10
0100
0000
0000
0000
,  // measure 11
0000
0000
0000
0000
,  // measure 12
0100
0000
0000
0000
,  // measure 13
0100
0000
0000
0000
,  // measure 14
0001
0000
0000
0000
,  // measure 15
1000
0000
0000
0000
,  // measure 16
0001
0000
0000
0000
,  // measure 17
1000
0000
0000
0000
,  // measure 18
0010
0000
0000
0000
,  // measure 19
0100
0000
0000
0000
,  // measure 20
0010
0000
0000
0000
,  // measure 21
0100
0000
0000
0000
,  // measure 22
0000
0001
0000
0001
,  // measure 23
0000
0001
0000
0001
,  // measure 24
0000
0000
0000
0000
,  // measure 25
1000
0000
0000
0000
,  // measure 26
1000
0000
1000
0000
,  // measure 27
1000
0000
1000
0000
,  // measure 28
1000
0000
0000
0000
,  // measure 29
0010
0000
0000
0000
,  // measure 30
0100
0000
0100
0000
,  // measure 31
0100
0000
0100
0000
,  // measure 32
0010
0000
0010
0000
,  // measure 33
0010
0000
0010
0000
,  // measure 34
1000
0000
0001
0000
,  // measure 35
1000
0000
0000
0000
,  // measure 36
0001
0000
1000
0000
,  // measure 37
0001
0000
0000
0000
,  // measure 38
0100
0000
0010
0000
,  // measure 39
0100
0000
0000
0000
,  // measure 40
0010
0000
1000
0000
,  // measure 41
0010
0000
0000
0000
,  // measure 42
1000
0000
0001
0000
,  // measure 43
1000
0000
0000
0000
,  // measure 44
0010
0000
0100
0000
,  // measure 45
0010
0000
0000
0000
,  // measure 46
1000
0000
1000
0000
,  // measure 47
0000
0000
0000
0000
,  // measure 48
0001
0000
0001
0000
,  // measure 49
0000
0000
0000
0000
,  // measure 50
1000
0000
1000
0000
,  // measure 51
0000
0000
0000
0000
,  // measure 52
0001
0000
0001
0000
,  // measure 53
0001
0000
0001
0000
,  // measure 54
1000
0000
0010
0000
,  // measure 55
1000
0000
0010
0000
,  // measure 56
0100
0000
0001
0000
,  // measure 57
0100
0000
0001
0000
,  // measure 58
1000
0000
0010
0000
,  // measure 59
1000
0000
0010
0000
,  // measure 60
0100
0000
0100
0000
,  // measure 61
0100
0000
0000
0001
;
