#TITLE:I AM THE BEST;
#SUBTITLE:Piekun;
#ARTIST:2NE1;
#TITLETRANSLIT:;
#SUBTITLETRANSLIT:;
#ARTISTTRANSLIT:;
#GENRE:;
#CREDIT:;
#BANNER:I AM THE BEST [Pie-kun].png;
#BACKGROUND:I AM THE BEST [Pie-kun]-bg.png;
#LYRICSPATH:;
#CDTITLE:;
#MUSIC:I AM THE BEST [Pie-kun].ogg;
#OFFSET:1.650000;
#SAMPLESTART:82.182755;
#SAMPLELENGTH:15.000000;
#LASTBEATHINT:1.212361;
#SELECTABLE:YES;
#DISPLAYBPM:128.000000;
#BPMS:0.000000=128.000000
;
#STOPS:
;
#BGCHANGES:4.000=I AM THE BEST [Pie-kun].avi=1.000=0=0=0=StretchNoLoop====,
99999=-nosongbg-=1.000=0=0=0 // don't automatically add -songbackground-
;
#KEYSOUNDS:;
#ATTACKS:;

//---------------dance-single - ----------------
#NOTES:
     dance-single:
     :
     Hard:
     11:
     0.459392,0.478408,0.369020,0.316303,0.096648,366.000000,324.000000,42.000000,36.000000,0.000000,0.000000,0.459392,0.478408,0.369020,0.316303,0.096648,366.000000,324.000000,42.000000,36.000000,0.000000,0.000000:
// measure 0
0000
0000
0000
0000
,  // measure 1
0000
0000
0000
0000
,  // measure 2
0000
0000
0000
0000
,  // measure 3
0000
0000
0000
0000
,  // measure 4
0000
0000
0000
0000
,  // measure 5
2000
0010
0010
3010
,  // measure 6
1001
0110
1001
0110
,  // measure 7
0002
0100
0100
0103
,  // measure 8
0011
1100
0011
1100
,  // measure 9
2000
0010
0010
3010
,  // measure 10
0101
1010
0101
1010
,  // measure 11
0020
0000
0100
0000
0100
0000
0130
0100
,  // measure 12
0020
2030
3001
1001
,  // measure 13
0001
0000
0000
0001
0100
0000
0010
0000
1000
0000
1000
0000
0000
0000
0001
0000
,  // measure 14
0001
0100
1000
0000
1100
0000
0102
0000
,  // measure 15
1003
0000
0000
1000
0001
0000
0100
0000
0010
0000
0010
0000
0000
0000
1000
0000
,  // measure 16
1000
0010
0001
0000
0011
0000
2001
0000
,  // measure 17
3010
0000
0000
0010
1000
0000
0001
0000
1000
0000
1000
0000
0000
0000
0001
0000
,  // measure 18
0001
0010
1000
0000
1010
0000
2001
0000
,  // measure 19
3100
0000
0000
0100
0010
0000
0100
0000
1000
0000
1000
0000
0000
0000
1000
0000
,  // measure 20
0010
0001
0200
0000
0300
0000
0000
0000
,  // measure 21
1000
0100
0010
0001
1000
0001
0010
0100
,  // measure 22
1000
0000
0000
0100
1000
0000
0000
0000
0001
0000
0100
0000
0101
0000
0000
0000
,  // measure 23
1002
0000
1003
1000
2100
0000
3100
0010
,  // measure 24
0012
0000
0013
0010
0210
0000
1300
0000
,  // measure 25
0001
0100
0010
1000
0001
1000
0010
0100
,  // measure 26
0001
0000
0000
0100
0001
0000
0000
0000
1000
0000
0100
0000
1100
0000
0000
0000
,  // measure 27
2001
0000
3001
0001
0102
0000
0013
0100
,  // measure 28
2100
0000
3010
0010
0120
0000
0130
0000
,  // measure 29
0001
0100
1000
0100
0010
1000
0100
0010
,  // measure 30
0001
0010
1000
0010
0100
1000
1001
0000
,  // measure 31
1000
0100
0001
0100
0010
0001
1000
0001
,  // measure 32
1000
0010
0001
0010
0100
0010
1001
0000
,  // measure 33
0001
0000
0100
0001
0000
0000
1000
0000
0001
0000
0001
0000
0100
0000
0010
0000
,  // measure 34
1000
0000
1000
0000
1000
0000
1000
0000
0100
0000
0000
0100
1000
0000
0000
0000
,  // measure 35
1000
0000
0001
1000
0000
0000
0010
0000
1000
0000
0001
0000
0001
0000
0100
0000
,  // measure 36
0010
0000
1000
0000
0001
0000
1000
0000
1000
0000
0000
1000
0001
0000
0000
0000
,  // measure 37
0002
0000
0203
0000
,  // measure 38
0320
0000
0000
1030
0000
0000
0100
0000
,  // measure 39
0020
0000
0032
0000
,  // measure 40
0103
0000
0000
0100
0000
0000
0100
0000
0000
0000
0000
0000
0010
0000
0000
0000
,  // measure 41
1000
0000
0000
1000
0100
0000
0000
0000
0001
0000
0010
0000
0011
0000
0000
0000
,  // measure 42
1000
0000
0000
1000
0010
0000
0000
0000
0001
0000
0100
0000
0101
0000
0000
0000
,  // measure 43
1000
0000
0000
1000
0001
0000
0000
0000
0001
0000
0100
0000
0110
0000
0000
0000
,  // measure 44
2002
0000
0000
3003
,  // measure 45
0001
0000
0100
0010
1000
0100
0010
0100
,  // measure 46
1000
0000
0000
1000
0100
0000
0010
0000
0001
0000
0100
0000
0020
0000
0000
0000
,  // measure 47
0230
0000
0301
1000
0100
1000
0010
0100
,  // measure 48
0010
0000
0000
0010
1000
0000
0100
0000
0002
0000
0000
0000
0203
0000
0000
0000
,  // measure 49
1300
0000
0001
1000
0010
0100
0010
1000
,  // measure 50
0001
0000
0000
0001
1000
0000
0010
0000
0002
0000
0000
0000
0023
0000
0000
0000
,  // measure 51
1030
0000
0000
0000
0001
0000
0001
0000
0010
0000
0000
0010
0100
0000
0100
0000
,  // measure 52
0100
1000
0001
2001
,  // measure 53
3001
0000
0100
0001
0100
0000
0010
0000
1000
0000
1000
0000
0001
0000
0010
0000
,  // measure 54
1000
0010
0001
0000
0101
0000
1002
0000
,  // measure 55
1003
0000
0100
1000
0100
0000
1000
0000
0001
0000
0001
0000
1000
0000
0100
0000
,  // measure 56
0001
0100
1000
0000
1010
0000
1002
0000
,  // measure 57
0103
0000
0001
0100
0001
0000
0010
0000
0100
0000
0100
0000
1000
0000
0010
0000
,  // measure 58
0001
0010
1000
0000
0101
0000
2001
0000
,  // measure 59
3001
0000
1000
0100
1000
0000
0010
0000
0100
0000
0100
0000
0001
0000
0100
0000
,  // measure 60
1000
0100
0200
0000
0300
0000
0000
0000
;

//---------------dance-single - ----------------
#NOTES:
     dance-single:
     :
     Beginner:
     2:
     0.099158,0.158810,0.000000,0.035145,0.000000,79.000000,79.000000,0.000000,4.000000,0.000000,0.000000,0.099158,0.158810,0.000000,0.035145,0.000000,79.000000,79.000000,0.000000,4.000000,0.000000,0.000000:
0000
0000
0000
0000
,
0000
0000
0000
0000
,
0000
0000
0000
0000
,
0000
0000
0000
0000
,
0000
0000
0000
0000
,
1000
0000
0000
0000
,
1000
0000
0000
0000
,
0001
0000
0000
0000
,
0001
0000
0000
0000
,
0100
0000
0000
0000
,
0100
0000
0000
0000
,
0010
0000
0000
0000
,
0010
0000
0000
0000
,
1000
0000
1000
0000
,
1000
0000
1000
0000
,
0001
0000
0001
0000
,
0001
0000
0001
0000
,
1000
0000
1000
0000
,
1000
0000
1000
0000
,
0001
0000
0001
0000
,
0001
0000
0000
0000
,
0100
0000
0100
0000
,
0100
0000
0000
0000
,
0200
0300
0000
0000
,
0020
0030
0000
0000
,
0010
0010
0010
0000
,
0010
0000
0010
0000
,
0010
0000
0020
0030
,
0000
0000
0200
0300
,
0000
1000
0000
1000
,
0000
1000
0000
0001
,
0000
0001
0000
0001
,
0000
0001
0000
0100
,
0000
0100
0000
0100
,
0000
0000
0000
0000
,
0000
0010
0000
0010
,
0000
0010
0000
0000
,
1000
0000
0000
0000
,
0000
0000
0000
0000
,
0100
0000
0000
0000
,
0000
0000
0000
0000
,
0010
0000
0000
0000
,
0000
0000
0000
0000
,
0001
0000
0000
0000
,
0100
0000
0000
0000
,
0100
0000
0100
0000
,
0001
0000
0001
0000
,
1000
0000
1000
0000
,
0010
0000
0010
0000
,
0100
0000
0100
0000
,
0001
0000
0001
0000
,
1000
0000
1000
0000
,
0010
0000
0000
0000
,
0100
0000
0000
0000
,
0100
0000
0000
0100
,
0100
0000
0000
0000
,
0100
0000
0000
0100
,
0100
0000
0000
0000
,
0000
0000
0100
0100
,
0000
0000
0000
0000
,
0000
0010
0000
0000
;

//---------------dance-single - ----------------
#NOTES:
     dance-single:
     :
     Easy:
     5:
     0.202082,0.292360,0.061503,0.079076,0.000000,161.000000,154.000000,7.000000,9.000000,0.000000,0.000000,0.202082,0.292360,0.061503,0.079076,0.000000,161.000000,154.000000,7.000000,9.000000,0.000000,0.000000:
0000
0000
0000
0000
,
0000
0000
0000
0000
,
0000
0000
0000
0000
,
0000
0000
0000
0000
,
0000
0000
0000
0000
,
1000
0000
1000
0000
,
1000
0000
1000
0000
,
0001
0000
0001
0000
,
0001
0000
0001
0000
,
0100
0000
0100
0000
,
0100
0000
0100
0000
,
0010
0000
0010
0000
,
0010
0000
0000
0000
,
1000
1000
1000
0000
,
0001
0001
0001
0000
,
0100
0100
0100
0000
,
0010
0010
0010
0000
,
0001
0001
0001
0000
,
1000
1000
1000
0000
,
0100
0100
0100
0000
,
0010
0000
0000
0000
,
0001
0100
0010
1000
,
0100
0010
0001
1000
,
2002
3003
0000
0000
,
0220
0330
0000
0000
,
0001
0100
0010
1000
,
0100
1000
0010
0100
,
0202
0303
0000
0000
,
2002
3003
0000
0000
,
1000
0100
0010
0001
,
0100
0010
0100
0001
,
0100
0010
1000
0100
,
1000
0010
0100
0001
,
0001
0001
0000
1000
,
0001
0001
0000
1000
,
0100
0100
0000
0010
,
0001
0001
0000
0010
,
0100
0000
0100
0000
,
0100
0000
0000
0000
,
0010
0000
0010
0000
,
0010
0000
0000
0000
,
0001
0000
0001
0000
,
0001
0000
0100
0000
,
0100
0000
0100
0000
,
0010
0010
0010
0000
,
1000
1000
1000
0000
,
0100
0100
0100
0000
,
0010
0010
0010
0000
,
0001
0001
0001
0000
,
0001
0100
1000
0000
,
1000
0100
0001
0000
,
0001
0010
1000
0000
,
1000
0010
0001
0000
,
1000
1000
1000
1000
,
0100
0100
0100
0110
,
0010
0010
0010
0001
,
0001
0001
1000
1100
,
1000
1000
1000
0010
,
0100
0100
0001
1001
,
0001
0001
0100
0010
,
1000
0200
0300
0000
;

//---------------dance-single - ----------------
#NOTES:
     dance-single:
     :
     Medium:
     8:
     0.299986,0.345517,0.193296,0.228441,0.000000,239.000000,217.000000,22.000000,26.000000,0.000000,0.000000,0.299986,0.345517,0.193296,0.228441,0.000000,239.000000,217.000000,22.000000,26.000000,0.000000,0.000000:
0000
0000
0000
0000
,
0000
0000
0000
0000
,
0000
0000
0000
0000
,
0000
0000
0000
0000
,
0000
0000
0000
0000
,
1000
0100
0010
0001
,
1000
0100
0010
0001
,
1000
0100
0010
0001
,
1000
0100
0010
0001
,
0001
0010
0100
1000
,
0001
0010
0100
1000
,
0001
0010
0100
1000
,
2002
0000
0000
3003
,
1000
0000
0100
0000
1000
0100
1000
0000
,
0001
0000
0100
0000
0010
0100
0110
0000
,
0010
0000
1000
0001
1000
0000
0010
0000
,
0010
0000
0100
0000
0001
0100
0101
0000
,
1000
0000
0100
0010
0100
0000
1000
0000
,
0001
0000
1000
0000
1000
0001
1001
0000
,
0001
0000
0100
0001
0100
0000
0010
0000
,
1000
0001
0000
0000
,
1000
0000
1000
0000
1000
0100
1000
0000
,
0001
0000
0001
0000
0001
0100
0001
0000
,
0202
0303
2200
3300
,
2020
3030
0022
0033
,
1000
0000
1000
0000
1000
0100
1000
0000
,
0010
0000
0100
0000
0010
0100
0010
0000
,
0220
0330
2002
3003
,
0022
0033
2200
3300
,
1000
0000
0100
0000
1000
0100
1000
0000
,
0010
0000
0001
0000
0010
0001
0010
0000
,
0001
0000
0100
0000
0010
0100
0010
0000
,
1000
0000
0001
0000
1000
0001
1000
0000
,
1000
0100
0010
0001
,
0001
0010
0100
1000
0001
0000
1001
0000
,
0001
0100
0010
0100
,
0001
1000
0100
0000
,
0022
0000
0000
0033
,
0000
0000
0000
0000
,
2002
0000
0000
0000
,
3003
0000
0000
0000
,
1000
1000
0010
1010
,
0010
1000
0001
1001
,
0001
0100
0010
1000
,
0100
0220
0000
0330
,
0010
0000
0001
0000
1000
0000
0001
0100
,
1000
0100
0001
0010
,
1000
0000
0010
0000
0001
0000
0100
0010
,
0100
0010
1000
0001
,
1000
0000
0100
0001
0100
0000
1000
0000
,
0010
0000
0100
0001
1000
0000
0100
0000
,
1000
0010
0100
0001
,
0001
0000
0000
0000
,
0001
0100
0010
0000
1000
0000
0001
0000
,
1000
0100
0010
0000
0001
0000
1001
0000
,
0001
0000
0100
0001
0100
0000
0010
0000
,
1000
0100
0010
0000
0001
0000
1001
0000
,
0001
0000
0100
0010
1000
0000
0100
0000
,
1000
0100
0010
0000
0001
0000
1001
0000
,
0001
0000
0100
0010
1000
0000
0100
0000
,
1000
2002
3003
0000
;
