#VERSION:0.83;
#TITLE:Hypnotizer;
#SUBTITLE:;
#ARTIST:KO3;
#TITLETRANSLIT:;
#SUBTITLETRANSLIT:;
#ARTISTTRANSLIT:;
#GENRE:;
#ORIGIN:;
#CREDIT:;
#BANNER:Hypnotizer.png;
#BACKGROUND:Hypnotizer-bg.png;
#PREVIEWVID:;
#JACKET:Hypnotizer-jacket.png;
#CDIMAGE:;
#DISCIMAGE:;
#LYRICSPATH:;
#CDTITLE:;
#MUSIC:Hypnotizer.ogg;
#OFFSET:-0.036000;
#SAMPLESTART:67.794960;
#SAMPLELENGTH:15.000000;
#SELECTABLE:YES;
#BPMS:0.000=170.000;
#STOPS:255.750=0.353;
#DELAYS:;
#WARPS:;
#TIMESIGNATURES:0.000=4=4;
#TICKCOUNTS:0.000=4;
#COMBOS:0.000=1;
#SPEEDS:0.000=1.000=0.000=0;
#SCROLLS:0.000=1.000;
#FAKES:;
#LABELS:0.000=Song Start;
#BGCHANGES:;
#KEYSOUNDS:;
#ATTACKS:
;

//---------------dance-single - ----------------
#NOTEDATA:;
#CHARTNAME:;
#STEPSTYPE:dance-single;
#DESCRIPTION:;
#CHARTSTYLE:;
#DIFFICULTY:Hard;
#METER:14;
#RADARVALUES:0.729920,0.834541,0.157213,0.663790,0.441071,585.000000,567.000000,18.000000,76.000000,0.000000,0.000000,0.000000,0.000000,0.000000,0.729920,0.834541,0.157213,0.663790,0.441071,585.000000,567.000000,18.000000,76.000000,0.000000,0.000000,0.000000,0.000000,0.000000;
#CREDIT:;
#NOTES:
// measure 0
0000
0000
0000
0000
,  // measure 1
0000
0000
0000
0000
,  // measure 2
0000
0000
0000
0000
,  // measure 3
0000
0000
0000
0000
,  // measure 4
1000
0000
0100
0000
0010
0000
0100
0000
1000
0000
0001
0000
0010
0001
0000
0001
,  // measure 5
1000
0000
0010
0000
0100
0000
0010
0000
1000
0000
0010
0100
0010
0000
1000
0000
,  // measure 6
0001
0000
0010
0000
0100
0000
0010
0000
0001
0000
1000
0000
0100
0010
0000
0010
,  // measure 7
0001
0010
0001
0000
1000
0100
1000
0000
0002
0000
1003
0000
0002
0000
1003
0000
,  // measure 8
0001
0000
0100
0000
1000
0000
0100
0000
0001
0000
1000
0000
0100
1000
0000
1000
,  // measure 9
0001
0000
0010
0000
1000
0000
0010
0000
0001
0000
0010
0100
0010
0000
0001
0000
,  // measure 10
1000
0000
0100
0000
0001
0000
0100
0000
1000
0000
0001
0000
1000
0010
0000
0010
,  // measure 11
0100
0000
0001
1000
0000
1000
0010
0000
0100
0001
0100
0000
0010
1000
0010
0000
,  // measure 12
1000
0000
0001
0000
0100
0000
0001
0000
0010
0000
0001
0000
0010
0100
0000
0100
,  // measure 13
1000
0000
0010
0000
1000
0000
0001
0000
1000
0100
1000
0100
0020
0000
0000
0000
,  // measure 14
0130
0000
0000
0100
0000
0000
1100
0000
0000
0101
0000
0000
1100
0000
0000
0000
,  // measure 15
1000
0100
0010
0000
0001
0010
0100
0000
1000
0000
0001
0000
1002
0000
0000
0000
,  // measure 16
0203
0000
0000
0000
,  // measure 17
0000
0000
0000
0000
,  // measure 18
0010
0000
0000
0010
0000
0000
1000
0000
0000
1000
0000
0000
1000
0000
0000
0000
,  // measure 19
0010
0000
0000
0010
0000
0000
0001
0000
0000
0001
0000
0000
0301
0000
0000
0000
,  // measure 20
2000
0000
0000
0001
0000
0000
0100
0000
0000
0100
0000
0000
3100
0000
0000
0000
,  // measure 21
0002
0000
0000
0100
0000
0000
1000
0000
0000
0010
0000
0000
1003
0000
0000
0000
,  // measure 22
0001
0000
0000
0011
0000
0000
0110
0000
0000
1001
0000
0000
1100
0000
0000
0000
,  // measure 23
1000
0000
0000
1001
0000
0000
1010
0000
0000
0101
0000
0000
0110
0000
0010
0100
,  // measure 24
0010
0000
1000
0000
0002
0000
1003
0100
0000
1000
0002
0000
0003
0000
0010
0000
,  // measure 25
0010
0001
2000
3100
2000
3000
0001
0200
,  // measure 26
0000
0000
0002
0003
0020
0030
0002
0003
,  // measure 27
2000
3000
0020
0030
2000
3000
0302
0000
,  // measure 28
0013
0000
0001
0000
2000
0000
3001
0100
0000
0001
2000
0000
3000
0000
0010
0000
,  // measure 29
0010
1000
0002
0103
0002
0003
1000
0001
,  // measure 30
0020
0000
0000
0000
0000
0000
0000
0200
,  // measure 31
0000
0000
0000
0330
,  // measure 32
1000
0001
0010
0001
0100
0100
0000
0100
,  // measure 33
0001
1000
0010
1000
0100
0100
0000
0100
,  // measure 34
1000
0001
1000
0001
0010
0010
0000
0010
,  // measure 35
0001
1000
0010
0010
0000
0010
1000
0001
,  // measure 36
0100
0001
0100
0000
0001
0000
0001
0000
1000
0010
1000
0000
0010
0000
0010
0000
,  // measure 37
1000
0100
1000
0000
0001
0000
0010
0000
0001
0100
0001
0000
1000
0000
0010
0000
,  // measure 38
1000
0001
1000
0000
0010
0100
0010
0000
1000
0001
1000
0000
0100
0010
0100
0000
,  // measure 39
0010
0001
1000
0000
0001
1000
0100
0000
0010
0000
0100
0000
1001
0000
0000
0000
,  // measure 40
0001
0000
1000
0000
0100
0000
1000
0000
0001
0000
0010
0001
0000
0001
1000
0000
,  // measure 41
0010
0000
1000
0001
0000
0001
0010
0000
0001
0000
0010
0000
0100
0000
1000
0000
,  // measure 42
0001
0000
1000
0000
0010
0000
1000
0000
0001
0000
0100
0010
0000
0010
1000
0000
,  // measure 43
0010
0000
0100
0001
0000
0001
0010
0000
0002
0000
0000
1000
0000
0000
0103
0000
,  // measure 44
1000
0000
0001
0000
0100
0000
0001
0000
1000
0000
0010
1000
0000
1000
0001
0000
,  // measure 45
0010
0000
0001
1000
0000
1000
0010
0000
1000
0000
0010
0000
0001
0000
0010
0000
,  // measure 46
0200
0000
0000
0000
0301
0000
1000
0100
0000
0000
0110
0000
0000
0000
0010
0000
,  // measure 47
0100
1000
0001
0010
0002
0000
1003
0020
,  // measure 48
0130
0020
0031
0020
0130
0020
1030
0020
,  // measure 49
0130
0002
1003
0002
0013
0002
1003
0002
,  // measure 50
0013
0200
0301
0200
0310
0200
1300
0200
,  // measure 51
0310
0000
0001
0000
1000
0000
0010
0000
2000
0000
0000
0001
0000
0000
3100
0000
,  // measure 52
0001
0000
1000
0000
0010
0000
0100
0000
0010
0000
1000
0001
0000
0001
0010
0000
,  // measure 53
0001
0000
0010
0100
0000
0100
1000
0000
0001
0000
1000
0000
0100
0000
0010
0000
,  // measure 54
0001
0000
0000
0011
0000
0000
1001
0000
0000
0110
0000
0000
1100
0000
0000
0000
,  // measure 55
1000
0000
0001
0000
1000
0100
0010
0000
0002
0000
0000
0000
1003
0000
0010
0000
,  // measure 56
1000
0010
0100
0000
0010
1000
0001
0000
0100
0000
0100
0000
0000
0000
0100
0000
,  // measure 57
0001
0100
0010
0000
0100
0001
1000
0000
0100
0000
0100
0000
0000
0000
0100
0000
,  // measure 58
1000
0001
1000
0000
0100
0000
1000
0000
0010
0000
0010
0000
0000
0000
1000
0000
,  // measure 59
0001
0100
0001
0000
0010
0000
0010
0000
0000
0010
0100
0000
1000
0000
0001
0000
,  // measure 60
0001
0010
0100
0000
0010
0001
1000
0000
0100
0000
0100
0000
0000
0000
0100
0000
,  // measure 61
1000
0100
0010
0000
0100
1000
0001
0000
0100
0000
0010
0000
0100
0000
0001
0000
,  // measure 62
2000
0000
0000
0000
3001
0000
0000
0001
0100
0000
0010
0000
2000
0000
0000
0000
,  // measure 63
3001
0010
0001
1000
0200
0000
0310
0002
,  // measure 64
1003
0002
0013
0200
1300
0002
1003
0020
,  // measure 65
0130
0002
1003
0020
0130
0002
1003
0200
,  // measure 66
0310
0002
1003
0200
0310
0002
0103
0020
,  // measure 67
1030
0002
0103
0020
1030
0200
0310
0200
,  // measure 68
1300
0002
0103
0020
1030
0002
0103
0002
,  // measure 69
0103
0020
0130
2000
3100
0002
0023
0000
,  // measure 70
0031
0000
0000
0001
1000
0000
0200
0000
0000
0000
0000
0000
1300
0000
0001
0000
,  // measure 71
1000
0010
0200
0000
0301
0020
0000
0000
,  // measure 72
0000
0000
0000
0000
0030
0000
0010
0001
,  // measure 73
1000
0000
0001
0000
0100
0010
0000
0010
1000
0000
1000
0001
0100
0000
0010
0000
,  // measure 74
1000
0000
0010
0000
0100
0000
0001
0000
0010
0100
0000
0100
1000
0000
0100
0000
,  // measure 75
1000
0001
0000
0001
0010
0000
0100
0000
0010
0000
0001
1000
0001
0000
0100
0000
,  // measure 76
1000
0000
0100
0000
0001
0000
1000
0000
0010
1000
0000
1000
0001
0000
0010
0000
,  // measure 77
1000
0000
0010
0000
0001
0000
0010
0001
1000
0000
0100
0000
0010
0000
0100
0000
,  // measure 78
1000
0000
0010
0000
0100
0000
0001
0000
1000
0001
0000
0001
0010
0001
0010
0000
,  // measure 79
0100
1000
0100
0000
0020
0000
0130
0000
0020
0000
0130
0000
0000
0000
0000
0000
;

//---------------dance-single - ----------------
#NOTEDATA:;
#CHARTNAME:;
#STEPSTYPE:dance-single;
#DESCRIPTION:;
#CHARTSTYLE:;
#DIFFICULTY:Medium;
#METER:10;
#RADARVALUES:0.434209,0.486816,0.200884,0.419236,0.030569,348.000000,325.000000,23.000000,48.000000,0.000000,0.000000,0.000000,0.000000,0.000000,0.434209,0.486816,0.200884,0.419236,0.030569,348.000000,325.000000,23.000000,48.000000,0.000000,0.000000,0.000000,0.000000,0.000000;
#CREDIT:;
#NOTES:
0000
0000
0000
0000
,
0000
0000
0000
0000
,
0000
0000
0000
0000
,
0000
0000
0000
0000
,
1000
0000
0100
0000
0010
0001
0010
0000
,
0001
0000
0100
0000
0010
0000
1000
0010
,
1000
0000
0010
0000
0100
0001
0100
0000
,
0001
0000
0010
0000
0100
0010
0100
0010
,
0001
0000
1000
0000
0010
1000
0100
0000
,
1000
0000
0001
0000
0100
0000
0001
0010
,
0001
0000
0010
0000
0100
1000
0001
0000
,
1000
0000
0001
0000
0100
0010
0100
0000
,
0001
0001
0100
0010
,
1000
0000
1000
0000
0100
0010
0001
1000
,
0001
0000
0000
0100
0000
0000
0001
0000
0000
1000
0000
0000
0010
0000
0000
0000
,
1000
0000
0000
0100
0000
0000
1000
0000
0000
0001
0000
0000
0020
0000
0000
0000
,
0032
0000
0000
0000
,
0000
0000
0000
0003
,
0200
0000
0000
0300
0000
0000
0200
0000
0000
0000
0000
0000
0300
0000
0000
0000
,
0020
0000
0000
0030
0000
0000
0020
0000
0000
0000
0000
0000
0030
0000
0000
0000
,
1000
0000
0001
1000
0200
0000
0000
0000
,
0300
0000
0000
0100
0010
0000
0001
2000
,
0000
0000
0000
0000
0000
0000
0000
3002
,
0000
0000
0000
0003
,
0100
0000
0100
0010
1000
0000
1000
0000
,
0001
0000
0001
0010
0100
0000
0100
0020
,
0000
0032
0023
0032
,
2003
3020
2030
3020
,
0130
0000
0100
0001
0020
0000
0030
0000
,
0100
0000
0100
1000
0001
0000
1000
0020
,
0000
0000
0000
0000
0000
0000
0000
0230
,
0000
0000
0000
0300
,
0001
0000
0001
0100
0010
0000
0010
0000
,
1000
0000
1000
0100
0010
0000
0100
0000
,
0010
0000
0010
0100
1000
0000
1000
0000
,
0010
0100
0001
0000
0001
0000
0100
0000
,
0001
0100
0001
0000
1000
0100
1000
0000
,
0001
0010
0001
0000
1000
0010
1000
0000
,
0002
0023
2030
3200
,
0301
0100
0010
1001
,
0001
0100
1000
0000
0100
0000
0100
0000
,
0002
0203
2300
3200
,
0301
0010
1000
0000
0010
0000
0010
0000
,
0002
0023
2030
3020
,
0031
0100
1000
0000
0100
0000
0100
0000
,
0002
0203
2300
3200
,
0301
0000
0000
0100
0000
0000
0010
0000
0000
0100
0000
0000
0001
0000
0000
0000
,
1000
0000
0000
0100
0000
0000
0010
0000
0200
0000
0000
0000
0300
0000
0000
0000
,
1000
0100
0000
0010
0000
0100
0000
1000
,
0000
0001
0000
0100
0000
0001
0000
0100
,
0000
0010
0000
1000
0000
0010
0000
0100
,
0000
0001
0000
1000
0000
0100
0000
1000
,
0001
0100
0000
0001
0000
0010
0000
0001
,
0000
1000
0000
0100
0000
0010
0000
0100
,
1000
1100
0001
0101
,
0001
0100
0010
1000
0002
0000
1003
0010
,
0000
0110
0001
1001
,
0010
0110
1000
1001
,
0001
0101
0010
1001
,
1000
1100
0001
0110
,
0001
1000
0100
0000
1000
0001
0010
0000
,
0001
1000
0010
0000
1000
0001
0100
0000
,
0001
0101
2002
3003
,
1000
0001
1000
0001
2000
0000
3001
0020
,
0130
0001
1100
1000
,
0101
0010
1100
0100
,
0011
0100
1010
0001
,
0110
0000
1000
0000
0110
0000
0010
1000
,
0010
0000
0100
0001
0100
0000
0001
0010
,
0001
0000
1000
0100
1000
0000
0100
0000
,
0100
1000
0020
0000
0030
0000
0100
0000
,
0100
0001
0100
0000
0001
0020
0000
0000
,
0000
0000
0000
0000
0000
0130
0000
0000
,
0110
0000
0100
1000
0001
0000
1000
0000
,
1100
0001
0101
0100
,
0010
0000
1000
0000
0001
1000
0002
0000
,
0013
0100
0100
2000
,
3010
0000
0100
0010
0100
0000
0001
0000
,
1000
0000
0001
0000
0010
0000
0100
1000
,
0100
0000
0020
0130
0020
0130
0000
0000
;

//---------------dance-single - ----------------
#NOTEDATA:;
#CHARTNAME:;
#STEPSTYPE:dance-single;
#DESCRIPTION:;
#CHARTSTYLE:;
#DIFFICULTY:Easy;
#METER:7;
#RADARVALUES:0.319418,0.347726,0.122277,0.087341,0.000000,256.000000,242.000000,14.000000,10.000000,0.000000,0.000000,0.000000,0.000000,0.000000,0.319418,0.347726,0.122277,0.087341,0.000000,256.000000,242.000000,14.000000,10.000000,0.000000,0.000000,0.000000,0.000000,0.000000;
#CREDIT:;
#NOTES:
0000
0000
0000
0000
,
0000
0000
0000
0000
,
0000
0000
0000
0000
,
0000
0000
0000
0000
,
1000
0100
0010
0010
,
0001
0010
0100
0100
,
1000
0010
0100
0100
,
0001
0100
0010
0010
,
1000
0001
0010
0010
,
0001
1000
0100
0100
,
1000
0001
0100
0100
,
0001
1000
0010
0010
,
1000
0010
0100
0001
,
1000
0100
0010
0001
,
0010
0010
0010
0000
,
0100
0100
0100
0010
,
2002
0000
0000
0000
,
0000
0000
0000
3003
,
0000
0000
0000
0000
,
0000
0000
0000
0000
,
0001
0000
0001
0000
,
0100
0000
0001
1000
,
0020
0000
0000
0000
,
0030
0000
0000
0000
,
1000
0000
1000
0000
,
0100
0000
1000
0001
,
0020
0030
0001
0001
,
0010
0010
0100
0100
,
1000
0000
1000
0000
,
0001
0000
0001
0100
,
0020
0000
0000
0000
,
0030
0000
0000
0000
,
1000
1000
1100
0000
,
0001
0001
0101
0000
,
1000
1000
1010
0000
,
0001
0011
0000
0001
,
1000
0100
1000
0001
,
0100
0001
1000
0001
,
0010
0100
0010
0100
,
1000
1000
2000
3000
,
0100
0100
1000
0001
,
1000
0010
1000
0001
,
0100
0100
0001
1000
,
0001
0010
0001
1000
,
0100
0100
1000
0001
,
1000
0010
1000
0001
,
0100
0100
0101
0000
,
0010
0010
1010
0000
,
0010
0010
1000
0001
,
0100
0001
1000
0001
,
0010
0010
0001
1000
,
0100
1000
0001
1000
,
0010
0010
1000
0001
,
0100
0001
0010
0100
,
1000
1000
1100
0000
,
0001
0001
0011
0000
,
0002
0003
1000
1000
,
0100
0100
1000
1000
,
0010
0010
0100
0100
,
0001
0001
0100
0100
,
0010
0010
1000
1000
,
0001
0001
0010
0010
,
0100
1000
1100
0000
,
0010
0001
0011
0000
,
0000
0001
0001
0100
,
0100
0001
0001
0010
,
0010
0100
0100
1000
,
1000
0001
0001
1000
,
1000
0010
0010
0100
,
0100
0001
0001
0100
,
0001
0101
0000
0010
,
1000
1010
0000
2002
,
0000
0000
0000
3003
,
0000
0000
0000
1000
,
0100
0010
0010
0001
,
0100
0010
0010
0100
,
0001
1000
1000
0100
,
1000
0001
0001
0100
,
0010
0100
0010
1000
,
0001
0000
2000
0000
3001
0001
0000
0000
;

//---------------dance-single - ----------------
#NOTEDATA:;
#CHARTNAME:;
#STEPSTYPE:dance-single;
#DESCRIPTION:;
#CHARTSTYLE:;
#DIFFICULTY:Beginner;
#METER:2;
#RADARVALUES:0.134754,0.208308,0.052404,0.000000,0.000000,108.000000,102.000000,6.000000,0.000000,0.000000,0.000000,0.000000,0.000000,0.000000,0.134754,0.208308,0.052404,0.000000,0.000000,108.000000,102.000000,6.000000,0.000000,0.000000,0.000000,0.000000,0.000000,0.000000;
#CREDIT:;
#NOTES:
0000
0000
0000
0000
,
0000
0000
0000
0000
,
0000
0000
0000
0000
,
0000
0000
0000
0000
,
1000
0000
0000
0000
,
0001
0000
0000
0000
,
1000
0000
0000
0000
,
0001
0000
0000
0000
,
1000
0000
0000
0000
,
0100
0000
0000
0000
,
1000
0000
0000
0000
,
0010
0000
0000
0000
,
0001
0000
0000
0000
,
0100
0000
0000
0000
,
0001
0000
0000
0000
,
0010
0000
0000
0000
,
1001
0000
0000
0000
,
0000
0000
0000
0000
,
0000
0000
0000
0000
,
0000
0000
0000
0000
,
0001
0000
0000
0000
,
0100
0000
0000
0000
,
0010
0000
0000
0000
,
1000
0000
0000
0000
,
1000
0000
0000
0000
,
0100
0000
0000
0000
,
0001
0000
0000
0000
,
0010
0000
0000
0000
,
1000
0000
0000
0000
,
0010
0000
0000
0000
,
0001
0000
0000
0000
,
0100
0000
0000
0000
,
1001
0000
0000
0000
,
0000
0000
0000
0000
,
0110
0000
0000
0000
,
0000
0000
0000
0000
,
1001
0000
0000
0000
,
1001
0000
0000
0000
,
0001
0000
1000
0000
,
0010
0010
0010
0000
,
1000
0000
0100
0000
,
1000
0000
0100
0000
,
1000
0000
0001
0000
,
1000
0000
0001
0000
,
1000
0000
0010
0000
,
1000
0000
0010
0000
,
0100
0000
0000
0000
,
0010
0000
0000
0000
,
0001
0000
0100
0000
,
0001
0000
0100
0000
,
0001
0000
1000
0000
,
0001
0000
1000
0000
,
0001
0000
0010
0000
,
0001
0000
0010
0000
,
0100
0000
0000
0000
,
0010
0000
0000
0000
,
1000
0000
0100
0000
,
1000
0000
0001
0000
,
1000
0000
0010
0000
,
1000
0000
0001
0000
,
1000
0000
0100
0000
,
1000
0000
0001
0000
,
0010
0000
0000
0000
,
0100
0000
0000
0000
,
0000
0000
0000
0001
,
0000
1000
0000
0001
,
0000
0010
0000
0001
,
0000
1000
0000
0001
,
0000
0100
0000
0001
,
0000
1000
0000
0010
,
0000
0000
0000
0100
,
0000
0000
0000
1001
,
0000
0000
0000
0000
,
0000
0000
0000
0001
,
0000
0001
0000
1000
,
0000
1000
0000
0001
,
0000
0001
0000
1000
,
0000
1000
0000
0001
,
0000
1000
0000
0100
,
0000
0010
0010
0000
;
