#TITLE:Hot Stuff;
#SUBTITLE:;
#ARTIST:Sherri Savage;
#TITLETRANSLIT:;
#SUBTITLETRANSLIT:;
#ARTISTTRANSLIT:;
#CREDIT:Nezemarth;
#BANNER:Hot Stuff [Nezemarth]-jacket.png;
#BACKGROUND:Hot Stuff [Nezemarth]-bg.png;
#LYRICSPATH:;
#CDTITLE:;
#MUSIC:Hot Stuff [Nezemarth].ogg;
#OFFSET:-0.506;
#SAMPLESTART:50.587;
#SAMPLELENGTH:16.348;
#SELECTABLE:YES;
#BPMS:0.000=115.612;
#STOPS:;
#BGCHANGES:;

//---------------dance-single - ----------------
#NOTES:
     dance-single:
     :
     Hard:
     12:
     0.515,0.537,0.342,0.295,0.309:
0000
0000
0000
0000
,
0000
0000
0000
0000
,
0000
0000
0000
0000
,
0000
0000
0000
0000
,
1010
1001
0010
1001
,
0011
1000
0100
1000
1010
0000
0010
0100
,
0001
0010
0100
0000
1001
0000
0010
0000
,
1001
0001
0101
0000
1001
0000
1010
0000
,
0220
0000
0330
0000
0100
0000
0001
0000
0010
0000
0001
0000
0100
0000
0000
0100
,
0000
0000
1000
0000
0001
0000
0000
0010
1000
0000
0001
0000
0010
0000
0000
0010
,
0000
0000
0100
0000
0001
0000
0100
0000
0010
0000
0001
0000
0100
0010
0000
1000
,
0000
0000
0000
0000
1001
0000
0000
1001
0000
0000
1100
0000
0000
0000
0000
0000
,
1020
0000
0000
0000
0031
0000
0010
0000
1000
0000
0100
0000
0001
0000
0000
0001
,
0000
0000
0100
0000
1000
0010
0000
0100
0000
1000
0100
0000
0002
0000
0000
0000
,
0023
0000
0000
0000
0130
0000
1000
0000
0001
0000
1000
0000
0100
0010
0000
0001
,
0000
0000
0001
0000
0100
0010
0000
1000
0000
0000
0100
0000
0010
0000
0000
0000
,
1001
0000
0000
0000
1000
0000
0010
0000
0100
0001
0000
0001
0000
0000
0000
1000
,
0100
0000
1000
0000
0001
0000
0000
0001
0100
0000
0000
0100
0010
0000
1000
0000
,
0000
1000
0100
0001
0100
1000
0010
0100
,
0001
0000
0010
0000
0100
1000
0100
0000
0010
0001
0010
0000
0001
0000
1000
0002
,
0000
0000
0013
0000
0100
0000
1000
0002
0000
0000
0103
0000
0010
0000
1000
0200
,
0000
0310
0011
0000
1001
0000
1000
0010
,
0100
0000
1000
0000
0100
0010
1000
0000
0100
0010
0001
0000
0100
0010
1000
0000
,
0100
0010
0001
1000
1001
0000
0000
0000
1000
0000
0001
0000
0100
0000
0000
0000
,
0110
0000
0000
0000
1000
0000
0000
1000
0100
0000
0100
0000
0001
0000
0000
0001
,
0100
0000
1000
0010
0100
0001
0020
0130
,
0020
0000
0030
0000
1000
0000
0010
0000
0001
0000
0001
0200
0000
0000
0000
0000
,
1300
0100
0010
1000
1010
0000
0100
0010
,
0011
0000
0001
0000
1001
0000
0000
1000
0010
0000
0010
0000
0001
0000
0000
0001
,
0010
0000
1000
0100
0010
0001
0200
0310
,
0200
0000
0300
0000
0000
0000
0010
2000
0000
0000
3100
0000
0010
0000
0000
0011
,
0000
0000
0102
0000
0000
0103
0010
1000
0001
1000
0001
1000
0010
0000
0000
0000
,
0101
0000
0000
0000
0100
0000
0000
0010
1000
0000
1000
0000
0100
0000
0000
0010
,
0001
0000
0001
0010
0100
0001
0200
1300
,
0200
0000
0300
0000
0000
0000
0010
0000
0001
0000
0100
2000
0000
0000
0000
3100
,
0010
0000
1000
0000
0010
0000
0001
0010
0000
0010
1000
0000
0001
0000
0010
0100
,
0000
0100
1000
0000
0010
0000
0000
0100
0001
0000
0001
0000
0010
0000
0000
0100
,
1000
0000
0001
0000
0010
0000
0010
0000
0001
0000
2000
0000
0000
3010
0100
0000
,
0000
0000
0001
0000
1000
0000
0000
1000
0000
0000
0200
0000
0300
0000
0000
0000
,
0010
0000
0001
2000
0000
0000
0000
0000
0100
0000
0000
0000
3000
0000
0000
0000
,
1001
0000
0000
0000
1001
0000
0000
1000
0010
0000
0100
0000
0001
0000
0000
0000
,
1001
0000
1000
0000
0001
0000
0000
0010
0100
0000
1000
0000
0001
0000
0000
0000
,
2001
0000
0000
0000
3010
0000
0000
0010
0100
0000
0001
0000
1000
0000
0000
0000
,
1001
0000
0000
0000
0001
0000
0000
0010
0100
0000
1000
0000
0001
0000
0100
0000
,
0010
0000
1000
0000
0002
0000
0000
0013
0200
0000
1300
0000
0020
0000
0000
0130
,
0002
0000
0013
0000
0200
0000
0000
1300
0001
0000
0010
0000
0100
1000
0010
0100
,
0000
0100
0001
0000
1000
0000
0000
0000
1001
0000
1000
0100
0000
0020
0000
0000
,
0130
1000
0002
0003
0101
0000
1001
0000
,
1000
0100
0010
0000
1001
0000
0001
0000
,
0220
0330
0000
0000
0000
0000
0000
0000
;

//---------------dance-single - ----------------
#NOTES:
     dance-single:
     :
     Medium:
     8:
     0.383,0.420,0.257,0.285,0.090:
0000
0000
0000
0000
,
0000
0000
0000
0000
,
0000
0000
0000
0000
,
0000
0000
0000
0000
,
1010
1001
0001
0000
,
0001
1000
0100
0000
0010
0000
0000
0001
,
0100
0010
1000
0000
1001
0000
0001
0000
,
1001
1000
0100
0010
,
1001
0000
0000
0000
0002
0000
0000
0000
0103
0000
0010
0000
1000
0000
0000
1000
,
0000
0000
0100
0000
0000
0000
0000
0000
0010
0000
0001
0000
1000
0000
0000
1000
,
0000
0010
0000
0010
1000
0010
1000
0100
,
1000
0000
0000
0000
0010
0000
0000
0010
0000
0000
0100
0000
0000
0000
0000
0000
,
1001
0000
0000
0000
0001
0000
0000
0000
0010
0000
0100
0000
1000
0000
0000
1000
,
0000
0010
0000
0000
0200
0000
0302
0000
,
0023
0032
0003
0000
,
1000
0010
0200
0000
0301
0000
0010
0000
,
0100
0000
1000
0000
0001
0100
1000
0000
,
1000
0100
0002
0000
1003
0000
0100
0010
,
0000
0001
0100
0000
0100
0010
0000
0010
,
0000
0010
1000
0100
1000
0000
0001
0000
,
0001
0001
0100
0000
0101
0000
0010
0000
,
1010
0000
1000
0000
1100
0000
0010
0001
,
0100
0001
0000
0001
1000
0010
0100
0001
,
1000
0100
0110
0000
0001
0000
1000
0000
,
1001
1000
1001
0001
,
1001
0000
1000
0010
0001
0010
0200
0300
,
0200
0300
0000
0001
1000
0100
1000
0000
,
1000
0010
0100
0001
2000
0000
0001
0000
,
3100
0100
0010
0000
1001
0000
0010
0000
,
1001
0000
0001
0100
1000
0100
0020
0030
,
0020
0000
0030
0000
0000
0000
0000
0000
0010
0000
1000
0000
0001
0000
0000
0001
,
0000
0020
0000
0000
1000
0000
0100
0000
,
0031
1000
0110
0001
,
0110
0000
1000
0010
1000
0100
0020
0030
,
0010
0000
0000
0010
0001
0100
0002
0000
,
0003
0000
0001
0000
0010
0000
0000
0200
0000
0000
0301
0000
0100
0000
0000
2000
,
0000
3010
0100
0000
0110
0000
0010
0000
,
0110
0010
0100
0100
0001
2000
3000
0000
,
0100
0000
0000
0000
0010
0000
0000
0010
0000
0000
0002
0000
0003
0000
0000
0000
,
1000
0000
0001
0020
0000
0000
0000
0000
0000
0000
0000
0000
0030
0000
0000
0000
,
0110
0000
0000
0000
1001
0000
0000
1000
0000
0000
0010
0000
0100
0000
0000
0100
,
0000
0000
1000
0000
0001
0000
0000
0001
0000
0000
0010
0000
1000
0000
0000
0000
,
1100
0000
0000
0000
1001
0000
0000
1000
0000
0000
0010
0000
0100
0000
0000
0100
,
0000
0000
0001
0000
1000
0000
0000
1000
0000
0000
0100
0000
0010
0000
0001
0000
,
1000
0000
0001
0000
0020
0000
0000
0030
0020
0000
0000
0030
0020
0000
0000
0030
,
0020
0000
0000
0030
0020
0000
0000
0030
0020
0000
0000
0030
0001
1000
0001
2000
,
0000
0000
3001
0000
0000
0000
0000
0000
0000
0000
0001
0100
0000
0020
0000
0000
,
1030
0100
0110
0000
0001
0000
0100
0000
,
0110
1000
0001
0000
1001
0000
0001
0000
,
2002
3003
0000
0000
0000
0000
0000
0000
;

//---------------dance-single - ----------------
#NOTES:
     dance-single:
     :
     Easy:
     5:
     0.221,0.349,0.105,0.105,0.005:
0000
0000
0000
0000
,
0000
0000
0000
0000
,
0000
0000
0000
0000
,
0000
0000
0000
0000
,
1000
1001
0000
0000
,
0001
0001
0000
0100
,
0010
1000
0000
1000
,
0000
1000
1000
0010
,
0000
0100
0001
0010
,
0100
1000
1000
0010
,
1000
0100
0000
0010
,
0000
0001
0001
0100
,
0000
0000
0100
0001
,
0010
0100
1000
0010
,
1000
0100
0010
0001
,
0100
0001
1000
0000
,
0000
0000
1000
1000
,
0000
0001
0010
0001
,
0000
0100
0000
0100
,
0000
0100
0010
1000
,
1000
0001
0100
0001
,
0100
0010
1000
0010
,
1000
0001
1000
0100
,
0100
1001
0000
0000
,
0000
0001
1001
1000
,
1000
0010
0100
0010
,
0010
0000
1000
1000
,
0000
0001
0001
1000
,
0100
1000
1001
0001
,
0001
0100
0010
0100
,
0100
0000
0000
0000
0010
0000
0000
0000
1000
0000
0000
0000
0001
0000
0000
0001
,
0000
0200
0000
0000
0000
0000
0010
0000
,
0300
0100
0110
0010
,
0110
1000
0001
1000
,
1000
0000
0001
0001
,
0000
0010
0200
0300
,
0000
1000
1001
0001
,
1001
0000
1000
0000
0100
0010
0000
0000
,
0000
0010
0001
0100
,
0010
2000
0000
3000
,
1001
0011
0001
0000
,
0001
0000
1000
0000
,
2000
0000
3020
0030
0100
0000
0000
0000
,
0100
0000
0001
0000
,
0001
0020
0230
0320
,
0230
0320
0230
1300
,
0001
0000
0001
0100
,
0010
1000
0001
0100
,
0001
0000
0001
0000
,
1001
0000
0000
0000
;

//---------------dance-single - ----------------
#NOTES:
     dance-single:
     :
     Beginner:
     3:
     0.120,0.163,0.010,0.029,0.000:
0000
0000
0000
0000
,
0000
0000
0000
0000
,
0000
0000
0000
0000
,
0000
0000
0000
0000
,
1000
1000
0000
0000
,
1000
0000
0000
0000
,
0001
0001
0000
0001
,
0000
0001
0001
0001
,
0000
0100
0000
0010
,
0000
1000
0000
0100
,
0000
0010
0000
0000
,
0000
0000
0000
0000
,
0000
0001
0000
0100
,
0000
0010
0000
1000
,
1000
0001
0000
0000
,
0000
1000
0000
0000
,
0000
0100
0000
0000
,
0000
0010
0010
0010
,
0000
0001
0000
0000
,
0000
0001
0000
0000
,
0000
0100
0000
0100
,
0000
0010
0000
0010
,
0000
2000
0000
0000
,
0000
3001
0000
0000
,
0000
0001
0001
0000
,
0000
1000
0000
0010
,
0000
0100
0000
0001
,
0000
0000
0010
0000
0020
0000
0000
0030
,
0000
0001
0001
0000
,
0000
1000
0000
0010
,
0000
0100
0000
0001
,
0000
0000
0000
0001
,
0000
1000
1000
0000
,
0000
0100
0000
0010
,
0010
0000
0001
0000
,
0001
1000
1000
0000
,
0000
0010
0010
0000
,
0000
0100
0000
0000
,
0000
0001
0000
0000
,
1000
2000
0000
0000
,
3000
1000
0000
1000
,
0000
0100
0000
0100
,
0000
0010
0000
0010
,
0000
0001
0000
0001
,
0000
1000
1000
1000
,
1000
1000
1000
1000
,
0000
0001
0000
0100
,
0000
0010
0000
0000
,
1000
0000
0001
0000
,
1001
0000
0000
0000
;

//---------------dance-double - ----------------
#NOTES:
     dance-double:
     :
     Hard:
     12:
     0.527,0.560,0.285,0.295,0.314: // measure 1
00000000
00000000
00000000
00000000
,  // measure 2
00000000
00000000
00000000
00000000
,  // measure 3
00000000
00000000
00000000
00000000
,  // measure 4
00000000
00000000
00000000
00000000
,  // measure 5
00020000
00031000
00011000
00010000
,  // measure 6
00011000
01000000
00010000
10000000
10010000
00000000
10000000
00010000
,  // measure 7
00100000
00001000
00000010
00000000
00001001
00000000
00000100
00000000
,  // measure 8
00001001
00001000
00000100
00000000
00010000
00000000
00001000
00000000
,  // measure 9
00011000
00000000
00000000
00000000
00010000
00000000
00001000
00000000
00100000
00000000
00010000
00000000
10000000
00000000
00000000
00100000
,  // measure 10
00000000
00000000
00010000
00000000
00001000
00000000
00000000
00000100
00000000
00000000
00000010
00000000
00001000
00000000
00000000
00000100
,  // measure 11
00000000
00000000
00000010
00000000
00000001
00000000
00000100
00000000
00001000
00000000
00010000
00000000
01000000
10000000
00000000
10000000
,  // measure 12
01000000
00000000
00000000
00000000
11000000
00000000
00000000
10010000
00000000
00000000
01010000
00000000
01000000
00000000
00000000
00000000
,  // measure 13
00012000
00000000
00003010
00000001
00000100
00001000
00010000
00100000
,  // measure 14
00000000
01000000
00000000
00000000
00010000
00000000
00000000
00100000
00000000
00000000
01000000
00000000
00020000
00000000
00000000
00000000
,  // measure 15
20030000
00000000
00000000
00000000
30100000
00000000
00001000
00000000
00010000
00000010
00001000
00000000
00000001
00000010
00000000
00000100
,  // measure 16
00000000
00000000
00010000
00000000
00001000
00100000
00000000
01000000
00000000
10000000
00010000
00000000
01010000
00000000
00000000
00000000
,  // measure 17
01100000
00000000
00100000
00000000
10100000
00000000
00000000
00000000
10000000
01000000
00000000
00010000
00000000
00000000
00000000
00000000
,  // measure 18
01000000
10000000
00100000
00000000
00010000
00001000
00000010
00000001
,  // measure 19
00000000
00000001
00000100
00001000
00010000
00001000
00000100
00000001
,  // measure 20
00000010
00000000
00001000
00000000
00010000
00100000
01000000
00000000
00010000
00100000
01000000
00000000
10000000
00000000
01000000
00020000
,  // measure 21
00000000
00000000
00031000
00000000
00000010
00000000
00000001
00000200
00000000
00000000
00001300
00000000
00010000
00000000
01000000
20000000
,  // measure 22
00000000
00000000
30100000
00000000
10000000
00000000
00000000
01000000
00100000
00000000
00000000
00000000
00001000
00000000
00010000
00000000
,  // measure 23
00000010
00000000
00000100
00000000
00000001
00001000
00000001
00001000
00000100
00000010
00000100
00000010
00001000
00010000
00001000
00010000
,  // measure 24
01000000
00100000
01000000
00100000
00010000
00000000
00000000
00000000
01000000
00000000
00100000
00000000
10000000
00000000
00000000
00000000
,  // measure 25
10010000
00000000
00000000
00000000
01100000
00000000
00000000
00001000
00010000
00000000
00000010
00000000
00000110
00000000
00000000
00010000
,  // measure 26
00001000
00000000
00100000
00010000
10000000
00100000
00020000
00031000
,  // measure 27
00020000
00000000
00030000
00000000
00000000
00000000
00001000
00000000
00000010
00000000
00000100
00002000
00000000
00000000
00003000
00000000
,  // measure 28
00000001
00000010
00000100
00010000
00001000
00100000
00010000
10000000
,  // measure 29
00100000
00000000
01000000
00000000
01100000
00000000
00000000
00001000
00010000
00000000
00000100
00000000
00000110
00000000
00000000
00010000
,  // measure 30
00001000
00000000
00100000
00010000
00010000
10000000
00200000
00310000
,  // measure 31
00002000
00000000
00003000
00000000
00000010
00000000
00000001
00000200
00000000
00000000
00000310
00000000
00010000
00000000
00000000
01000000
,  // measure 32
00000000
00000000
20000000
00000000
30100000
01000000
00100000
01000000
00001000
00010000
00001000
00010000
00000020
00000000
00000030
00000000
,  // measure 33
00001010
00000000
00000000
00000000
00001001
00000000
00000000
00001000
00010000
00000000
10000000
00000000
10010000
00000000
00000000
00010000
,  // measure 34
00001000
00000000
00000010
00000001
00001000
00000100
00002000
00013000
,  // measure 35
02000000
00000000
03000000
00000000
10000000
00000000
00100000
00000000
01000000
00000000
00001000
00020000
00000000
00000000
00000000
00000000
,  // measure 36
00031000
00000000
00000010
00000000
00000001
00000000
00000100
00000010
00000000
00000010
00010000
00000000
00001000
00000000
00100000
01000000
,  // measure 37
00000000
01000000
10000000
00000000
10010000
00000000
00000000
00010000
00001000
00000000
00000001
00000000
00001001
00000000
00000000
00001000
,  // measure 38
00010000
00000000
00100000
00000000
10000000
00000000
10000000
00000000
00100000
00000000
01000000
00000000
10000000
00000000
01000000
00010000
,  // measure 39
00000000
00000000
10000000
00000000
01000000
00000000
00000000
01000000
00000000
00000000
00200000
00000000
00300000
00000000
00000000
00000000
,  // measure 40
00001000
00000000
00000010
00000001
00000100
00000000
00001000
00000000
00010000
00000000
01000000
00000000
10000000
00000000
00010000
00000000
,  // measure 41
10010000
00000000
00000000
00000000
10100000
00000000
00000000
00100000
01000000
00000000
00001000
00000000
00010000
00000000
00000000
00001000
,  // measure 42
00010000
00000000
00000010
00000000
00000110
00000000
00000000
00000100
00000001
00000000
00001000
00000000
00000100
00000000
00000000
00000000
,  // measure 43
00002100
00000000
00000000
00000000
00013000
00000000
00000000
00100000
01000000
00000000
10000000
00000000
00010000
00000000
00000000
00010000
,  // measure 44
01000000
00000000
00001000
00000000
00010000
00000000
00000000
00000010
00000100
00000000
00000001
00000000
00000010
00000000
00000001
00000000
,  // measure 45
00000100
00000000
00001000
00000000
00020000
00000000
00030000
00100000
00020000
00000000
00031000
00000000
00020000
00000000
00030000
01000000
,  // measure 46
00020000
00000000
00031000
00000000
00020000
00000000
00030000
00100000
00020000
00000000
00031000
00000000
00100000
00010000
10000000
00200000
,  // measure 47
00000000
00000000
00310000
00000000
00001000
00000000
00000000
00001000
00010000
00000000
00010000
00000100
00000000
00000000
00000020
00000000
,  // measure 48
00000031
00000100
00000110
00000000
00021000
00000000
01030000
00000000
,  // measure 49
10000000
00100000
01000000
00000000
00010000
00100000
00001000
00000000
,  // measure 50
00022000
00033000
00000000
00000000
00000000
00000000
00000000
00000000
;

//---------------dance-double - ----------------
#NOTES:
     dance-double:
     :
     Medium:
     9:
     0.382,0.419,0.247,0.152,0.124:
00000000
00000000
00000000
00000000
,
00000000
00000000
00000000
00000000
,
00000000
00000000
00000000
00000000
,
00000000
00000000
00000000
00000000
,
00011000
00010010
00001010
00000100
,
00000001
00001000
00000100
00000100
00010000
00000000
01000000
10000000
,
01000000
00100000
00001000
00000000
00011000
00000000
00010000
00000000
,
00011000
00001000
00010000
00000000
00001000
00000000
00000010
00000000
,
00001001
00000000
00000000
00000000
00000002
00000000
00000000
00000000
00000103
00000000
00001000
00000000
00010000
00000000
00000000
00100000
,
00000000
00000000
01000000
00000000
00010000
00000000
00000000
10000000
00000000
00000000
01000000
00000000
00010000
00000000
00000000
00001000
,
00000000
00000000
00000010
00000000
00000001
00000000
00000100
00000000
00000001
00000000
00000010
00000000
00000001
00000000
00000000
00000100
,
00000000
00000000
00000000
00000000
00000001
00000000
00000000
00000010
00000000
00000000
00000100
00000000
00000000
00000000
00000000
00000000
,
00010000
00000000
00000000
00000000
00001000
00000000
00000000
00000000
00100000
00000000
00010000
00000000
10000000
00000000
00000000
00100000
,
00000000
00000000
00010000
00000000
00001000
00000000
00000000
00000100
00000000
00000000
00000010
00000000
00001000
00000000
00000000
00000000
,
00000100
00000000
00000000
00000000
00000001
00000000
00000100
00000000
00000010
00000000
00000001
00000000
00000100
00000000
00000000
00001000
,
00000000
00000000
00010000
00000000
00100000
00000000
00000000
01000000
00000000
00000000
00010000
00000000
10000000
00000000
00000000
00000000
,
01000000
00000000
00100000
00000000
00001000
00010000
00001000
00000000
,
00000000
00001000
00000010
00000000
00000001
00000000
00000100
00001000
,
00000000
00001000
00010000
00000000
00010000
00100000
00000000
10000000
,
00000000
01000000
00100000
00001000
00010000
00000000
00000010
00000100
,
00000001
00000010
00000110
00010000
,
00011000
01000000
01100000
10000000
,
10010000
00000000
00010000
00100000
00001000
00010000
00000010
00001000
,
00000001
00000100
00000110
00000000
00010000
00000000
00001000
00000000
,
00100000
00010000
10010000
10000000
,
10010000
00000000
00010000
01000000
00001000
00010000
00000200
00000300
,
00000200
00000300
00000000
00000000
00000010
00000001
00000010
00000000
,
00000010
00000100
00010000
00001000
00010000
00001000
00100000
00010000
,
10000000
01000000
00100000
00000000
10010000
00000000
01000000
00000000
,
10010000
00000000
00010000
00100000
00001000
00010000
00000020
00000030
,
00000020
00000000
00000030
00000000
00000100
00000000
00000000
00000001
00000000
00000000
00001000
00000000
00000010
00000000
00000000
00010000
,
00000000
00001000
00100000
00000000
00010000
00000000
10000000
00000000
,
10010000
10000000
10010000
00001000
,
00011000
00000000
00001000
00010000
00000100
00000010
00000002
00000003
,
00000002
00000003
00000000
00000100
00000010
00000100
00000010
00000000
,
00000000
00000000
00010000
00000000
00001000
00000000
00000000
02000000
00000000
00000000
03010000
00000000
10000000
00000000
00000000
02000000
,
00000000
03100000
00001000
00000000
00011000
00000000
00000001
00000000
,
00001001
00000001
00001000
00001000
00000010
00000100
00000000
00000000
,
00001000
00000000
00000000
00000000
00010000
00000000
00000000
01000000
00000000
00000000
00100000
00000000
00000000
00000000
00000000
00000000
,
00010000
00000000
01000000
00020000
00000000
00000000
00000000
00000000
00000000
00000000
00000000
00000000
00030000
00000000
00000000
00000000
,
10010000
00000000
00000000
00000000
10010000
00000000
00000000
10000000
00000000
00000000
00100000
00000000
01000000
00000000
00000000
01000000
,
00000000
00000000
00001000
00000000
00010000
00000000
00000000
00010000
00000000
00000000
00000100
00000000
00001000
00000000
00000000
00000000
,
00001100
00000000
00000000
00000000
00001001
00000000
00000000
00000010
00000000
00000000
00000001
00000000
00000100
00000000
00000000
00000100
,
00000000
00000000
00000010
00000000
00010000
00000000
00000000
00010000
00000000
00000000
00001000
00000000
01000000
00000000
00010000
00000000
,
01000000
00010000
20000000
30000000
20000000
30000000
20000000
30000000
,
20000000
00000000
30000000
00000000
20000000
00000000
30000000
00000000
20000000
00000000
30000000
00000000
00010000
10000000
00010000
10000000
,
00000000
00010000
00000000
00000000
01000000
00000000
00000000
00100000
00000000
00000000
00010000
00000000
00001000
00000000
00000000
00001000
,
00000000
00000100
00000001
00000000
00001000
00000000
00000100
00000000
,
00001100
00000100
00010000
00000000
00001000
00000000
10000000
00000000
,
10010000
00000000
00000000
00000000
;

//---------------dance-double - ----------------
#NOTES:
     dance-double:
     :
     Easy:
     5:
     0.186,0.326,0.029,0.076,0.005:
00000000
00000000
00000000
00000000
,
00000000
00000000
00000000
00000000
,
00000000
00000000
00000000
00000000
,
00000000
00000000
00000000
00000000
,
00000000
00010000
00000000
00000000
,
00001000
00001000
00000000
00000000
,
01000000
00010000
00000000
10000000
,
00000000
01000000
01000000
01000000
,
00000000
00100000
00000000
00001000
,
00010000
00001000
00000000
00010000
,
00001000
00010000
00000000
00001000
,
00000000
00000100
00000000
00000000
,
00000001
00001000
00000000
00000100
,
00000010
00000100
00000000
01000000
,
00100000
01000000
00000000
00010000
,
00000000
10000000
00000000
01000000
,
00100000
00001000
00000000
00010000
,
00000000
00000010
00000010
00000100
,
00000000
00000001
00000000
00001000
,
00000000
00000100
00000000
00010000
,
00001000
00010000
00000000
01000000
,
00000000
10000000
00000000
00100000
,
00000000
00010000
00001000
00010000
,
00001000
00011000
00000000
00000000
,
00000000
00010000
00010000
00001000
,
00001000
00010000
00000100
00001000
,
00001000
00000000
00000001
00000000
,
00000100
00000010
00010000
00001000
,
00100000
00010000
00010000
10000000
,
10000000
00100000
01000000
00001000
,
00001000
00000000
00000000
00000000
00000000
00000000
00000000
00000000
00010000
00000000
00000000
00000000
00000100
00000000
00000000
00000100
,
00000000
00002000
00000000
00000000
00000000
00000000
00000000
00000000
,
00003000
00000001
00000001
00000100
,
00000100
00000010
00010000
00001000
,
00001000
00000000
00100000
01000000
,
00000000
10000000
00100000
10000000
,
00010000
00100000
00100000
00001000
,
00001000
00010000
00000010
00000000
,
00000100
00000001
00001000
00000001
,
00000100
00000020
00000000
00000030
,
00010000
01000000
00000000
10000000
,
00000000
00100000
00000000
01000000
,
00000000
00001000
00000000
00000100
,
00000000
00000001
00000000
00000010
,
00000000
00000000
00000002
00000003
00000002
00000003
00002000
00003000
,
00002000
00003000
00000002
00000003
00000002
00000003
00000100
00000000
,
00000010
00010000
00000000
00001000
,
00100000
10010000
10000000
00000000
,
01000000
00000000
00010000
00000000
,
00011000
00000000
00000000
00000000
;
