#VERSION:0.83;
#TITLE:星屑ストラック;
#SUBTITLE:;
#ARTIST:t+pazolite;
#TITLETRANSLIT:Hoshikuzu Struck;
#SUBTITLETRANSLIT:;
#ARTISTTRANSLIT:;
#GENRE:;
#CREDIT:;
#MUSIC:Hoshikuzu Struck.ogg;
#BANNER:Hoshikuzu Struck.png;
#BACKGROUND:Hoshikuzu Struck-bg.png;
#CDTITLE:;
#SAMPLESTART:92.950;
#SAMPLELENGTH:15.000;
#SELECTABLE:YES;
#OFFSET:1.686;
#BPMS:0.000=220.000;
#STOPS:;
#BGCHANGES:;
#FGCHANGES:;

//--------------- dance-single - Talkion ----------------
#NOTEDATA:;
#STEPSTYPE:dance-single;
#DESCRIPTION:Talkion;
#DIFFICULTY:Beginner;
#METER:9;
#RADARVALUES:0,0,0,0,0;
#NOTES:
0000
0000
0000
0000
,
0000
0000
0000
0000
,
0000
0000
0000
0000
,
1001
0000
0000
1000
,
0100
0010
0001
0000
,
1001
0000
0000
1000
,
1000
0000
0000
0010
0000
0100
0000
0000
,
0101
0000
0000
0000
0000
0001
0000
0000
,
1000
1000
0100
0000
,
1000
0000
0000
0001
0000
0000
0100
0000
,
0010
0010
0010
0000
,
1000
0001
0020
0030
,
0010
0010
0001
2000
,
3010
0100
0010
0100
,
0001
0000
0000
0001
0000
0000
2000
0000
0000
0000
0000
0000
3000
0000
0000
0000
,
0001
1000
0200
0300
,
0100
0100
1000
0002
,
0103
0010
0100
0010
,
1000
0000
0000
1000
0000
0000
0002
0000
0000
0000
0000
0000
0003
0000
0000
0000
,
0000
0000
1000
0000
0000
1000
0000
0000
,
0000
0000
0001
0000
0000
0001
0000
0000
,
0000
0000
1000
0000
0000
1000
0000
0000
,
0000
0000
0000
0000
,
1001
0000
0002
0000
0013
0000
0000
0100
,
0000
0000
0000
0100
1000
0000
0001
0000
,
0200
0000
0000
0000
0310
0000
0000
1000
,
0000
0000
0000
1000
0002
0000
0000
0000
,
1003
0000
2000
0000
3100
0000
0000
0010
,
0000
0000
0000
0010
0001
0000
1000
0000
,
0002
0000
0000
0000
,
0000
0000
0003
0000
,
1000
0000
2000
0000
3010
0000
0000
0100
,
0000
0000
0000
0100
0001
0000
1000
0000
,
0200
0000
0000
0000
0310
0000
0000
0001
,
0000
0000
0000
0001
2000
0000
0000
0000
,
3001
0001
0001
0000
,
1000
0001
1000
0001
,
2000
0000
0000
0000
,
3100
0000
0000
1001
,
0001
0100
0001
0100
,
2000
3000
0200
0300
,
0001
0100
0001
0100
,
0010
0000
0000
0010
0000
0000
1000
0000
0002
0000
0000
0000
0003
0000
0000
0000
,
1000
0100
1000
0100
,
0002
0003
0200
0300
,
1000
0100
1000
0100
,
0020
0000
0030
0010
0000
0000
1001
0000
,
1000
0010
1000
0010
,
0002
0003
0020
0030
,
1000
0010
1000
0010
,
0100
0000
0000
0100
0000
0000
0001
0000
1000
0000
0000
0000
0000
0000
0000
0000
,
0002
0003
0002
0003
,
2000
3000
2000
3000
,
0001
1000
0001
1000
,
0020
0000
0000
0030
,
0200
0000
0000
0000
,
0000
0000
0000
0000
,
0000
0000
0000
0000
,
0000
0000
0000
0300
,
0100
0000
0000
0000
0010
0000
0000
0010
,
0000
0000
2000
3000
,
1000
1000
0001
0001
,
2000
3002
0013
0000
,
0100
1000
0100
1000
,
0010
1000
0010
1000
,
0010
0001
0010
0001
,
0100
0001
0100
0001
,
0100
1000
0100
1000
,
0001
1000
0001
1000
,
0001
0001
0100
0100
,
0020
0030
0010
0000
,
0000
0000
0000
0000
,
0000
0000
0000
0000
,
0000
0000
0000
0000
,
0000
0000
0000
0000
,
2000
3000
0020
0030
,
0200
0300
0002
0003
,
1000
0000
0000
0001
0000
0010
0000
0200
,
0000
0000
0000
1300
,
0002
0003
0200
0300
,
0020
0030
2000
3000
,
0001
0000
0000
1000
0000
0100
0000
0020
,
0000
0000
0000
0031
,
2000
3000
0002
0003
,
0200
0300
0020
0030
,
1000
0000
0000
0110
0000
0110
0000
0110
,
0000
0000
0000
1001
,
0002
0103
2000
3100
,
0002
0013
2000
3010
,
0001
0000
1000
0001
0000
0100
0000
0020
,
0000
0000
0000
1030
,
0002
0013
2000
3010
,
0002
0103
2000
3100
,
0001
0000
1000
0001
0000
0100
0000
2000
,
0000
0000
0000
3100
,
0002
0013
2000
3100
,
0002
0013
2000
3100
,
0001
0000
1000
0001
0000
0010
0000
0200
,
0000
0000
0000
1300
,
0001
0001
1000
1000
,
0020
0230
0302
2003
,
3001
0000
0000
1001
0000
0110
0000
1001
,
0000
0000
0000
0000
,
1001
0000
2000
0000
3100
0000
0000
0010
,
0000
0000
0000
0010
0001
0000
1000
0000
,
0020
0000
0000
0000
0130
0000
0000
0001
,
0000
0000
0000
0001
2000
0000
0000
0000
,
3001
0000
0002
0000
0013
0000
0000
0100
,
0000
0000
0000
0100
1000
0000
0001
0000
,
0200
0000
0000
0000
0310
0000
0000
2000
,
0000
0000
0000
0000
3000
1000
0001
0000
,
1001
0000
0000
1000
,
0010
0100
0001
0000
,
1001
0000
0000
0000
;

//--------------- dance-single - Talkion ----------------
#NOTEDATA:;
#STEPSTYPE:dance-single;
#DESCRIPTION:Talkion;
#DIFFICULTY:Easy;
#METER:13;
#RADARVALUES:0,0,0,0,0;
#NOTES:
0000
0000
0000
0000
,
0000
0000
0000
0000
,
0000
0000
0000
0000
,
1001
0000
0000
0000
0001
0100
0000
0010
,
0000
1000
0001
0010
,
0110
0000
0000
0100
0000
0000
1000
0000
,
0010
0000
0000
0100
0000
0001
0000
0000
,
1001
0000
0000
0000
1000
0100
0000
0010
,
0000
0001
1000
0010
,
0110
0000
0000
0100
0000
0000
0001
0000
,
1000
1000
0001
0020
,
0130
0000
1000
0001
1000
0010
0000
0001
,
0000
0010
1000
0000
0100
0000
0010
0000
,
0011
0000
0001
1000
0000
1000
0010
0000
,
1000
0000
0000
1000
0000
0000
1000
0000
0000
0000
0000
0000
0002
0000
0000
0000
,
0013
0000
0001
1000
0001
0100
0000
1000
,
0000
0100
0001
0000
0010
0000
0100
0000
,
1100
0000
1000
0001
0000
0001
0100
0000
,
0001
0000
0000
0001
0000
0000
0001
0000
0000
0000
0000
0000
2000
0000
0000
0000
,
3100
0000
0010
0000
0000
0010
0000
0000
,
0100
0000
0010
0000
0000
0010
0000
0000
,
0001
0000
1000
0001
0400
0000
0000
0000
,
0310
0000
0100
0100
,
1001
0000
0001
0010
0001
0000
0000
0201
,
0000
0000
0000
0310
1000
0000
0001
0000
,
0020
0000
0000
0000
0130
0000
0000
1100
,
0000
0000
0000
1000
0004
0000
0000
0000
,
0103
0000
0001
0100
0001
0000
0000
0021
,
0000
0000
0000
0130
1000
0000
0001
0000
,
0200
0000
0000
0010
,
0340
0000
0000
0000
1030
0010
1000
0000
,
1001
0000
0001
0010
0100
0000
0000
2100
,
0000
0000
0000
3010
1000
0000
0001
0000
,
0201
0000
0000
0000
0310
0000
0000
1010
,
0000
0000
0000
1000
0004
0000
0000
0000
,
0013
0000
0100
0000
1000
0000
0001
0100
,
0001
0100
0001
0100
0010
1000
0001
0010
,
0200
0000
0000
0000
,
1300
0000
0000
1001
,
0001
0000
0100
0000
010M
1000
0001
0000
,
4000
0000
3100
0000
0002
0100
0103
0000
,
1000
0000
0010
0000
M010
0001
1000
0000
,
0010
0000
0000
0010
0000
0000
0010
0000
2000
0000
0000
0000
3000
0000
0000
0000
,
0001
0000
0010
0000
001M
1000
0001
0000
,
4000
0000
3010
0000
0002
0010
0013
0000
,
1000
0000
0100
0000
M100
0001
1000
0000
,
0002
0000
0000
0103
0001
0000
1001
0000
,
2000
0000
0010
0000
3001
1000
0001
0000
,
1000
0100
0010
0100
1000
0010
0100
0000
,
0002
0000
0100
0000
1003
0001
1000
0000
,
0010
0000
0000
0010
0000
0000
0010
0000
2000
0000
0000
0000
3000
0000
0000
0000
,
0001
0010
1000
0000
10M0
0100
0001
0000
,
0M01
0010
1000
0000
10M0
0100
0001
0000
,
0100
1000
0100
1000
0004
0000
0000
0000
,
0103
0010
2000
3001
,
0000
0000
0000
0000
,
0000
0000
0000
0000
,
0000
0000
0000
0000
,
0000
0000
0000
0000
,
1000
0000
0010
0000
1000
0000
0001
0001
,
0000
0010
0001
1000
,
0010
0000
0010
0000
0100
0010
0010
0000
,
4000
0000
0000
0000
3004
0000
0000
0000
0013
0000
0000
0040
0000
0000
0000
0000
,
0130
1000
0010
0001
,
0100
1000
0010
0001
,
0100
1000
0010
0001
,
0100
1000
0010
0100
,
0001
1000
0100
1000
0001
1000
0100
0010
,
0001
1000
0010
1000
0001
1000
0010
0100
,
0004
0000
1003
1000
0004
0000
1003
1000
,
0100
0100
1001
0000
,
0000
0000
0000
0000
,
0000
0000
0000
0000
,
0000
0000
0000
0000
,
0000
0000
0000
1001
,
0002
1000
0203
0010
,
0302
1000
0023
0100
,
0031
0000
1000
0010
0000
0001
0000
0010
,
1000
1000
0001
0000
0010
0100
1000
0000
,
0002
0100
2003
0010
,
3002
0100
2003
0010
,
3001
0000
1000
0100
0000
0001
0000
0100
,
1000
1000
0001
0000
0100
0010
1000
0000
,
0001
0001
1000
1000
,
0001
0010
0100
1000
0010
0100
0001
0000
,
0101
0000
0000
1010
0000
1001
0000
0012
,
0000
0000
0000
0103
,
0010
1000
0001
0010
10M0
0001
0010
0000
,
0001
1000
0100
0000
1000
0100
0010
0000
,
0100
1000
0001
0100
1M00
0001
0100
0000
,
0001
0100
0010
0000
1000
1000
0004
0000
,
0103
0010
1000
0100
0010
10M0
0001
0000
,
1000
0001
0010
0000
0001
0010
0100
0000
,
2000
0000
3002
0000
1003
0001
0100
0000
,
0010
0000
0010
0000
0010
1000
0004
0000
,
0013
0001
1000
0010
00M1
1000
0010
0000
,
0001
0010
1000
0000
0010
1000
0001
0000
,
0100
0001
1000
0100
0M01
1000
0100
0000
,
0001
0100
1000
0000
0001
0001
4000
0000
,
3010
0100
0010
0100
0010
0100
0010
0100
,
0004
4003
3400
0340
,
0031
0000
0000
0011
0000
1001
0000
2010
,
0000
0000
0001
3001
,
1001
0000
1000
0100
1000
0000
0000
1020
,
0000
0000
0000
0130
0001
0000
1000
0000
,
0200
0000
0000
0000
0310
0000
0000
0011
,
0000
0000
0000
0001
4000
0000
0000
0000
,
3010
0000
1000
0010
1000
0000
0000
1200
,
0000
0000
0000
0310
0001
0000
1000
0000
,
0020
0000
0000
0000
0130
0000
0000
0101
,
0000
0001
1000
1000
0100
0010
0001
0000
,
1001
0000
0000
0000
1000
0010
0000
0100
,
0000
0001
1000
0100
,
0110
0000
0000
0000
;

//--------------- dance-single - Talkion ----------------
#NOTEDATA:;
#STEPSTYPE:dance-single;
#DESCRIPTION:Talkion;
#DIFFICULTY:Medium;
#METER:15;
#RADARVALUES:0,0,0,0,0;
#NOTES:
0000
0000
0000
0000
,
0000
0000
0000
0000
,
0000
0000
0000
0000
,
1001
0000
0000
0000
0001
0100
0000
0010
,
1000
1000
0001
0000
0010
0002
0000
1003
,
1010
0000
0000
0010
0000
0000
0100
0001
,
1000
0000
0100
1000
1000
0001
0000
0100
,
0110
0000
0000
0000
0010
0100
0000
0001
,
1000
1000
0100
0000
0010
0002
0000
1003
,
0010
M010
0001
1000
0000
0010
M010
0001
,
1000
1000
0001
0200
,
0310
0000
0100
0010
1000
0001
0000
0001
,
1000
0100
0010
0100
1000
0000
0001
0001
,
0400
0300
0100
0010
0100
0010
1000
0001
,
0010
0000
0000
0010
0000
0000
0010
0000
0000
0000
0001
0000
1000
0000
1000
0000
,
0100
0000
0010
0100
1000
0001
0000
0001
,
1000
0010
0100
0010
1000
0000
0001
0001
,
0040
0030
0010
0100
0010
0100
1000
0001
,
0100
0000
0000
0100
0000
0000
0100
0000
0000
0000
0010
0000
1000
0000
0100
0000
,
0020
0000
0031
0010
0000
0010
1000
0010
,
0001
0000
0001
0010
0000
0010
1000
0010
,
0001
1000
0010
0100
0001
0010
0100
1000
,
0020
0000
0000
0000
0130
0010
0010
1000
,
2010
0000
3001
0010
001M
0000
1000
1020
,
0000
0000
0000
0130
0001
0000
1000
0000
,
1200
0000
0000
0000
0310
0000
0000
0011
,
0000
0001
1000
0001
0400
0000
0340
0000
,
2030
0000
3001
0100
010M
0000
1000
1200
,
0000
0000
0000
0310
0001
0000
1000
0000
,
1002
0000
0000
0000
0000
0000
0100
0103
,
0040
0000
0000
0000
0000
0000
0000
0000
1030
0000
0001
0010
0001
0000
1000
0000
,
0020
0000
1030
0010
M010
0000
0001
0012
,
0000
0000
0000
0103
0010
0000
1000
0000
,
2001
0000
0000
0000
3100
0000
0000
1100
,
0000
1000
0010
0100
0004
0000
4003
0000
,
3200
0000
1300
0100
M100
0000
0001
1000
,
0001
0100
0010
1000
0100
0010
0001
1000
,
0020
0000
0100
0000
0130
0010
0100
0010
,
0110
0000
0000
1001
,
1000
0100
M100
0001
0010
001M
1000
0001
,
4000
0000
0000
0000
3100
0000
1000
0001
0000
0001
1000
0000
0010
0000
0100
0000
,
0001
0010
001M
1000
0100
M100
0001
1000
,
0001
0000
0000
0010
0000
0000
0100
0000
2200
0000
0000
0000
3300
0000
0000
0000
,
1000
0010
M010
0001
0100
010M
1000
0001
,
4000
0000
0000
0000
3010
0000
1000
0001
0000
0001
1000
0000
0100
0000
0010
0000
,
0001
0100
010M
1000
0010
M010
0001
1000
,
0020
0000
0000
0130
0010
0000
1001
0000
,
0001
0010
1000
0001
0100
1000
0001
0010
,
4000
0000
0000
0000
3010
0000
0001
1000
0000
1000
0001
0000
0100
0000
0001
0000
,
1000
0100
0001
1000
0010
0001
1000
0100
,
0010
0000
0000
0001
0000
0000
1000
0000
2020
0000
0000
0000
3030
0000
0000
0000
,
1000
0010
0001
0010
1000
0100
0001
0100
,
1000
0010
0001
0010
1000
0100
0001
0100
,
0010
0001
1000
0001
0400
0000
0000
0000
,
0310
0000
0000
0000
1000
0000
0010
0100
0001
0000
0100
0010
1000
0000
0000
0000
,
0020
0000
0000
0000
,
0000
0000
0000
0000
,
0000
0000
0000
0000
,
0000
0000
0000
0030
,
0010
0000
1000
0100
0010
0000
0100
0010
,
0000
0001
0001
0000
1000
0010
0100
0000
,
0001
1000
0100
1000
0001
0100
0100
0000
,
0040
0000
0000
0000
0430
0000
0000
0000
0310
0000
0000
0040
0000
0000
0000
0000
,
1030
0000
0001
1000
0100
1000
0001
1000
,
0100
0010
0001
1000
0010
0100
0001
1000
,
0100
0010
0100
1000
0100
0010
0100
1000
,
0001
0100
0001
0100
0010
0000
1010
0000
,
1000
0010
0100
0001
0010
0100
1000
0001
,
1000
0100
0010
0001
0100
0010
1000
0001
,
1000
0100
1000
0000
0001
0000
0100
0000
0001
0100
0001
0000
1000
0000
0100
0000
,
4000
3000
4000
3000
1001
0000
0000
0000
,
0000
0000
0000
0000
,
0000
0000
0000
0000
,
0000
0000
0000
0000
,
00M0
0M00
00M0
1001
,
2000
0000
3100
1000
0000
1000
0001
0000
,
0200
0000
0310
0100
0000
0100
0001
0000
,
2000
0000
3100
1000
0000
1000
0001
0100
,
0010
0010
1000
0001
1000
0100
0040
0000
,
0032
0000
0013
0001
0000
0001
1000
0000
,
0020
0000
0130
0010
0000
0010
1000
0000
,
0002
0000
0013
0001
0000
0001
1000
0010
,
0100
0100
0001
1000
0001
0010
0400
0000
,
1300
0000
0001
0100
0010
0100
0001
0100
,
0010
0000
1000
0000
0004
0000
0000
0000
0013
0000
0100
1000
0001
0000
0000
0000
,
0201
0000
0310
1010
0000
1001
0000
1200
,
0000
0000
0310
1001
,
0001
0100
1000
0001
0010
1000
0001
0100
,
1000
0100
0001
0100
0010
1000
0001
1000
,
0100
0001
1000
0010
0001
1000
0100
0001
,
0100
0010
0001
1000
0010
0100
0004
0000
,
1003
0100
0001
1000
0010
0001
1000
0100
,
0001
0100
1000
0100
0010
0001
1000
0001
,
0100
0010
0001
1000
0100
0010
1000
0001
,
0010
0000
0000
0000
0010
0000
0000
0000
0010
0000
0001
1000
0004
0000
0000
0000
,
1003
0001
0100
1000
0001
0010
1000
0010
,
0001
1000
0100
0001
1000
0100
0010
0001
,
1000
0010
0001
1000
0100
0001
0100
1000
,
0001
0010
1000
0001
0010
0100
4000
0000
,
3001
1000
0010
0100
0001
1000
0010
0100
,
0004
0000
0000
0000
4003
0000
0000
0000
3400
0000
0000
0000
0310
0001
0010
0001
,
2000
0000
3010
1010
0000
0101
0000
1002
,
0000
0000
0000
0000
0013
0100
1000
0001
,
0201
0000
0310
0001
00M1
0000
0100
0102
,
0000
0000
0000
1003
0100
0000
1000
0000
,
1002
0000
0000
0000
0103
0000
0000
0110
,
0000
0010
0100
0001
4000
0000
3004
0000
,
0023
0000
0130
0001
0M01
0000
0010
0012
,
0000
0000
0000
1003
0010
0000
1000
0000
,
1004
0000
0000
0000
0013
0000
0000
0110
,
0000
0000
0100
1000
0100
1000
0001
0000
0100
0000
0010
0000
2000
0000
0000
0000
,
3001
0000
0000
0000
1000
0100
0000
0010
,
0001
0001
1000
0000
0010
2000
0000
3001
,
0011
0000
0000
0000
;

//--------------- dance-single - Talkion ----------------
#NOTEDATA:;
#STEPSTYPE:dance-single;
#DESCRIPTION:Talkion;
#DIFFICULTY:Hard;
#METER:18;
#RADARVALUES:0,0,0,0,0;
#NOTES:
0000
0000
0000
0000
,
0000
0000
0000
0000
,
0000
0000
0000
0000
,
1100
0000
0000
0000
1000
0001
0000
0100
,
0010
0000
0010
0000
1000
0000
0001
0000
1000
0010
0100
0000
0000
0000
0001
0100
,
0001
0000
0000
1000
0000
0100
0100
1000
,
0001
0000
0000
0000
0010
0000
0010
0100
1000
0000
0001
0000
0001
0000
0000
0000
,
0011
0000
0000
0000
0010
0001
1000
0010
,
0100
0000
0100
0000
0001
0000
0000
0000
1000
0001
0100
0000
0000
0000
0010
0100
,
0010
0100
0001
1000
0000
0100
0100
1000
,
0001
0001
0100
0020
,
1030
0000
0001
0010
0100
1000
0000
0001
,
0100
0000
1000
0000
0100
0000
0010
0000
1000
0000
0001
0000
1000
0100
1000
0100
,
0040
0000
0030
0000
0010
0000
0001
0000
1000
0000
0001
0000
0100
0010
1000
0000
,
0010
0000
0000
0010
0000
0000
0010
0000
4000
0000
0000
0000
3001
0000
1000
0000
,
0100
0000
1000
0100
0010
0001
0000
1000
,
0010
0000
0001
0000
0010
0000
0100
0000
0001
0000
1000
0000
0001
0010
0001
0010
,
0400
0000
0300
0000
0100
0000
1000
0000
0001
0000
1000
0000
0010
0100
0001
0000
,
0100
0000
0000
0100
0000
0000
0100
0000
0004
0000
0000
0000
0013
0000
0100
0000
,
1000
0000
0001
1000
1000
0100
1000
1000
,
0001
0100
0100
0010
0100
0100
0001
1000
,
0100
0010
0001
0000
1000
0100
0010
0000
0001
1000
0100
1000
0001
1000
0100
1000
,
0001
0000
1000
0010
0100
0001
1000
0000
0001
0000
1000
0100
0010
0000
0001
0000
,
2001
0000
0000
0000
3010
0000
0010
0100
0001
0000
0000
0000
1000
0000
1200
0000
,
0000
0001
0000
0010
0310
0000
0011
0000
,
1002
0000
1000
0000
0103
0000
0010
2010
,
0000
0000
0000
0000
0000
0000
3001
0000
0000
1000
0000
0000
0100
0000
0000
0000
0000
0000
0010
0000
0000
0000
0000
0000
0001
0000
0000
0000
1000
0000
0000
0000
0010
0000
0000
0000
0100
0000
0000
0000
0001
0000
0000
0000
0010
0000
0000
0000
,
0200
0000
0000
0000
1300
0000
1000
0001
0010
0000
0000
0000
0001
0000
0201
0000
,
0000
1000
0000
0010
0310
0000
1010
0000
,
2001
0000
0000
0000
0000
0000
0000
0000
3100
0000
1000
0100
1000
0000
0001
0000
,
0400
0000
0000
0000
0000
0000
0000
0000
0310
0000
1000
0010
0100
0000
0M00
0000
,
1002
0000
0000
0000
0103
0000
0100
0010
1000
0000
0000
0000
0001
0000
0021
0000
,
0000
1000
0000
0100
0130
0000
1100
0000
,
2001
0000
0001
0000
3010
0000
0100
0102
,
0000
0000
0000
0000
0000
0000
1003
0000
0000
0001
0000
0000
0010
0000
0000
0000
0000
0000
0100
0000
0000
0000
0000
0000
1000
0000
0000
0000
0001
0000
0000
0000
0100
0000
0000
0000
0010
0000
0000
0000
1000
0000
0000
0000
0100
0000
0000
0000
,
0020
0000
0000
0000
0031
0000
0001
1000
0100
0000
0000
0000
1000
0000
1000
0000
,
0001
0000
0100
0000
0010
0000
1000
0000
0001
0000
1000
0100
0010
0000
1000
0000
,
0020
0000
0000
0000
0001
0000
0031
0000
1000
0000
0010
0100
0010
0000
1000
0000
,
0001
0000
0000
0110
,
1000
0001
0000
0010
0000
0010
0100
1000
0001
0000
1000
0010
1000
0000
0001
0000
,
0100
0010
0100
0010
1000
0000
0004
1003
0000
1000
0001
0010
0100
0000
1000
0000
,
0001
1000
0000
0010
0000
0010
0100
0001
1000
0000
0100
0010
0001
0000
1000
0000
,
0010
0000
0000
0010
0000
0000
0010
0000
0200
0000
0000
0000
0000
0000
0000
0000
,
0301
1000
0000
0100
0000
0100
0010
0001
1000
0000
0001
0100
0001
0000
1000
0000
,
0010
0100
0010
0100
0001
0000
4000
3001
0000
0001
1000
0100
0010
0000
0001
0000
,
1000
0001
0000
0100
0000
0100
0010
1000
0001
0000
0010
0100
1000
0000
0001
0000
,
0200
0000
0000
0010
0310
0000
1001
0000
,
1000
0100
0000
0M01
0000
1000
0001
0100
0010
0000
0100
0010
0100
0000
0001
0000
,
1000
0100
1000
0100
0010
0000
0004
1003
0000
1000
0001
0100
0010
0000
1000
0000
,
0001
0010
0000
10M0
0000
0001
1000
0010
0100
0000
0010
0100
0001
0000
1000
0000
,
0100
0000
0000
0100
0000
0000
0100
0000
0020
0000
0000
0000
0030
0000
0000
0000
,
0001
0010
0000
10M0
0000
0001
1000
0000
0001
0010
0000
10M0
0000
0001
1000
0000
,
0001
0100
0000
1M00
0000
0001
1000
0000
0001
0100
0000
1M00
0000
0001
1000
0000
,
0001
0000
0100
0000
0010
0000
1000
0000
0001
0100
0001
0100
0010
1000
0010
1000
,
0001
0000
0000
0000
1000
0000
0100
0010
0001
0000
0010
0001
1000
0000
0000
0000
,
0020
0000
0000
0000
,
0000
0000
0000
0000
,
0000
0000
0000
0000
,
0000
0000
0000
0030
,
1000
0001
0001
0010
0001
0001
1000
0010
,
0000
0000
0010
0100
0010
0000
1000
0000
0001
0000
0040
0000
0031
0000
1000
0000
,
0010
0000
0000
0000
0010
0000
0000
0000
0100
0010
0100
0010
1000
0000
0001
0000
,
4000
0000
0000
0000
3004
0000
0000
0000
0013
0000
0000
0400
0000
0000
0000
0000
,
1300
0000
0001
1000
0010
0100
0001
0010
,
0100
0000
1000
0000
0100
0000
0010
0000
0001
0000
1000
0010
1000
0000
0010
0000
,
0100
0000
0001
0000
1000
0000
0100
0000
0010
0000
0001
1000
0001
1000
0010
0000
,
0100
0010
1000
0000
0010
1000
0010
1000
0001
0000
1000
0001
0010
0000
0001
0000
,
1000
0100
0010
0000
0100
0010
0001
0000
0010
0001
1000
0000
0001
1000
0010
0000
,
1000
0010
0100
0000
0010
0100
0001
0000
0100
0001
1000
0000
0001
1000
0100
0000
,
4000
0000
3100
0010
0001
1000
0010
0100
0004
0000
0103
0010
1000
0001
0010
0100
,
4000
3000
4000
3000
1001
0000
0000
0000
,
0000
0000
0000
0000
,
0000
0000
0000
0000
,
0000
0000
0000
0000
,
000M
M000
000M
0110
,
2001
0000
3100
1000
0000
1000
1010
0000
,
1002
0000
0103
0001
0000
0001
0010
0100
,
2100
0000
3001
1000
0000
1000
0010
0100
,
0001
0000
1000
0100
1000
0000
0001
0100
0000
0001
0100
0000
0010
1000
0010
1000
,
0002
0000
0013
0001
0000
0001
0101
0000
,
2001
0000
3100
1000
0000
1000
0010
0100
,
0102
0000
1003
0001
0000
0001
0010
0100
,
1000
0000
0001
0010
0001
0000
1000
0000
0001
0000
0100
0000
0010
1000
0010
1000
,
0001
0000
0000
0000
1000
0000
0001
0000
0010
0000
0100
0000
1000
0001
1000
0000
,
0001
0000
1000
0000
0100
1000
0100
1000
0001
0000
0100
0010
1000
0000
0000
0000
,
1002
0000
0013
1100
0000
1001
0000
0201
,
0000
0000
0310
1001
,
1000
0100
0010
10M0
0100
0010
10M0
0001
,
1000
0010
0100
0000
0010
0100
0001
0000
1000
0001
0010
0000
0001
0010
0100
0000
,
1000
0001
0100
1M00
0001
0100
1M00
0001
,
1000
0010
0100
0001
1000
0000
0001
1000
0100
0010
0001
0000
0010
0001
0010
0001
,
1000
0010
0100
1M00
0010
0100
1M00
0001
,
1000
0100
0010
0000
0100
0010
0001
0000
1000
0001
0100
0000
0001
0100
0010
0000
,
1000
0000
0001
0010
0001
0000
1000
0010
1000
0000
0001
0010
0001
0000
1000
0000
,
0010
0000
0000
0000
0010
0000
0000
0000
0100
0000
0100
0000
0010
1000
0010
1000
,
0001
0010
10M0
0001
0010
10M0
0001
0100
,
0010
0100
0001
0000
0100
0001
1000
0000
0001
1000
0100
0000
1000
0100
0010
0000
,
0001
1000
0010
0100
1M00
0010
0100
1M00
,
0001
1000
0010
0100
0001
0000
1000
0001
0010
0100
1000
0000
0100
1000
0100
1000
,
0001
0100
0010
0100
0001
0100
0010
0100
,
0001
1000
0001
1000
0100
0010
0001
1000
0100
0010
0001
1000
0040
0000
0000
0000
,
0130
0000
0010
0101
0000
1001
0000
1200
,
0000
0000
0301
0100
1000
0010
0100
0001
,
2001
0000
0000
0000
3100
0000
0100
0010
0001
0000
0000
0000
1000
0000
1020
0000
,
0000
0001
0000
0100
0130
0000
0101
0000
,
1002
0000
1000
0000
0013
0000
0100
2100
,
0000
0000
0000
0000
0000
0000
3001
0000
0000
1000
0000
0000
0010
0000
0000
0000
0000
0000
0100
0000
0000
0000
0000
0000
0001
0000
0000
0000
1000
0000
0000
0000
0100
0000
0000
0000
0010
0000
0000
0000
0001
0000
0000
0000
0100
0000
0000
0000
,
0020
0000
0000
0000
1030
0000
1000
0001
0010
0000
0000
0000
0001
0000
0201
0000
,
0000
1000
0000
0010
0310
0000
1010
0000
,
1002
0000
1000
0000
0013
0000
0100
1100
,
0000
0000
1000
0001
0010
0100
1000
0001
0010
0000
0100
0000
0100
0000
0000
0000
,
1001
0000
0000
0000
0001
1000
0000
0010
,
0100
0000
0100
0000
0001
0000
1000
0000
0001
0100
0010
0000
0000
0000
1000
0010
,
1000
0000
0000
0000
;

//--------------- dance-single - Talkion ----------------
#NOTEDATA:;
#STEPSTYPE:dance-single;
#DESCRIPTION:Talkion;
#DIFFICULTY:Challenge;
#METER:19;
#RADARVALUES:0,0,0,0,0;
#NOTES:
0000
0000
0000
0000
,
0000
0000
0000
0000
,
0000
0000
0000
0000
,
0011
0000
0000
0000
0001
1000
0000
0010
,
1000
0000
0001
0010
0001
0000
1000
0000
0010
0100
0001
0000
0000
0000
1000
0100
,
0010
0000
0000
0000
0000
0000
0001
0000
0000
0000
1000
0001
1000
0000
0010
0100
,
0010
0000
0000
0000
1000
0000
1000
0001
0010
0000
0001
0000
0001
0000
0100
0010
,
1000
0000
0000
0000
0000
0000
0000
0000
0001
0000
0010
0100
1000
0001
0010
0100
,
1000
0000
0001
1000
0001
0000
0100
0000
0010
0100
0001
0000
0000
0000
1000
0100
,
0010
0001
1000
0010
0000
0100
0100
0010
,
1000
0001
0010
0200
,
1300
0000
0000
0000
0001
0000
0100
0010
1000
0000
0010
1000
0000
0000
0001
0000
,
0010
0100
1000
0001
0010
0000
0001
0000
1000
0000
0010
0000
0100
0010
0100
0010
,
4000
0000
3001
0000
0001
0000
0010
0000
0001
0000
0001
0000
1000
0010
0100
0000
,
0101
0000
0000
0101
0000
0000
1001
0000
4000
0000
0000
0000
3100
0000
1000
0000
,
0001
0000
0000
0000
1000
0000
0010
0100
0001
0000
0100
0001
0000
0000
1000
0000
,
0100
0010
0001
1000
0100
0000
1000
0000
0001
0000
0100
0000
0010
0100
0010
0100
,
0004
0000
1003
0000
1000
0000
0100
0000
1000
0000
1000
0000
0001
0100
0010
0000
,
1010
0000
0000
1010
0000
0000
1001
0000
0004
0000
0000
0000
0013
0000
0100
0000
,
1000
0000
0001
0100
0100
1000
0100
0100
,
0001
0000
1000
0100
1000
0000
0001
0000
0100
0000
0040
0000
1030
0010
0100
0001
,
1000
0100
0010
0100
1000
0100
0010
0100
1000
0001
0100
0010
1000
0001
0100
0010
,
1000
0001
0010
0001
1000
0001
0010
0001
1000
0000
0010
0100
0001
0000
1000
0000
,
1002
0000
0000
0000
0013
0000
001M
1000
0001
0000
0000
0000
0100
0000
2010
0000
,
0000
0000
3001
1000
0100
0000
0010
0000
0011
0000
0000
0000
1001
0000
0000
0000
,
1020
0000
0001
0000
0130
0000
0010
2010
,
0000
0000
0000
0000
0000
0000
3001
0000
0000
1000
0000
0000
0100
0000
0000
0000
0000
0000
1000
0000
0000
0000
0000
0000
0001
0000
0000
0000
0100
0000
0000
0000
0100
0000
0000
0000
1000
0000
0000
0000
0100
0000
0000
0000
0100
0000
0000
0000
,
0002
0000
0000
0000
0103
0000
010M
1000
0001
0000
0000
0000
0010
0000
2100
0000
,
0000
0000
3001
1000
0010
0000
0100
0000
0101
0000
0000
0000
1001
0000
0000
0000
,
2100
0000
0000
0000
0000
0000
0000
0000
0000
0000
3001
1000
0010
0000
0010
0000
,
0400
0000
0000
0000
0000
0000
0000
0000
0301
0000
0100
0010
0001
0000
00MM
0000
,
2000
0000
0000
0000
3100
0000
M100
0001
1000
0000
0000
0000
0010
0000
0102
0000
,
0000
0000
1003
0001
0010
0000
0100
0000
1100
0000
0000
0000
1001
0000
0000
0000
,
0201
0000
1000
0000
0310
0000
0100
0102
,
0000
0000
0000
0000
0000
0000
1003
0000
0000
0001
0000
0000
0010
0000
0000
0000
0000
0000
0001
0000
0000
0000
0000
0000
1000
0000
0000
0000
0010
0000
0000
0000
0010
0000
0000
0000
0001
0000
0000
0000
0010
0000
0000
0000
0010
0000
0000
0000
,
2000
0000
0000
0000
3010
0000
M010
0001
1000
0000
0000
0000
0001
0000
0100
0000
,
0010
0000
1000
0000
0100
0000
0010
0000
0001
0000
0001
1000
0010
0000
0100
0000
,
0002
0000
0000
0000
1000
0000
1000
0000
1000
0000
1003
0000
0001
0010
0100
1000
,
0001
0000
0000
0101
,
1000
0100
0000
0M01
0000
1000
0001
0100
0010
0000
0100
0010
1000
0000
0001
0000
,
1000
0100
1000
0100
1000
0000
0004
0103
0000
0100
0010
1000
0001
0000
1000
0000
,
0001
0010
0000
10M0
0000
0001
1000
0010
0100
0000
0010
0100
0001
0000
1000
0000
,
1100
0000
0000
1100
0000
0000
1100
0000
0022
0000
0000
0000
0033
0000
0000
0000
,
1000
0010
0000
00M1
0000
1000
0001
0010
0100
0000
0010
0100
1000
0000
0001
0000
,
1000
0010
1000
0010
1000
0000
0004
0013
0000
0010
0100
1000
0001
0000
1000
0000
,
0001
0100
0000
1M00
0000
0001
1000
0100
0010
0000
0100
0010
0001
0000
1000
0000
,
1020
0000
0000
0100
0130
0000
1001
0000
,
1000
0200
0000
1000
0001
0000
0000
0001
1000
0000
0000
1000
0001
0000
0310
0000
,
1000
0010
1000
0010
1000
0000
0004
0013
0000
0010
0100
1000
0001
0000
1000
0000
,
0001
0020
0000
0001
1000
0000
0000
1000
0001
0000
0000
0001
1000
0000
0130
0000
,
0101
0000
0000
0101
0000
0000
0101
0000
2020
0000
0000
0000
3030
0000
0000
0000
,
1000
0020
0000
1000
0001
0000
0000
0001
1000
0000
0000
1000
0001
0000
0000
0001
,
1000
0000
0000
1000
0001
0000
0000
0001
1000
0000
0000
1000
0001
0000
0130
0000
,
0010
0000
0001
0000
1000
0000
0001
0000
0100
0010
0100
0010
0100
0010
0100
0010
,
1000
0000
0000
0000
0001
0000
0010
0100
1000
0000
0001
0100
0010
0000
0000
0000
,
2000
0000
0000
0000
,
0000
0000
0000
0000
,
0000
0000
0000
0000
,
0000
0000
0000
3000
,
1000
0000
0001
0000
0001
0000
1000
0100
1000
0000
0001
0000
0100
0000
0010
0000
,
1000
0000
0001
0010
0001
0000
1000
0000
0010
0000
0400
0000
0310
0000
1000
0000
,
0001
0000
0010
0000
1000
0000
0010
0000
0001
1000
0100
1000
0001
0000
0100
0000
,
0010
1000
0010
1000
0001
1000
0001
1000
0010
0100
0000
0004
0000
0000
0000
0000
,
1003
0000
0100
0010
0001
0100
0010
1000
,
0100
0000
0010
0000
0001
0000
0100
0000
0010
0000
1000
0001
1000
0000
0010
0000
,
0100
0000
0001
0000
0010
0000
0100
0000
1000
0000
0001
0100
0001
0100
0010
0000
,
1000
0010
0100
0000
0001
1000
0100
0010
0001
0000
1000
0001
1000
0000
0010
0000
,
0100
0010
1000
0001
0100
0010
1000
0001
0010
0100
1000
0001
0010
0100
1000
0001
,
0010
0001
1000
0010
1000
0001
0100
0010
1000
0001
0100
0001
1000
0100
1000
0001
,
0400
0000
0310
0100
0001
0010
0100
1000
0040
0000
0130
0010
1000
0100
0010
0001
,
4000
3000
4000
3000
1001
0000
0000
0000
,
0000
0000
0000
0000
,
0000
0000
0000
0000
,
0000
0000
0000
0000
,
000M
M000
000M
0110
,
2001
0000
3100
1100
0001
0100
0101
0000
,
1002
0000
0013
0011
1000
0010
0100
0001
,
2001
0000
3100
1100
0001
0100
0010
1000
,
0001
0000
0010
0100
1000
0000
0100
1000
0000
0100
1000
0000
0001
0100
0010
1000
,
0002
0000
0013
0011
1000
0010
1010
0000
,
2001
0000
3100
1100
0001
0100
0010
1000
,
1002
0000
0013
0011
1000
0010
0100
0001
,
1000
0000
0100
0010
0100
0000
1000
0000
0001
0000
0100
0000
0010
1000
0010
1000
,
0002
0000
0000
0000
0013
0000
0100
0000
1000
0000
0001
0000
0100
0010
0100
0010
,
1000
0000
0001
0000
1000
0100
0010
0100
1000
0000
0010
0100
0001
0000
0000
0000
,
0021
0000
0130
1100
0000
1010
0000
0201
,
0000
0000
0000
0000
0000
0000
0000
0000
0310
0100
0001
0000
1001
0000
0000
0000
,
1000
0000
0001
0010
0100
0000
0001
0000
0100
0010
0001
0000
0100
0010
0001
0000
,
0010
0000
0100
0010
1000
0000
0001
1000
0100
0010
0001
0100
0010
0000
1000
0000
,
0001
0000
1000
0100
0010
0000
1000
0000
0010
0100
1000
0000
0010
0100
1000
0000
,
0100
0000
0010
0100
0001
0000
1000
0001
0010
0100
1000
0001
0010
0100
1000
0010
,
0100
0000
0001
0100
0010
0000
0001
0000
0010
0100
0001
0000
0010
0100
0001
0000
,
0100
0000
0010
0100
1000
0000
0001
1000
0010
0100
0001
0010
0100
0000
1000
0000
,
0001
0100
0010
1000
0001
0100
0010
1000
0001
0010
0100
1000
0001
0010
0100
1000
,
0001
0000
0000
0000
0001
0000
0000
0000
0001
0000
1000
0001
0100
0010
0100
0010
,
1000
0000
0001
0010
1000
0000
0010
0000
1000
0010
0001
0000
1000
0010
0001
0000
,
0010
0000
0100
0010
1000
0000
0001
0010
0100
1000
0010
0100
0001
0000
1000
0000
,
0001
0000
1000
0100
0001
0000
0100
0000
0001
0100
1000
0000
0001
0100
1000
0000
,
0100
0000
0010
0100
0001
0000
1000
0000
0100
0010
0001
1000
0010
0100
0010
0100
,
0001
1000
0100
1000
0001
1000
0100
1000
,
0001
0100
0010
1000
0100
0010
0001
0100
0010
1000
0100
0010
0004
0000
0000
0000
,
0103
0000
0010
1010
0000
1100
0000
0012
,
0000
0000
0000
0000
0103
0000
0000
0000
0010
0000
1000
0010
0100
0001
1000
0000
,
1200
0000
0000
0000
0301
0000
M001
0010
0100
0000
0000
0000
1000
0000
1020
0000
,
0000
0000
0130
0010
1000
0000
0001
0000
0011
0000
0000
0000
1001
0000
0000
0000
,
1020
0000
0001
0000
0130
0000
0010
2010
,
0000
0000
0000
0000
0000
0000
3001
0000
0000
1000
0000
0000
0100
0000
0000
0000
0000
0000
1000
0000
0000
0000
0000
0000
0010
0000
0000
0000
0001
0000
0000
0000
0001
0000
0000
0000
0100
0000
0000
0000
1000
0000
0000
0000
1000
0000
0000
0000
,
0020
0000
0000
0000
0031
0000
M001
0100
0010
0000
0000
0000
1000
0000
1200
0000
,
0000
0000
0310
0100
1000
0000
0001
0000
0101
0000
0000
0000
1001
0000
0000
0000
,
1200
0000
0001
0000
0310
0000
0100
1100
,
0000
0000
1000
0001
0100
0010
1000
0100
0010
0000
0001
0000
2000
0000
0000
0000
,
3100
0000
0000
0000
1000
0001
0000
0100
,
0001
0000
1000
0100
1000
0000
0001
0000
0100
0010
1000
0000
0000
0000
0001
0010
,
0100
0000
0000
0000
;

//--------------- dance-double - Talkion ----------------
#NOTEDATA:;
#STEPSTYPE:dance-double;
#DESCRIPTION:Talkion;
#DIFFICULTY:Challenge;
#METER:19;
#RADARVALUES:0,0,0,0,0;
#NOTES:
00000000
00000000
00000000
00000000
,
00000000
00000000
00000000
00000000
,
00000000
00000000
00000000
00000000
,
00011000
00000000
00000000
00000000
00001000
01000000
00000000
00100000
,
01000000
00000000
01000000
00000000
00010000
00000000
10000000
00000000
01000000
00100000
00010000
00000000
00000000
00000000
00100000
00001000
,
00010000
00000000
00000000
00000010
00000000
00000100
00000100
00000001
,
00001000
00000000
00000000
00000000
00000100
00000000
00000100
00010000
00001000
00000000
01000000
00000000
01000000
00000000
00000000
00000000
,
01010000
00000000
00000000
00000000
00000000
00000000
00000000
00000000
00010000
00000000
10000000
01000000
00100000
00010000
10000000
01000000
,
00100000
00000000
00001000
00000000
00010000
00000000
00000010
00000000
00000100
00000010
00001000
00000000
00000000
00000000
00000010
00010000
,
00001000
00010000
00010000
00000100
00000000
00000010
00001000
00010000
,
00001000
00001000
01000000
00200000
,
10300000
00000000
00000000
00000000
00010000
00000000
00100000
00001000
00010000
00000000
00001000
00010000
00000000
00000000
00000010
00000000
,
00000100
00000010
00001000
00000001
00000100
00000000
00000010
00000000
00010000
00000000
00001000
00000000
00100000
00010000
10000000
00010000
,
04000000
00000000
03001000
00000000
00001000
00000000
00010000
00000000
00000000
00000000
00000100
00000000
00000010
00000001
00001000
00000000
,
00001100
00000000
00000000
00001100
00000000
00000000
00010010
00000000
00040000
00000000
00000000
00000000
00030010
00000000
00000100
00000000
,
00000001
00000000
00000000
00000000
00001000
00000000
00000100
00010000
00001000
00000000
00010000
00001000
00000000
00000000
01000000
00000000
,
00100000
01000000
00010000
10000000
00100000
00000000
01000000
00000000
00001000
00000000
00010000
00000000
00000100
00001000
00000001
00001000
,
00000040
00000000
00010030
00000000
00010000
00000000
00001000
00000000
00000000
00000000
00100000
00000000
01000000
10000000
00010000
00000000
,
00110000
00000000
00000000
00110000
00000000
00000000
01001000
00000000
00004000
00000000
00000000
00000000
00013000
00000000
00000100
00000000
,
00000010
00000000
00000001
00001000
00001000
00000100
00001000
00001000
,
00000001
00000000
00000100
00000010
00000100
00000000
00000010
00000000
00010000
00000000
00004000
00000000
00103000
00010000
00100000
00010000
,
10000000
00100000
01000000
00010000
10000000
00100000
01000000
00010000
10000000
01000000
00100000
00001000
00010000
00000100
00000010
00000001
,
00001000
00000010
00000100
00000000
00000010
00000000
00010000
00000000
00001000
00000000
00100000
01000000
10000000
00000000
00010000
00000000
,
10020000
00000000
00000000
00000000
00130000
00000000
001M0000
10000000
00010000
00000000
00000000
00000000
01000000
00000000
00021000
00000000
,
00000000
00000000
00030100
00010000
00001000
00000000
00000010
00000000
00000110
00000000
00000000
00000000
00001001
00000000
00000000
00000000
,
00000201
00000000
00001000
00000000
00000310
00000000
00010000
00021000
,
00000000
00000000
00000000
01030000
00000000
00000000
00010000
00000000
00000000
00001000
00000000
00000000
10000000
00000000
00100000
00000000
01000000
00000000
00010000
00000000
00001000
00000000
00000010
00000000
,
00000200
00000000
00000000
00000000
00000310
00000000
00000M10
00000001
00001000
00000000
00000000
00000000
00000100
00000000
00012000
00000000
,
00000000
00000000
01003000
00001000
00010000
00000000
00100000
00000000
01100000
00000000
00000000
00000000
10010000
00000000
00000000
00000000
,
12000000
00000000
00000000
00000000
00000000
00000000
00000000
00000000
00000000
00000000
03100000
01000000
00100000
00000000
00001000
00000000
,
00040000
00000000
00000000
00000000
00000000
00000000
00000000
00000000
00030010
00000000
00001000
00000001
00000010
00000000
000000M0
00000000
,
00002001
00000000
00000000
00000000
00003100
00000000
0000M100
00000001
00001000
00000000
00000000
00000000
00000010
00000000
00012000
00000000
,
00000000
00000000
00103000
00001000
00010000
00000000
01000000
00000000
01100000
00000000
00000000
00000000
10010000
00000000
00000000
00000000
,
10200000
00000000
00010000
00000000
01300000
00000000
00001000
00012000
,
00000000
00000000
00000000
00003010
00000000
00000000
00001000
00000000
00000000
00010000
00000000
00000000
00000001
00000000
00000100
00000000
00000010
00000000
00001000
00000000
00010000
00000000
01000000
00000000
,
00200000
00000000
00000000
00000000
01300000
00000000
01M00000
10000000
00010000
00000000
00000000
00000000
10000000
00000000
01000000
00000000
,
00100000
00000000
00001000
00000000
00010000
00000000
00000100
00000000
00000010
00000000
00000010
00000001
00001000
00000000
00000001
00000000
,
00000200
00000000
00000000
00000000
00000010
00000000
00000010
00000000
00000010
00000000
00000310
00000000
00010000
00001000
00010000
00001000
,
01000000
00000000
00000000
10010000
,
10000000
01000000
00000000
00010000
00000000
00010000
00001000
00000000
01000000
00000000
00001000
00010000
00000100
00000000
00000010
00000000
,
00000001
00001000
00000100
00001000
00000001
00000000
00000400
00000310
00000000
00001000
00000010
00000100
00000001
00000000
00001000
00000000
,
00000001
00000010
00000000
00001000
00000000
00001000
00010000
00000000
00000010
00000000
00010000
00001000
00100000
00000000
00001000
00000000
,
01000000
00000000
00000000
01000000
00000000
00000000
01000000
00000000
00200000
00000000
00000000
00000000
00300000
00000000
00000000
00000000
,
10000000
00100000
00000000
00010000
00000000
00010000
00001000
00000000
00100000
00000000
00001000
00010000
00000010
00000000
00000100
00000000
,
00000001
00001000
00000010
00001000
00000001
00000000
00000040
00000130
00000000
00001000
00000100
00000010
00000001
00000000
00001000
00000000
,
00000001
00000100
00000000
00001000
00000000
00001000
00010000
00000000
00000100
00000000
00010000
00001000
01000000
00000000
00001000
00000000
,
00020000
00000000
00000000
00030100
00000010
00000000
00001001
00000000
,
00000001
00000100
00000000
00001M00
00000000
00000001
00001000
00000000
00000100
00000000
00010000
00001000
01000000
00000000
00010000
00000000
,
01000000
00100000
01000000
00100000
10000000
00000000
00040000
00130000
00000000
00010000
00100000
01000000
10000000
00000000
00010000
00000000
,
10000000
00100000
00000000
00M10000
00000000
10000000
00010000
00000000
00100000
00000000
00001000
00010000
00000010
00000000
00010000
00000000
,
00000100
00000000
00000000
00000100
00000000
00000000
00000100
00000000
00000020
00000000
00000000
00000000
00000030
00000000
00000000
00000000
,
00000001
00000100
00000000
00001000
00000000
00001000
00010000
00000000
00001000
00010000
00000000
01000000
00000000
01000000
10000000
00000000
,
00010000
10000000
00000000
00100000
00000000
00100000
00010000
00000000
00001000
00010000
00000000
00000010
00000000
00000010
00000100
00000000
,
00000010
00000000
00000010
00000000
00010000
00000000
00010000
00000000
00001000
01000000
00010000
00100000
00001000
01000000
00010000
00100000
,
00001000
00000000
00000000
00000000
00100000
00000000
00010000
10000000
00100000
00000000
10000000
00100000
01000000
00000000
00000000
00000000
,
00020000
00000000
00000000
00000000
,
00000000
00000000
00000000
00000000
,
00000000
00000000
00000000
00000000
,
00000000
00000000
00000000
00030000
,
01000000
00000000
00010000
00000000
00010000
00000000
01000000
00001000
00010000
00000000
00000100
00000000
00000010
00000000
00000001
00000000
,
00000000
00000000
00000001
00001000
00000100
00000000
00000000
00000000
00010000
00000000
00004000
00000000
01003000
00000000
00000000
00000000
,
00010000
00000000
10000000
00000000
01000000
00000000
10000000
00000000
00010000
00100000
00010000
00100000
00001000
00000000
00000000
00000000
,
00040000
00000000
00000000
00000000
00030400
00000000
00000000
00000000
00000310
00000000
00000000
00000040
00000000
00000000
00000000
00000000
,
00000031
00000000
00001000
00000100
00000010
00000001
00000100
00000010
,
00010000
00000000
00001000
00000000
01000000
00000000
00100000
00000000
10000000
00000000
00010000
10000000
00010000
00000000
00100000
00000000
,
01000000
00000000
10000000
00000000
00010000
00000000
01000000
00000000
00001000
00000000
00010000
00000100
00010000
00000100
00001000
00000000
,
00000100
00001000
00000001
00000000
00001000
00000001
00001000
00000001
00000100
00000000
00000001
00000100
00000010
00000000
00010000
00000000
,
00001000
00100000
00010000
00000000
00100000
00010000
10000000
00000000
00010000
10000000
00100000
00000000
10000000
00100000
01000000
00000000
,
00100000
01000000
00010000
00000000
01000000
00001000
00010000
00000000
00001000
00010000
00000010
00000000
00001000
00000010
00000100
00000000
,
00000001
00000100
00000010
00001000
00000001
00000010
00000100
00010000
00001000
00100000
01000000
10000000
00010000
01000000
00100000
10000000
,
00040000
00030000
00040000
00030000
00101000
00000000
00000000
00000000
,
00000000
00000000
00000000
00000000
,
00000000
00000000
00000000
00000000
,
00000000
00000000
00000000
00000000
,
00000M00
00M00000
00000M00
00011000
,
00010200
00000000
00000310
00000001
00000001
00001000
00001010
00000000
,
00020100
00000000
00031000
01000000
01000000
00100000
10000000
00010000
,
20010000
00000000
31000000
00100000
00100000
00001000
00010000
00000010
,
00000100
00000000
00000001
00001000
00000001
00000000
00000100
00000010
00000000
00000100
00000010
00000000
00010000
00001000
00010000
00001000
,
00200000
00000000
01300000
10000000
10000000
00010000
01010000
00000000
,
00102000
00000000
00013000
00000010
00000010
00000100
00000001
00001000
,
00001002
00000000
00000013
00000100
00000100
00010000
00001000
01000000
,
00100000
00000000
10000000
00010000
10000000
00000000
00100000
00000000
01000000
00000000
00001000
00000000
00010000
00000010
00010000
00000010
,
00002000
00000000
00000000
00000000
00003001
00000000
00001000
00000000
00000100
00000000
00000010
00000000
00000001
00001000
00000001
00000000
,
00000100
00000000
00000010
00000000
00010000
00001000
00010000
00001000
00100000
00000000
01000000
10000000
00010000
00000000
00000000
00000000
,
10010000
00000000
00100000
00101000
00000000
00010100
00000000
00001002
,
00000000
00000000
00000000
00000000
00000000
00000000
00000000
00000000
00000103
00000010
00010000
00000000
00011000
00000000
00000000
00000000
,
00001000
00000000
01000000
00100000
01000000
00000000
00001000
00000000
00010000
01000000
00100000
00000000
00010000
01000000
00100000
00000000
,
10000000
00000000
00010000
01000000
00001000
00000000
01000000
00010000
00001000
00000000
00010000
00001000
00000010
00000000
00000010
00000000
,
00010000
00000000
00000010
00000100
00000010
00000000
00010000
00000000
00001000
00000010
00000100
00000000
00001000
00000010
00000100
00000000
,
00000001
00001000
00000010
00001000
00000001
00000000
00000100
00001000
00000100
00000010
00001000
00000000
00000010
00010000
00000010
00010000
,
00001000
00000000
00010000
00001000
01000000
00000000
00001000
00000000
00010000
00100000
01000000
00000000
00010000
00100000
01000000
00000000
,
10000000
00000000
00010000
00100000
00001000
00000000
00100000
00010000
00001000
00000000
00010000
00001000
00000100
00000000
00000010
00000000
,
00000001
00001000
00000001
00000000
00001000
00000100
00010000
00000000
00000100
00010000
00001000
00000000
00010000
00000010
00001000
00000010
,
00010000
00000000
00000000
00000000
00001000
00000000
00000000
00000000
01000000
00000000
01000000
00000000
00100000
01000000
00001000
00000000
,
00010000
00000000
00000100
00000010
00001000
00000000
00010000
00000000
00001000
00000010
00000001
00000000
00000010
00000001
00001000
00000000
,
00000001
00000000
00000100
00000010
00010000
00000000
00000010
00001000
00010000
00000000
00001000
00010000
01000000
00000000
01000000
00000000
,
00001000
00000000
00100000
01000000
00010000
00000000
00001000
00000000
00010000
01000000
10000000
00000000
01000000
10000000
00010000
00000000
,
10000000
00010000
01000000
00010000
10000000
00000000
00100000
00010000
00100000
01000000
00010000
00000000
01000000
00001000
01000000
00001000
,
00010000
00000100
00000010
00000100
00010000
00000010
00000100
00000010
,
00010000
00001000
00010000
00001000
00100000
00010000
00100000
00010000
10000000
00100000
10000000
00100000
04000000
00000000
00000000
00000000
,
03001000
00000000
00010000
00010100
00000000
00001001
00000000
00000201
,
00000000
00000000
00000000
00000000
00000310
00000000
00000000
00000000
00010000
00000000
00001000
01000000
00010000
00000000
10000000
00000000
,
12000000
00000000
00000000
00000000
03010000
00000000
0M010000
00100000
00001000
00000000
00000000
00000000
01000000
00000000
00012000
00000000
,
00000000
00000000
00103000
00001000
00010000
00000000
00000100
00000000
00001100
00000000
00000000
00000000
00000011
00000000
00000000
00000000
,
00000201
00000000
00001000
00000000
00000310
00000000
00010000
00020100
,
00000000
00000000
00000000
00031000
00000000
00000000
01000000
00000000
00000000
00100000
00000000
00000000
10000000
00000000
00010000
00000000
00100000
00000000
01000000
00000000
00010000
00000000
00001000
00000000
,
00000020
00000000
00000000
00000000
00001030
00000000
000010M0
00000100
00010000
00000000
00000000
00000000
00000010
00000000
00021000
00000000
,
00000000
00000000
00030100
00010000
00001000
00000000
00100000
00000000
00110000
00000000
00000000
00000000
11000000
00000000
00000000
00000000
,
10200000
00000000
00010000
00000000
01300000
00000000
00001000
00101000
,
00000000
00000000
00100000
00010000
10000000
01000000
00100000
00001000
00010000
00000000
00000010
00000000
00000010
00000000
00000000
00000000
,
00011000
00000000
00000000
00000000
00010000
00000010
00000000
00000100
,
00000010
00000000
00000010
00000000
00001000
00000000
00000001
00000000
00000010
00000100
00001000
00000000
00000000
00000000
00000100
00010000
,
00001000
00000000
00000000
00000000
;
