#TITLE:Horizons of Promise;
#SUBTITLE:;
#ARTIST:BEMANI Sound Team "SPIRITUAL RIDE";
#TITLETRANSLIT:;
#SUBTITLETRANSLIT:;
#ARTISTTRANSLIT:;
#GENRE:ALTANATIVE ROCK;
#CREDIT:Graphics made by TonyAkita;
#MUSIC:Horizons of Promise.ogg;
#BANNER:Horizons of Promise.png;
#BACKGROUND:Horizons of Promise-bg.png;
#CDTITLE:;
#SAMPLESTART:48.070;
#SAMPLELENGTH:15.000;
#SELECTABLE:YES;
#OFFSET:1.278;
#BPMS:0.000=179.992;
#STOPS:;
#DISPLAYBPM:180.000;
#BGCHANGES:2.100=Horizons of Promise.avi=1.000=0=0=1,
370.250=Horizons of Promise-bg.png=1.000=0=0=1,
99999.000=-nosongbg-=1.000=0=0=0=StretchNoLoop====
;
#FGCHANGES:;

//--------------- dance-single - forcednature ----------------
#NOTES:
     dance-single:
     forcednature:
     Beginner:
     4:
     0.155337,0.261285,0.057663,0.164751,0,132,125,7,20,0,0,0.155337,0.261285,0.057663,0.164751,0,132,125,7,20,0,0:
0000
0000
0000
0000
,
0000
0000
0000
0000
,
0000
0000
0000
0000
,
0010
0000
0000
0000
,
0100
0000
0000
0000
,
0001
0000
0000
0000
,
1000
0000
0000
0000
,
0100
0000
0000
0000
,
0010
0000
0000
0000
,
0001
0000
0000
0000
,
1000
0000
0000
0000
,
0020
0000
0000
0000
,
0030
0000
0000
0000
,
0200
0000
0000
0000
,
0300
0000
0000
0000
,
0001
0000
0000
0000
,
1000
0000
0000
0000
,
0100
0000
0000
0000
,
0010
0000
0000
0000
,
0002
0000
0000
0000
,
0003
0000
0000
0000
,
2000
0000
0000
0000
,
3000
0000
0000
0000
,
0000
0010
0010
0010
,
0000
0100
0100
0100
,
0000
0001
0001
0001
,
0000
1000
1000
1000
,
0100
0000
0000
0000
,
0010
0000
0000
0000
,
0001
0000
0000
0000
,
1000
0000
0000
0000
,
0000
0001
0001
0001
,
0000
1000
1000
1000
,
0000
0010
0010
0010
,
0000
0100
0100
0100
,
0001
0000
0000
0000
,
1000
0000
0000
0000
,
0100
0000
0000
0000
,
0010
0000
0000
0000
,
2002
0000
3003
0000
,
0001
0000
0100
0000
,
0001
0000
0000
0000
,
0100
0000
0001
0000
,
2002
0000
3003
0000
,
1000
0000
0100
0000
,
1000
0000
0000
0000
,
0100
0000
1000
0000
,
2002
0000
3003
0000
,
0001
0000
0010
0000
,
0001
0000
0000
0000
,
0010
0000
0001
0000
,
0010
0000
0000
0000
,
0010
0000
1000
0000
,
0010
0000
0010
0000
,
0010
0000
0000
0000
,
0100
0100
0000
0000
,
0001
0001
0000
0000
,
1000
1000
0000
0000
,
0010
0000
0000
0000
,
0100
0000
0000
0000
,
0001
0000
0001
0000
,
0100
0000
0000
0000
,
1000
0000
1000
0000
,
1001
0000
0000
0000
,
0010
0000
0000
0000
,
0100
0000
0000
0000
,
1000
0000
0001
0000
,
0100
0000
0010
0000
,
0000
0000
1000
0000
,
0001
0000
0010
0000
,
0200
0000
0300
0000
,
2002
0000
0000
0000
,
0000
0000
3003
0000
,
2002
0000
3003
0000
,
0001
0000
0100
0000
,
0001
0000
0000
0000
,
1000
0000
0100
0000
,
1000
0000
0000
0000
,
0010
0000
0100
0000
,
0010
0000
0100
0000
,
0001
0000
0000
0000
,
1000
1000
0000
0000
,
0001
0001
0000
0000
,
0010
0010
0000
0000
,
0100
0000
0100
0000
,
2000
0000
3000
0000
,
0001
0002
0000
0003
,
0020
0000
0130
0000
,
0100
0000
0100
0000
,
2002
0000
0000
0000
,
0000
0000
0000
0000
0000
3003
0000
0000
;

//--------------- dance-single - forcednature ----------------
#NOTES:
     dance-single:
     forcednature:
     Easy:
     6:
     0.335387,0.373265,0.280077,0.362453,0,285,251,34,44,0,0,0.335387,0.373265,0.280077,0.362453,0,285,251,34,44,0,0:
0000
0000
0000
0000
,
0000
0000
0000
0000
,
0000
0000
0000
0000
,
1000
0000
0010
0000
0010
0000
0000
0100
,
0000
0001
0001
1000
,
0100
0000
0010
0000
0010
0000
0000
0001
,
0000
0100
0000
0010
0000
1000
0000
0000
,
0100
0010
0001
1000
,
0000
0010
1000
0000
,
0001
0010
0001
1000
,
0000
0010
1000
0000
,
0002
0100
0103
0000
,
0020
1000
0130
0000
,
0020
0001
0031
0000
,
2000
0000
0010
0000
3100
0000
0000
1001
,
0000
0001
0010
0001
,
0000
1000
0010
1000
,
0000
0100
0010
0001
,
0000
0010
0001
0100
,
0020
1000
1030
0000
,
0200
0001
1300
0000
,
0020
0100
0130
0000
,
0200
0001
1300
0000
,
0000
0100
0010
0110
,
0000
0001
1000
1001
,
0000
0100
0010
0110
,
0000
1000
0001
1001
,
0100
0100
0020
0030
,
1000
0001
1000
0000
,
0010
0010
0200
0300
,
0001
0001
1000
0000
,
0000
1000
0010
1010
,
0000
0001
0100
0101
,
0000
0010
0001
0011
,
0000
0100
1000
1100
,
1000
1000
0002
0003
,
0100
0100
0010
0000
,
0200
0000
0000
0010
0000
0000
0310
0000
,
2000
0000
0000
0001
0000
0000
3001
0000
,
2002
0000
3003
0000
,
1000
0001
0100
0010
,
1000
0100
0010
0001
,
0100
0000
0010
0000
0000
0010
0000
0000
,
2002
0000
3003
0000
,
0001
0100
0010
1000
,
0001
0010
0100
1000
,
0010
0000
0100
0000
,
2002
0000
3003
0000
,
1000
0001
0010
0001
,
0100
0010
1000
0100
,
1000
0010
0100
0001
,
1000
0001
0010
0100
,
0000
0000
0010
0000
0000
0100
0000
0000
,
2002
3003
0200
0320
,
0030
2000
3002
0003
,
1001
1001
0000
0000
,
0110
0110
0000
0000
,
1001
1001
0200
0000
,
0010
0010
0310
0000
,
1000
0000
0001
0000
,
1000
0000
0010
0100
,
0001
0000
0001
0000
,
0010
0100
1000
0001
,
0100
0000
0000
0000
,
0010
0010
0000
0000
,
1000
1000
0000
0000
,
0001
0001
0000
0000
,
0010
0100
1000
0001
,
0000
0100
0001
1000
,
0010
1000
0001
0010
,
0200
0000
0000
0300
,
0110
0000
0000
1000
0000
0000
0001
0000
,
1001
0000
0000
0100
0000
0000
0010
0000
,
2002
0000
3003
0000
,
1000
0001
0100
1000
,
0100
0010
1000
0100
,
0001
0100
0010
0001
,
1000
0010
0100
0001
,
0000
0000
0010
0000
0000
0100
0000
0000
,
2002
3003
2000
3002
,
0003
0020
0230
0300
,
0110
0110
0000
0000
,
1001
1001
0000
0000
,
1001
1001
0020
0000
,
0100
0100
0130
0000
,
2002
0000
3003
0100
,
1001
2002
3003
0010
,
2002
3003
0001
1000
,
0001
0100
0010
0100
,
2002
0000
0000
0000
,
0000
0000
0000
0000
0000
3003
0000
0000
;

//--------------- dance-single - forcednature ----------------
#NOTES:
     dance-single:
     forcednature:
     Medium:
     10:
     0.467188,0.522571,0.535442,0.54368,0.070019,397,332,65,66,0,0,0.467188,0.522571,0.535442,0.54368,0.070019,397,332,65,66,0,0:
0000
0000
0000
0000
,
0000
0000
0000
0000
,
0000
0000
0000
0000
,
1000
0000
0011
0000
0101
0000
0000
0010
,
0000
0000
1100
0000
1001
0000
0000
0010
,
0000
0000
0110
0000
1001
0000
0000
2001
,
0000
0001
0000
0100
0000
3010
0000
0000
,
1000
0001
0000
0010
0000
0100
0000
1000
,
0000
0000
1001
0000
1010
0000
0000
0101
,
0000
0000
0001
0000
0010
0100
0000
1000
,
0000
0000
0110
0000
1000
0001
0000
0100
,
0001
0000
0010
0000
0100
1000
0000
0010
,
0000
0100
0001
0000
1000
0100
0000
0010
,
0001
0000
0100
0000
0010
1000
0000
0001
,
0000
0010
0001
0000
0200
0010
0000
1300
,
0000
0000
0101
0000
1001
0000
0000
0100
,
0000
0000
1010
0000
0011
0000
0000
0100
,
0000
0000
1001
0000
1100
0000
0000
0001
,
0000
0000
0101
0000
1001
0000
0000
0100
,
0000
1000
0010
0000
0100
0000
0001
0010
,
0000
0100
1000
0000
0010
0100
0000
0001
,
0000
1000
0100
0000
0010
0000
0001
0100
,
0000
0010
1000
0000
0200
0010
0000
0310
,
0100
1000
0001
0202
,
0303
1000
0001
0220
,
0330
0001
0010
2200
,
3300
1000
0001
1010
,
0101
0000
0100
0010
0000
1000
0001
0000
,
0000
0010
0100
0000
1000
0000
0001
0000
,
0110
0000
1000
0100
0000
0010
0001
0000
,
0000
0100
0001
0000
2000
0010
0000
3100
,
1000
0001
1000
0220
,
0330
1000
0100
0022
,
0033
0001
0100
2020
,
3030
1000
0001
0110
,
1001
0000
1000
0100
0000
0010
0001
0000
,
0000
0100
0010
0000
1000
0000
0001
0000
,
0210
0000
0000
1000
0000
0000
0001
0000
,
0320
0000
0000
1000
0000
0000
0031
0000
,
2001
0100
0000
0100
,
0000
3000
1000
0000
0100
0000
0010
0000
,
0001
0100
0000
2002
,
3003
0000
2000
0000
0000
3002
0000
0003
,
0210
0000
1000
0000
0000
0000
0001
0300
,
0000
1000
0001
0100
,
0010
1000
0220
0330
,
0022
0033
2002
3003
,
0102
0010
0000
0100
,
0003
0001
0010
0100
,
1000
0020
0030
2002
,
3003
0100
0001
0010
,
0100
1000
0010
0110
,
0000
0000
0101
0000
0000
1001
0000
0000
,
2100
0010
3001
2000
,
3010
1000
0010
0000
0200
0001
0000
0310
,
0100
0100
1001
0110
,
1000
0000
0001
0000
0200
0010
0300
0000
,
1010
0000
0101
0000
0001
0010
0100
0000
,
1000
0000
0001
0000
2000
0001
3000
0000
,
0001
0100
0001
0100
,
0010
0000
0000
1000
0000
0000
0100
0000
1000
0000
0001
0000
,
0010
0001
0100
0010
,
1000
0000
0100
0000
0010
0000
0001
0000
0100
0000
0010
0000
,
1001
1000
0001
0100
,
0010
0010
1000
0100
,
0010
0010
0001
0100
,
0010
0000
0000
1000
0000
0000
0100
0000
0010
0000
0000
0001
0000
0000
0100
0000
,
0010
0000
1000
0001
2000
0000
3200
0000
,
0300
0010
0001
1000
,
0010
0000
0100
0001
0200
0000
0320
0000
,
1030
0000
0100
0000
0010
0000
0001
0000
1000
0001
0000
0000
,
1020
0000
0000
0001
0000
0000
1000
0000
,
0230
0000
0000
1000
0000
0000
0301
0000
,
2002
0000
0000
0000
,
3003
1000
0001
0100
,
0010
1000
0000
0220
,
0330
0010
0101
1010
,
1000
0001
0100
0220
,
0330
0000
1010
0000
0000
0011
0000
0000
,
2002
3003
2000
3002
,
0103
1000
0100
0000
0020
0100
0030
0000
,
1001
1100
0010
0010
,
0101
1001
0010
0010
,
1100
0110
0022
0033
,
0100
0000
0001
0000
2000
0100
0000
3001
,
1000
0000
0001
0000
1000
0000
0020
0000
0000
2030
0000
0000
,
3001
0000
0010
0000
0100
0000
2000
0000
0000
3020
0000
0000
,
0130
0000
0001
0000
1000
0000
0200
0000
0000
0010
0000
0000
,
0301
0001
1000
0000
1000
1000
0001
0000
,
2002
0000
0000
0000
,
0000
0000
0000
0000
0000
3003
0000
0000
;

//--------------- dance-single - forcednature ----------------
#NOTES:
     dance-single:
     forcednature:
     Hard:
     14:
     0.850823,1.082468,0.263602,0.156514,0.498373,723,691,32,19,0,0,0.850823,1.082468,0.263602,0.156514,0.498373,723,691,32,19,0,0:
0000
0000
0000
0000
,
0000
0000
0000
0000
,
0000
0000
0000
0000
,
1000
0000
0100
0000
0001
0000
0100
1000
0010
0000
1000
0000
1000
0000
0001
0000
,
0100
1000
0100
0010
1000
0100
0010
0001
,
0100
0000
0010
0000
1000
0000
0100
0010
0001
0000
0100
0000
0100
0000
2000
0000
,
0000
3002
0000
0023
0000
2030
0000
3000
,
0100
0010
0001
0100
0010
1000
0100
0001
,
0000
1000
0010
0001
0100
1000
0100
0010
,
0000
1000
0100
0001
0100
0010
0001
1000
,
0000
0010
0100
0001
1000
0100
1000
0001
,
1000
0010
1000
0010
1000
0010
1000
0010
1000
0001
1000
0001
1000
0001
1000
0001
,
0100
0001
0100
0001
0100
0001
0100
0001
1000
0000
0010
0000
0100
0000
0001
0000
,
1000
0100
1000
0100
1000
0100
1000
0100
0010
0001
0010
0001
0010
0001
0010
0001
,
1000
0010
1000
0010
1000
0010
1000
0010
1000
0000
0100
0000
0000
0000
0011
0000
,
0010
0100
0001
0100
0010
0001
0100
0010
,
0000
1000
0001
0010
0100
0001
0100
1000
,
0000
0001
0100
0010
0001
1000
0100
0010
,
0000
1000
0001
0010
0100
1000
0001
0100
,
0001
1000
0001
1000
0001
1000
0001
1000
0100
1000
0100
1000
0100
1000
0100
1000
,
0001
0010
0001
0010
0001
0010
0001
0010
0100
0000
1000
0000
0001
0000
0100
0000
,
0010
1000
0010
1000
0010
1000
0010
1000
0010
0100
0010
0100
0010
0100
0010
0100
,
0001
0100
0001
0100
0001
0100
0001
0100
0001
0000
1000
0000
0000
0000
1001
0000
,
1000
0000
0010
0001
0010
1000
0010
0000
,
0100
0000
0001
0100
0001
0010
0001
0000
,
1000
0000
0100
0001
0100
1000
0100
0000
,
1000
0000
0001
1000
0001
0010
0001
0000
,
1000
0001
1000
0010
0000
0100
0001
0000
,
0010
0100
1000
0010
0100
0001
0010
0000
,
0100
1000
0001
0100
0001
1000
0010
0000
,
1000
0000
0001
0000
0010
0000
0100
1000
0001
0000
1000
0000
0000
0000
1001
0000
,
0001
0000
0100
1000
0100
0001
0100
0000
,
0001
0000
0010
1000
0010
0001
0010
0000
,
0100
0000
1000
0010
1000
0100
1000
0000
,
0010
0000
0100
1000
0100
0010
0100
0000
,
1001
0000
1000
0001
0100
0010
1000
0100
,
0001
0100
1000
0010
0100
0100
0010
0000
,
1010
0000
1000
0001
0000
0100
0010
0010
,
1000
0000
0001
0000
0100
0000
0001
0000
1000
0100
0010
0001
1000
0010
1000
0000
,
0010
0100
0001
0100
0010
0100
1000
0100
,
0010
1010
1001
1100
,
1000
0000
0001
0000
0010
0000
0001
1000
0010
0000
0100
0000
0100
0000
0001
0000
,
1000
0000
0100
0010
0100
0000
1000
0001
0100
0010
1000
0000
0001
0000
0010
0000
,
0001
1000
0100
1000
0001
1000
0010
1000
,
0001
1001
1100
0101
,
1000
0000
0100
0000
0001
0000
0100
1000
0010
0000
0100
0000
0100
0000
0001
0000
,
0010
0001
0010
0000
0100
1000
0100
0000
1000
0010
0100
0001
0100
0010
1000
0000
,
0100
0010
0001
0010
0100
0010
1000
0010
,
0001
0101
1001
1010
,
1000
0001
0001
0100
1000
1000
0001
0010
,
1000
0000
0100
0000
0010
0000
0000
0000
0001
0100
0001
1000
0010
0000
0100
0000
,
0001
0010
1000
0001
0100
1000
0010
0000
,
1000
0001
0100
0010
1000
1000
0001
0000
,
1000
0000
0001
0100
0010
1000
0010
0000
0100
0000
0010
0000
1000
0000
0001
0010
,
0001
0000
1000
0100
1000
0000
0001
0100
0001
0000
0010
0000
0000
0000
0100
0000
,
1001
0000
1001
0000
1000
0100
0010
0000
,
1001
0000
1001
0000
0001
0100
0000
0000
,
1001
0000
0110
0000
0001
1000
0010
0100
,
0001
0000
1000
0000
0100
0000
0010
0001
0010
0000
0100
0000
0000
0000
1000
0000
,
0001
0100
0010
1000
0001
0100
0010
1000
,
0001
0000
0000
0100
0000
0000
0010
0000
0000
1000
0000
0000
0001
0000
0100
0000
0010
0000
1000
0000
0010
0000
0100
0000
,
0001
0010
0100
1000
0001
0010
0100
1000
,
0001
0010
0100
1000
0100
0010
0001
1000
0100
1000
0001
0100
,
0020
0230
0302
0023
,
0230
2300
3020
0032
,
0023
0000
2030
0000
3200
0000
0310
0001
,
1000
0000
0000
0001
0000
0000
0100
0000
0001
0000
0000
1000
0000
0000
0010
0100
,
0010
0000
1000
0001
0010
0000
2002
0000
,
3003
0000
1000
0000
0001
0000
0100
0000
0001
0000
1000
0000
0010
0000
1000
0100
,
1000
0000
0001
0010
0100
0010
0001
0000
,
1000
0001
0100
0010
1000
0001
0010
0100
1000
0001
0000
0000
,
1001
0000
0001
1000
0000
0100
0010
0010
,
0001
0000
0010
0000
1000
0000
0010
0000
0100
1000
0010
0100
0001
0010
0100
0000
,
1000
0001
0100
1000
0001
0010
1000
0100
,
0010
0110
1001
0101
,
0001
1000
0100
0001
1000
0010
0100
1000
,
0010
0000
0100
0000
0100
0000
0001
0000
0010
0100
1000
0001
0100
0000
0010
0000
,
0001
0010
1000
0100
0010
0100
1000
0000
,
0001
1000
0010
0001
0010
0100
0001
0000
,
1000
0000
0100
0010
0100
1000
0010
0000
0100
0000
0001
0000
1000
0000
0100
0010
,
0001
0000
1000
0001
0100
0000
0010
1000
0100
0010
0001
1000
0010
0100
0001
0000
,
0110
0000
0110
0000
0001
0100
0010
0000
,
0110
0000
0110
0000
1000
0001
0000
0000
,
1001
0000
0110
0000
1000
0100
0001
0100
,
0010
0000
0001
0000
0100
0000
0010
1000
0010
0000
0100
0000
0000
0000
0001
0000
,
0100
0000
0010
0000
1000
0000
0001
0000
0010
0000
0100
0000
1000
0000
0000
0010
0000
0000
0100
0000
0000
0001
0000
0000
,
0010
0000
0100
0000
1000
0000
0001
0000
0010
0000
0100
0000
1000
0000
0000
0010
0000
0000
0100
0000
0000
0001
0000
0000
,
1000
0000
0001
0000
0100
0000
0001
0000
1000
0000
0100
0000
0010
0000
0000
0001
0000
0000
1000
0000
0000
0010
0000
0000
,
0001
0000
0010
0000
1000
0000
0100
0010
0100
0000
0010
0000
0001
0000
0100
0000
,
0220
0000
0000
0000
,
0000
0000
0000
0000
0000
0330
0000
0000
;

//--------------- dance-single - forcednature ----------------
#NOTES:
     dance-single:
     forcednature:
     Challenge:
     14:
     0.81552,1.007815,1.326249,0.140039,0.222414,693,532,161,17,64,0,0.81552,1.007815,1.326249,0.140039,0.222414,693,532,161,17,64,0:
0000
0000
0000
0000
,
0000
0000
0000
0000
,
0000
0000
0000
0000
,
1000
0000
0001
0000
1001
0000
1000
0100
1000
0000
0001
0000
0010
0000
0110
0000
,
0100
0000
1000
0000
1001
0000
0001
0100
0001
0000
0010
0000
0100
0000
0110
0000
,
0010
0000
0001
0000
1001
0000
1000
0010
1000
0000
0001
0000
0010
0000
0110
0000
,
0000
0011
0001
0101
0000
1001
0000
0000
,
1000
0010
1010
0000
1000
0001
0010
0100
,
0000
1000
1001
0000
0101
0100
0001
1000
,
0000
0000
1001
0000
1100
0100
0000
0110
,
0000
0010
0011
0000
0101
0001
0000
1001
,
0001
0100
1000
0100
0001
0100
0010
1000
,
0100
0001
0100
0010
0100
0110
MMMM
1001
,
1000
0100
0010
1000
0010
0001
0100
0010
,
1000
0002
1000
0003
0001
0011
MMMM
1100
,
0000
1000
0001
0100
0110
0010
0000
1001
,
0000
1000
1100
0000
0011
0001
0000
0201
,
0000
0310
1010
0000
1100
0100
0000
1001
,
0000
0001
0101
0000
1010
0010
0000
1001
,
1000
0010
0100
1000
0001
0010
0100
0001
,
1000
0100
0001
0100
0010
0011
MMMM
1100
,
1000
0010
0001
0010
0100
1000
0100
0001
,
1000
0000
0100
0000
0010
0000
0001
0100
0001
0000
0101
0000
0000
0000
1010
0000
,
MMMM
0011
1001
0101
,
MMMM
1010
1001
1100
,
MMMM
0110
1100
0011
,
MMMM
0110
0101
1010
,
1001
0000
1010
0010
0100
0001
1000
0100
,
0001
0100
0010
0001
1000
1000
0010
0010
,
0100
0000
0110
0002
1000
0003
1001
0000
,
0100
0000
0000
0000
1001
0000
1000
0001
1000
0000
1100
0000
0000
0000
0011
0000
,
MMMM
1100
0011
0110
,
MMMM
0101
1010
0110
,
MMMM
1001
1010
0011
,
MMMM
1001
1100
0101
,
1001
0000
0110
0020
0000
0030
1001
0000
,
1000
0100
0010
0001
0100
0100
0010
0000
,
1001
0000
1000
0010
0000
0100
0001
0001
,
0011
0010
0100
1100
1000
0010
0110
0100
,
0220
0000
0000
0000
,
0330
1010
0110
0101
,
1001
0000
0110
0001
1000
0001
1100
0001
,
0010
0001
0101
0010
0100
1010
0001
1000
,
2002
0000
0000
3003
,
0000
1010
1001
0101
,
0011
0000
0010
0000
0100
0000
1000
0001
1000
0000
0010
0000
0100
0000
0100
0000
,
0001
0100
0001
0100
0001
0000
0010
0000
0100
1000
0100
0010
0001
1000
0010
0000
,
2002
0000
0000
0000
,
3003
0101
1001
1010
,
1100
0000
0100
0000
1001
0000
0001
0000
0010
0000
0100
0000
1000
0000
0010
0100
,
0010
0000
0001
0000
0010
0000
1000
0000
0100
0010
0100
0000
1000
0000
0001
0000
,
0101
1010
1100
0011
,
1000
0001
0101
0000
0010
1010
1000
0110
,
0220
0330
1001
1100
,
0010
0001
0101
0000
1000
1001
0000
0110
,
0110
0000
1001
0000
0001
1000
0110
0000
,
1001
0000
1001
0000
1000
1010
0000
0100
,
0110
0000
0110
0000
1001
0000
0001
1000
,
0010
0000
0110
0000
0001
0101
0000
1010
,
1000
0100
0010
MMMM
1000
0100
0010
MMMM
,
1000
0000
0000
0100
0000
0000
0010
0000
0000
MMMM
0000
0000
1000
0000
0100
0000
0010
0000
0001
0000
0010
0000
0100
0000
,
1000
0010
0100
MMMM
1000
0010
0100
MMMM
,
1000
0010
0100
0001
0100
0010
1000
0100
0001
0100
1000
0010
,
1000
0100
0010
0001
,
0110
0110
1000
0001
,
0010
0000
1000
0000
0001
0000
0100
1000
,
0010
0000
0000
0100
0000
0000
0001
0000
0010
0000
0000
0100
0000
0000
1000
0001
,
1000
0000
0010
0100
0001
0010
0100
0000
,
1000
0000
0010
0000
1000
0000
0001
0000
0100
0000
0001
0000
1000
0000
0100
0010
,
0100
0000
1000
0010
0001
0010
0100
0000
,
0001
0010
1000
0010
0001
1000
0100
0001
0100
1000
0000
0000
,
1001
0001
1000
1100
0100
0010
0011
0000
,
0001
0000
1001
0000
0000
0000
1100
0000
1000
0100
0010
0001
0010
0100
1000
0000
,
2002
0000
0000
0000
,
3003
0000
0001
0000
0100
0000
0001
1000
0001
0000
0010
0000
0100
0000
0100
0000
,
1100
0000
0021
0100
1000
1030
0011
1000
,
0001
0000
0100
0000
0101
0000
0000
0000
1000
0100
1000
0000
0010
0000
0100
0000
,
0101
0001
0011
0010
1001
0001
1100
0000
,
0001
0000
0100
0000
0101
0000
1000
0001
1000
0000
1010
0000
0010
0000
0000
0000
,
1100
0000
0001
1000
0100
0000
1001
0000
,
0001
0000
0100
0000
0001
0000
1000
0010
1000
0000
1100
0000
0000
0000
1010
0000
,
0101
0000
1010
0000
1000
0100
0011
0000
,
0101
0000
1001
0000
0100
0110
0000
0001
,
1001
0000
1010
0000
1000
0100
0001
0100
,
0010
0000
0000
0000
0011
0000
0001
1000
0001
0000
0101
0000
0000
0000
1001
0000
,
1000
0000
0010
0000
1000
0000
0100
0000
0001
0000
0100
0000
1000
0000
0000
0100
0000
0000
0010
0000
0000
0001
0000
0000
,
0010
0000
0100
0000
0010
0000
0001
0000
0010
0000
1000
0000
0010
0000
0000
0100
0000
0000
1000
0000
0000
0001
0000
0000
,
1001
0000
0000
1000
0000
0000
0001
0000
0010
0000
0100
0000
1000
0000
0000
0010
0000
0000
0110
0000
0000
0100
0000
0000
,
1001
0000
0010
0000
0110
0000
1000
0001
1000
0000
1010
0000
0110
0000
0101
0000
,
2002
0000
0000
0000
,
0000
0000
0000
0000
0000
3003
0000
0000
;

//--------------- dance-double - forcednature ----------------
#NOTES:
     dance-double:
     forcednature:
     Easy:
     7:
     0.325972,0.373265,0.296553,0.527205,0,277,241,36,64,0,0,0.325972,0.373265,0.296553,0.527205,0,277,241,36,64,0,0:
00000000
00000000
00000000
00000000
,
00000000
00000000
00000000
00000000
,
00000000
00000000
00000000
00000000
,
00001000
00000000
00010000
00000000
00000100
00000000
00000000
00001000
,
00000000
00000000
00000001
00000000
00000100
00000000
00000000
00000010
,
00000000
00000000
00010000
00000000
00001000
00000000
00000000
00100000
,
00000000
01000000
00000000
10000000
00000000
00010000
00000000
00000000
,
01000000
00010000
00010000
01000000
,
10000000
01000000
01000000
00100000
,
10000000
01000000
01000000
00100000
,
00010000
01000000
01000000
00001000
,
00020000
00000000
00030200
00000000
,
00002300
00000000
00003010
00000100
,
00000002
00000000
00000023
00000000
,
00000230
00000000
00001300
00001000
,
00000010
00000100
00000100
00000001
,
00001000
00000100
00000100
00010000
,
00001000
01000000
01000000
00100000
,
00010000
00001000
00001000
00100000
,
02000000
00000000
23000000
00000000
,
30020000
00000000
00130000
00001000
,
00020000
00000000
00030020
00000000
,
00002030
00000000
00000000
00000000
00003001
00000000
00000000
00001000
,
00000001
00000100
00000010
00000220
,
00000330
00001000
00010000
00022000
,
00033000
00100000
01000000
02200000
,
03300000
10000000
00010000
10010000
,
00020000
10000000
10030000
00000000
,
00200000
00001000
00301000
00000000
,
00000200
00010000
00010300
00000000
,
00002000
00000001
00003001
00000000
,
00000000
00000010
00000100
00000220
,
00000330
00001000
00010000
00022000
,
00033000
01000000
00100000
02200000
,
03300000
00010000
00001000
00011000
,
00000200
00001000
00001300
00000000
,
00000020
00000001
00000031
00000000
,
00000001
00000000
00000000
00000100
00000000
00000000
00001000
00000000
,
00010000
00000000
00000000
01000000
00000000
00000000
10000000
00000000
,
20020000
00000000
00000000
00000000
,
30030000
10000000
00100000
01000000
,
00010000
00100000
00000000
00011000
,
00000000
00000000
00000100
00000000
00000000
00001000
00000000
00000000
,
00002002
00000000
00000000
00003003
,
00000000
00000001
00000100
00000010
,
00001000
00000100
00000220
00000330
,
00002002
00003003
00002020
00003030
,
00000202
00000000
00000000
00000000
,
00000303
00001000
00000100
00010000
,
00001000
00100000
00000000
20020000
,
00000000
30030000
10000000
00100000
,
01000000
00010000
00100000
01000000
,
00000000
00000000
10000000
00000000
00000000
00010000
00000000
00000000
,
02200000
03300000
00001000
00010000
,
00000000
00000100
00000010
00000000
,
00001001
00001001
00000000
00000000
,
00000110
00000110
00000000
00000000
,
00011000
00011000
00000000
00000000
,
01100000
01100000
00000000
00000000
,
20000000
00000000
30020000
00000000
,
02030000
00000000
03100000
00010000
,
00200000
00000000
02300000
00000000
,
03001000
00010000
00000100
00000010
,
00000001
00000000
00000000
00000000
,
00001000
00001000
00000000
00000000
,
00000010
00000010
00010000
00000000
,
00001000
00001000
00000000
00000000
,
00100000
01000000
10000000
00010000
,
00000000
01000000
00001000
00010000
,
00000100
00010000
00001000
00100000
,
00002000
00000000
00000000
00013000
,
00011000
00000000
00000000
00000100
00000000
00000000
00001000
00000000
,
00000001
00000000
00000000
00000100
00000000
00000000
00000010
00000000
,
00002002
00000000
00000000
00000000
,
00003003
00001000
00000010
00010000
,
00001000
01000000
00000000
20020000
,
00000000
30030000
10000000
00100000
,
01000000
00010000
00100000
01000000
,
00000000
00000000
00010000
00000000
00000000
00001000
00000000
00000000
,
00022000
00033000
00000100
00002000
,
00000000
00003001
00000010
00000000
,
00000110
00000110
00000000
00000000
,
00011000
00011000
00000000
00000000
,
01100000
01100000
00000000
00000000
,
10000000
00010000
10000000
00000000
,
00200000
00000000
01300000
00010000
,
00200000
00000000
00301000
00010000
,
00000020
00000000
00000130
00000001
,
00000010
00000100
00001000
00000001
,
00002002
00000000
00000000
00000000
,
00000000
00000000
00000000
00000000
00000000
00003003
00000000
00000000
;

//--------------- dance-double - forcednature ----------------
#NOTES:
     dance-double:
     forcednature:
     Medium:
     11:
     0.475426,0.522571,0.535442,0.54368,0.070019,404,339,65,66,0,0,0.475426,0.522571,0.535442,0.54368,0.070019,404,339,65,66,0,0:
00000000
00000000
00000000
00000000
,
00000000
00000000
00000000
00000000
,
00000000
00000000
00000000
00000000
,
00001000
00000000
00110000
00000000
01010000
00000000
00000000
10000000
,
00100000
00000000
10000000
01000000
00000000
00100000
00010000
00000000
,
01010000
00000000
01001000
00000000
00011000
00000000
00000000
00000100
,
00001000
00000000
00000001
00000100
00000000
00000010
00001000
00000000
,
00000100
00000110
00000011
00000100
,
00000020
00001000
00000030
00000000
00000200
00000001
00000300
00000000
,
00001000
00011000
00110000
01000000
,
00020000
10000000
00030000
00000000
00200000
01000000
00300000
00000000
,
01000000
00000000
10000000
00000000
00100000
01000000
00000000
00010000
,
00000000
00100000
00001000
00000000
00010000
00000100
00000000
00001000
,
00000010
00000000
00000100
00000000
00000001
00000010
00000000
00000100
,
00000000
00001000
00000010
00000000
00000100
00000001
00000000
00001000
,
00000000
00000000
00010010
00000000
00001000
00100000
00010000
00100000
,
00000000
00000000
01100000
00000000
01000000
10000000
01000000
00100000
,
00000000
00000000
01100000
00000000
01000000
10000000
00000000
00010000
,
01000000
00000000
00011000
00000000
00000100
00001000
00000000
00000110
,
00000000
00000000
00000001
00000000
00000100
00000010
00000000
00001000
,
00000000
00000100
00010000
00000000
00001000
00100000
00000000
00010000
,
00000000
10000000
00100000
00000000
01000000
00010000
00000000
00100000
,
00000000
01000000
10000000
00000000
01000000
00100000
00000000
00100000
,
00100000
10000000
01000000
20020000
,
30030000
00010000
00001000
00002200
,
00003300
00000010
00001000
00000022
,
00000033
00000010
00001000
00000101
,
00000001
00000000
00002000
00000001
00000000
00003100
00001000
00000000
,
00001000
00000100
00010000
00001000
,
01000000
00000000
00020000
10000000
00000000
00130000
00010000
00000000
,
00000000
00000000
01100000
00000000
10000000
10000000
00000000
00010000
,
00010000
01000000
00100000
20020000
,
30030000
00001000
00010000
00000220
,
00000330
00000001
00001000
00022000
,
00033000
00000100
00000010
00011000
,
00110000
00000000
02000000
10000000
00000000
03100000
01000000
00000000
,
01000000
00000000
00002000
00100000
00000000
00013000
00001000
00000000
,
00012000
00000000
00000000
00000100
00000000
00000000
00013000
00000000
,
00021000
00000000
00000000
01000000
00000000
00000000
00031000
00000000
,
00022000
00000000
00000000
00000000
,
00033000
00001000
00010000
00000100
,
00001000
00000001
00000000
00000220
,
00000330
00000000
00000002
00000000
00000003
00002000
00000000
00003000
,
00000220
00000000
00000000
00000330
,
00000000
00010000
00001000
01000000
,
00010000
10000000
20200000
30300000
,
02020000
03030000
20020000
30030000
,
02200000
00000000
00000000
00000000
,
03300000
00010000
00001000
00000010
,
00000002
00000203
00000300
00002002
,
00003003
00000000
00000010
00000100
,
00001000
00010000
01000000
00100000
,
00000000
00000000
11000000
00000000
00000000
01010000
00000000
00000000
,
10010000
00000000
01100000
00011000
,
00000000
00000000
00110000
00000000
00020000
00001000
00000000
00030100
,
00010000
00000010
00000110
00001001
,
00000001
00000100
00011000
00110000
,
01000000
00000000
00010000
00000000
10000000
00100000
10000000
00000000
,
00010000
00000000
00100000
00000000
01000000
01000000
00000000
01000000
,
01000000
10000000
00010000
01000000
,
00001000
00000000
00000000
00010000
00000000
00000000
00000100
00000000
00001000
00000000
00000100
00000000
,
00000010
00000001
00000100
00000010
,
00001000
00000000
00000100
00000000
00010000
00000000
00001000
00000000
01000000
00000000
00010000
00000000
,
10010000
10000000
00010000
00100000
,
00011000
00011000
00000100
00001000
,
00000110
00000000
00000110
00000000
00000001
00000000
00000100
00000010
,
00001000
00000000
00000000
00000100
00000000
00000000
00000010
00000000
00000001
00000000
00000000
00000010
00000000
00000000
00000100
00000000
,
00001000
00000000
00000100
00010000
00002000
00000000
02003000
00000000
,
03000000
00010000
10000000
00100000
,
01000000
00000000
00001000
00010000
00000200
00000000
00020300
00000000
,
00031000
00000000
00100000
00000000
00001000
00000000
00010000
00000000
00000100
00010000
00000000
00000000
,
00021000
00000000
00000000
00100000
00000000
00000000
00031000
00000000
,
00012000
00000000
00000000
00000010
00000000
00000000
00013000
00000000
,
00022000
00000000
00000000
00000000
,
00033000
00001000
00100000
00010000
,
10000000
00200000
00300000
02200000
,
03300000
01000000
00001000
00010000
,
00001100
00000010
00000001
00000100
,
00000000
00000000
00000110
00000000
00000000
00001001
00000000
00000000
,
00001100
00000000
00010000
00001000
00100000
00000000
10010000
00000000
,
00010000
01000000
01000000
00000000
00200000
10000000
00000000
00310000
,
00100000
00010000
00011000
00011000
,
00000100
00001000
00000110
00000110
,
00000001
00001000
00000110
00000110
,
00001000
00000000
00000100
00000000
00020000
00001000
00000000
00030010
,
00010000
00000000
00001000
00000000
00100000
00000000
00020000
00000000
00000000
02030000
00000000
00000000
,
03100000
00000000
10000000
00000000
01000000
00000000
00200000
00000000
00000000
00320000
00000000
00000000
,
01030000
00000000
00001000
00000000
00010000
00000000
00000200
00000000
00000000
00020300
00000000
00000000
,
00032000
00000100
00003100
00000000
00020000
01000000
01030000
00000000
,
00022000
00000000
00000000
00000000
,
00000000
00000000
00000000
00000000
00000000
00033000
00000000
00000000
;

//--------------- dance-double - forcednature ----------------
#NOTES:
     dance-double:
     forcednature:
     Hard:
     14:
     0.850823,1.082468,0.263602,0.156514,0.498373,723,691,32,19,0,0,0.850823,1.082468,0.263602,0.156514,0.498373,723,691,32,19,0,0:
00000000
00000000
00000000
00000000
,
00000000
00000000
00000000
00000000
,
00000000
00000000
00000000
00000000
,
00001000
00000000
00010000
00000000
01000000
00000000
10000000
00100000
01000000
00000000
00010000
00000000
00010000
00000000
00100000
00000000
,
00001000
00000100
00000010
00001000
00000100
00000010
00000001
00000100
,
00001000
00000000
00010000
00000000
01000000
00000000
00100000
00010000
01000000
00000000
00001000
00000000
00001000
00000000
00020000
00000000
,
00000000
00030200
00000000
00000320
00000000
00002030
00000000
00003000
,
01000000
00100000
10000000
00010000
01000000
00001000
00000100
00000010
,
00000000
00001000
00000100
00000010
00000001
00001000
00000010
00010000
,
00000000
00000100
00000001
00000100
00000010
00001000
00010000
01000000
,
00000000
10000000
00100000
00010000
00001000
00100000
00010000
01000000
,
00100000
10000000
00100000
10000000
00100000
10000000
00100000
10000000
00010000
10000000
00010000
10000000
00010000
10000000
00010000
10000000
,
00010000
00100000
00010000
00100000
00010000
00100000
00010000
00100000
00001000
00000000
00010000
00000000
00000010
00000000
00001000
00000000
,
00000100
00010000
00000100
00010000
00000100
00010000
00000100
00010000
00001000
00010000
00001000
00010000
00001000
00010000
00001000
00010000
,
00001000
01000000
00001000
01000000
00001000
01000000
00001000
01000000
00010000
00000000
10000000
00000000
00000000
00000000
10010000
00000000
,
10000000
01000000
00010000
00001000
00000100
00000001
00000010
00000100
,
00000000
00001000
00000001
00000010
00001000
00000010
00000100
00010000
,
00000000
00001000
01000000
00100000
00010000
00100000
10000000
01000000
,
00000000
00100000
00010000
01000000
00001000
00000010
00000001
00001000
,
00000001
00000100
00000001
00000100
00000001
00000100
00000001
00000100
00000001
00001000
00000001
00001000
00000001
00001000
00000001
00001000
,
00000100
00010000
00000100
00010000
00000100
00010000
00000100
00010000
00001000
00000000
00100000
00000000
00010000
00000000
10000000
00000000
,
00010000
01000000
00010000
01000000
00010000
01000000
00010000
01000000
00001000
01000000
00001000
01000000
00001000
01000000
00001000
01000000
,
00001000
00010000
00001000
00010000
00001000
00010000
00001000
00010000
00001000
00000000
00000100
00000000
00000000
00000000
00011000
00000000
,
00001000
00000000
00010000
00001000
00010000
00100000
00010000
00000000
,
00000100
00000000
00001000
01000000
00001000
00000100
00001000
00000000
,
00000010
00000000
00000100
00010000
00000100
00000001
00000100
00000000
,
00001000
00000000
00100000
10000000
00100000
00001000
00100000
00000000
,
01000000
10000000
00010000
00100000
00000000
00001000
00000100
00000000
,
00000010
00001000
00000100
00000010
00000001
00000100
00000010
00000000
,
00010000
00001000
00100000
00001000
00010000
00100000
10000000
00000000
,
01000000
00000000
00100000
00000000
00001000
00000000
00010000
00000010
00000100
00000000
00000001
00000000
00000000
00000000
00001001
00000000
,
00001000
00000000
00000100
00000001
00000100
00001000
00000100
00000000
,
00010000
00000000
00100000
10000000
00100000
00001000
00100000
00000000
,
01000000
00000000
00001000
00100000
00001000
00000100
00001000
00000000
,
00010000
00000000
00000100
00000010
00000100
00010000
00000100
00000000
,
00001001
00000000
00000001
00000100
00000010
00000001
00001000
00000100
,
00000010
00010000
00001000
00100000
01000000
00100000
00010000
00000000
,
10100000
00000000
10000000
00010000
00000000
01000000
00001000
00001000
,
00010000
00000000
00000100
00000000
00001000
00000000
00000001
00000000
00001000
00000010
00000100
00000001
00001000
00000100
00001000
00000000
,
00000100
00010000
00001000
01000000
00100000
10000000
01000000
00100000
,
00010000
00110000
00101000
00010100
,
00000001
00000000
00000010
00000000
00001000
00000000
00000010
00000100
00010000
00000000
00001000
00000000
00001000
00000000
01000000
00000000
,
00100000
00000000
10000000
01000000
10000000
00000000
00010000
00100000
01000000
10000000
00100000
00000000
01000000
00000000
00001000
00000000
,
00010000
00000100
00010000
00000010
00000100
00001000
00000100
00000001
,
00001000
00001100
00011000
01010000
,
00010000
00000000
01000000
00000000
00100000
00000000
00010000
00001000
00100000
00000000
00001000
00000000
00001000
00000000
00010000
00000000
,
00000100
00001000
00000100
00000000
00000010
00000001
00000010
00000000
00000001
00000100
00000010
00001000
00000010
00000100
00000001
00000000
,
00001000
00000010
00010000
00001000
00100000
00010000
01000000
00100000
,
10000000
01010000
10010000
10100000
,
00010000
00100000
00100000
00001000
00000010
00000010
00000100
00010000
,
00000010
00000000
00000100
00000000
00000001
00000000
00000000
00000000
00001000
00000100
00001000
00000001
00000010
00000000
00000100
00000000
,
00001000
00010000
00100000
10000000
00100000
00010000
01000000
00000000
,
00100000
10000000
01000000
00100000
00001000
00010000
00000010
00000000
,
00000100
00000000
00000001
00000010
00000100
00001000
00000100
00000000
00000010
00000000
00000100
00000000
00010000
00000000
00001000
00100000
,
00001000
00000000
01000000
00100000
01000000
00000000
00010000
10000000
00010000
00000000
00100000
00000000
00000000
00000000
00001000
00000000
,
00011000
00000000
00011000
00000000
00010000
00001000
00000100
00000000
,
00000110
00000000
00000110
00000000
00000001
00000100
00000000
00000000
,
00001001
00000000
00000110
00000000
00000001
00001000
00000010
00000100
,
00000001
00000000
00000010
00000000
00000100
00000000
00010000
00001000
00010000
00000000
00100000
00000000
00000000
00000000
01000000
00000000
,
00001000
00010000
01000000
00100000
00001000
00010000
01000000
00100000
,
00001000
00000000
00000000
00010000
00000000
00000000
01000000
00000000
00000000
00100000
00000000
00000000
00001000
00000000
00010000
00000000
01000000
00000000
00100000
00000000
01000000
00000000
00010000
00000000
,
00001000
00000100
00000010
00010000
00001000
00000100
00000010
00010000
,
00001000
00000100
00000010
00010000
00000010
00000100
00001000
00010000
01000000
10000000
00100000
00010000
,
00002000
00003020
00000032
00000203
,
00002300
00023000
02030000
23000000
,
30020000
00000000
00230000
00000000
00302000
00000000
00003100
00000001
,
00001000
00000000
00000000
00000100
00000000
00000000
00010000
00000000
00001000
00000000
00000000
01000000
00000000
00000000
00010000
10000000
,
00010000
00000000
00100000
00001000
00010000
00000000
00022000
00000000
,
00033000
00000000
00001000
00000000
00010000
00000000
00000100
00000000
00000001
00000000
00000100
00000000
00000010
00000000
00000001
00001000
,
00000001
00000000
00000100
00001000
00010000
00100000
10000000
00000000
,
00010000
01000000
00001000
00010000
00000100
00001000
00000010
00000100
00000001
00000010
00000000
00000000
,
00001001
00000000
00001000
00000100
00000000
00010000
00001000
00001000
,
01000000
00000000
00100000
00000000
10000000
00000000
00010000
00000000
00100000
01000000
10000000
00010000
01000000
00100000
10000000
00000000
,
00010000
00100000
01000000
00001000
00000100
00010000
00001000
00000010
,
00000001
00000110
00001001
00000101
,
00000001
00001000
00000100
00010000
01000000
00100000
00010000
01000000
,
00001000
00000000
00100000
00000000
00100000
00000000
00001000
00000000
00010000
00000100
00010000
00001000
00100000
00000000
01000000
00000000
,
10000000
00100000
00010000
00001000
00000010
00000001
00000100
00000000
,
00000010
00001000
00000100
00000001
00000100
00001000
00000010
00000000
,
00010000
00000000
00001000
00010000
00001000
01000000
00010000
00000000
00100000
00000000
00010000
00000000
01000000
00000000
00001000
00010000
,
00000100
00000000
00001000
00000100
00010000
00000000
00001000
00010000
00000100
00001000
00000001
00000100
00000010
00001000
00000001
00000000
,
00001001
00000000
00001001
00000000
00000100
00010000
00100000
00000000
,
10010000
00000000
10010000
00000000
00001000
00010000
00000000
00000000
,
00001001
00000000
00000110
00000000
00000001
00000100
00001000
00000100
,
00010000
00000000
00100000
00000000
01000000
00000000
10000000
00010000
10000000
00000000
00100000
00000000
00000000
00000000
00010000
00000000
,
00001000
00000000
00010000
00000000
00000100
00000000
00010000
00000000
00001000
00000000
00100000
00000000
00001000
00000000
00000000
00010000
00000000
00000000
00000010
00000000
00000000
00000100
00000000
00000000
,
00000001
00000000
00000100
00000000
00001000
00000000
00010000
00000000
01000000
00000000
10000000
00000000
00010000
00000000
00000000
01000000
00000000
00000000
00001000
00000000
00000000
00010000
00000000
00000000
,
00000010
00000000
00010000
00000000
00001000
00000000
00100000
00000000
00001000
00000000
00010000
00000000
00000100
00000000
00000000
00010000
00000000
00000000
00001000
00000000
00000000
01000000
00000000
00000000
,
00100000
00000000
10000000
00000000
01000000
00000000
00100000
00010000
00100000
00000000
00001000
00000000
00010000
00000000
00000100
00000000
,
00000220
00000000
00000000
00000000
,
00000000
00000000
00000000
00000000
00000000
00000330
00000000
00000000
;

//--------------- dance-double - forcednature ----------------
#NOTES:
     dance-double:
     forcednature:
     Challenge:
     14:
     0.81552,1.007815,1.326249,0.140039,0.222414,693,532,161,17,64,0,0.81552,1.007815,1.326249,0.140039,0.222414,693,532,161,17,64,0:
00000000
00000000
00000000
00000000
,
00000000
00000000
00000000
00000000
,
00000000
00000000
00000000
00000000
,
00010000
00000000
00001000
00000000
00011000
00000000
00010000
00000100
00010000
00000000
00000010
00000000
00000100
00000000
00000101
00000000
,
00000001
00000000
00000010
00000000
00000110
00000000
00000100
00001000
00000100
00000000
00010000
00000000
00001000
00000000
00101000
00000000
,
00100000
00000000
00010000
00000000
10010000
00000000
10000000
00100000
10000000
00000000
00010000
00000000
01000000
00000000
01001000
00000000
,
00000000
00011000
00010000
00010010
00000000
00001100
00000000
00000000
,
00000001
00000100
00000101
00000000
00000001
00001000
00000100
00001000
,
00000000
00000010
00010010
00000000
01001000
01000000
00010000
00100000
,
00000000
00000000
01100000
00000000
10010000
00010000
00000000
00101000
,
00000000
00000100
00000110
00000000
00001001
00001000
00000000
00010100
,
00010000
01000000
10000000
01000000
00010000
00001000
00000100
00000010
,
00001000
00000100
00000001
00000100
00001000
00001100
000MMMM0
00010010
,
00010000
00001000
01000000
00100000
00010000
10000000
01000000
00010000
,
00100000
00002000
00010000
00003000
00001000
00011000
0MMMM000
01100000
,
00000000
00001000
00010000
00000100
00000110
00000010
00000000
00001001
,
00000000
00000001
00000101
00000000
00001010
00001000
00000000
00020100
,
00000000
00130000
00110000
00000000
01100000
01000000
00000000
10010000
,
00000000
00100000
00101000
00000000
00010100
00010000
00000000
00000101
,
00000001
00001000
00000100
00010000
00100000
01000000
10000000
01000000
,
00010000
00100000
00001000
00010000
00000100
00010100
MM0M0M00
11000000
,
10000000
00010000
00100000
00001000
00010000
00000100
00001000
00000001
,
00000100
00000000
00001000
00000000
00010000
00000000
00000100
00001000
00000100
00000000
00010100
00000000
00000000
00000000
00101000
00000000
,
00MMMM00
00010100
00001001
00000110
,
MM000MM0
11000000
00110000
00011000
,
000MM0MM
00000011
00001100
00010010
,
00MMM0M0
00101000
00010100
01100000
,
10010000
00000000
00110000
00100000
00001000
00010000
00000100
00000010
,
00001000
00000010
00000001
00000100
00001000
00001000
00000100
00000100
,
00000001
00000000
00000110
00002000
00000001
00003000
00000110
00000000
,
00001000
00000000
00000000
00000000
00011000
00000000
00010000
00001000
00010000
00000000
01010000
00000000
00000000
00000000
00001010
00000000
,
0M0MM0M0
01010000
00011000
00001100
,
MM00MM00
11000000
00110000
01010000
,
0M0MMM00
00001100
00000011
00010010
,
000MM0MM
00001001
00000110
00011000
,
01100000
00000000
10010000
00020000
00000000
00030000
01010000
00000000
,
00001000
00010000
00000010
00000100
00001000
00001000
00000100
00000000
,
00001001
00000000
00001000
00000100
00000000
00010000
00001000
00001000
,
00101000
00100000
00001000
01001000
00001000
00010000
00010100
00000100
,
00002002
00000000
00000000
00000000
,
00003003
00000101
00011000
11000000
,
01100000
00000000
00011000
00100000
00001000
00100000
00011000
00000100
,
00001000
00000001
00000110
00001000
00000001
00001100
00010000
00001000
,
00220000
00000000
00000000
00330000
,
00000000
10100000
00110000
00011000
,
00001100
00000000
00001000
00000000
00000001
00000000
00000100
00000010
00000100
00000000
00001000
00000000
00010000
00000000
00010000
00000000
,
01000000
00100000
01000000
00100000
01000000
00000000
10000000
00000000
00010000
01000000
00100000
10000000
01000000
00100000
00010000
00000000
,
00022000
00000000
00000000
00000000
,
00033000
00010100
00001001
00000110
,
00000101
00000000
00000100
00000000
00001001
00000000
00001000
00000000
00000100
00000000
00010000
00000000
00001000
00000000
00100000
00010000
,
00100000
00000000
01000000
00000000
10000000
00000000
00100000
00000000
00010000
00001000
00010000
00000000
00000100
00000000
00001000
00000000
,
00001001
00001010
00010100
00011000
,
00001000
00100000
00110000
00000000
00100000
01100000
10000000
01100000
,
00220000
00330000
00011000
00001010
,
00000001
00000100
00000101
00000000
00000001
00001001
00000000
00000110
,
00000110
00000000
00011000
00000000
00001000
00010000
00101000
00000000
,
10010000
00000000
10010000
00000000
01000000
01100000
00000000
00001000
,
00011000
00000000
00011000
00000000
00010100
00000000
00000001
00001000
,
00000010
00000000
00000110
00000000
00000001
00000101
00000000
00001010
,
00001000
00000100
00010000
000MMMM0
00001000
00000100
00010000
000MMMM0
,
00001000
00000000
00000000
00000100
00000000
00000000
00010000
00000000
00000000
000MMMM0
00000000
00000000
00001000
00000000
00000100
00000000
00010000
00000000
00001000
00000000
00010000
00000000
00000100
00000000
,
00010000
00001000
01000000
0MMMM000
00010000
00001000
01000000
0MMMM000
,
00010000
00001000
01000000
00010000
01000000
00001000
00010000
00000100
00000010
00001000
00000010
00000001
,
00001000
00000010
00010000
01000000
,
10010000
10010000
10000000
00010000
,
00100000
00000000
00001000
00000000
00000100
00000000
00000001
00001000
,
00000100
00000000
00000000
00010000
00000000
00000000
01000000
00000000
10000000
00000000
00000000
01000000
00000000
00000000
00100000
00010000
,
00100000
00000000
00001000
00000100
00000010
00001000
00010000
00000000
,
01000000
00000000
00001000
00000000
00010000
00000000
00000100
00000000
00000010
00000000
00001000
00000000
00000001
00000000
00000100
00000010
,
00000100
00000000
00010000
00001000
01000000
00100000
00010000
00000000
,
00001000
00000100
00000001
00000100
00001000
00010000
00100000
10000000
00100000
00010000
00000000
00000000
,
00011000
00010000
00000100
00001100
00001000
00000001
00000101
00000000
,
00001000
00000000
00010010
00000000
00000000
00000000
01001000
00000000
00100000
00001000
00010000
00000100
00010000
00001000
00100000
00000000
,
00022000
00000000
00000000
00000000
,
00033000
00000000
00001000
00000000
00100000
00000000
01000000
10000000
01000000
00000000
00100000
00000000
00001000
00000000
00001000
00000000
,
00011000
00000000
00000210
00001000
00000001
00000301
00000110
00001000
,
00000001
00000000
00000010
00000000
00001100
00000000
00000000
00000000
00010000
00001000
00010000
00000000
00100000
00000000
10000000
00000000
,
01100000
00010000
01010000
01000000
00110000
00001000
00011000
00000000
,
00010000
00000000
00000100
00000000
00001100
00000000
00001000
00000001
00001000
00000000
00001010
00000000
00000010
00000000
00000000
00000000
,
00011000
00000000
01000000
00001000
00000010
00000000
00011000
00000000
,
00001000
00000000
00010000
00000000
00100000
00000000
10000000
00010000
10000000
00000000
01100000
00000000
00000000
00000000
00011000
00000000
,
00101000
00000000
00010100
00000000
00000010
00000100
00001001
00000000
,
00000101
00000000
00001100
00000000
00010000
00011000
00000000
00001000
,
01001000
00000000
10100000
00000000
10000000
01000000
00010000
00001000
,
00000100
00000000
00000000
00000000
00000110
00000000
00000010
00000100
00000010
00000000
00001001
00000000
00000000
00000000
00000101
00000000
,
00000001
00000000
00000100
00000000
00000001
00000000
00000010
00000000
00001000
00000000
00010000
00000000
01000000
00000000
00000000
10000000
00000000
00000000
00010000
00000000
00000000
00100000
00000000
00000000
,
00001000
00000000
00010000
00000000
00001000
00000000
00000100
00000000
00000010
00000000
00010000
00000000
00001000
00000000
00000000
00000010
00000000
00000000
00000001
00000000
00000000
00001000
00000000
00000000
,
00001001
00000000
00000000
00000001
00000000
00000000
00001000
00000000
00000100
00000000
00010000
00000000
00001000
00000000
00000000
00100000
00000000
00000000
01100000
00000000
00000000
01000000
00000000
00000000
,
10010000
00000000
00100000
00000000
00011000
00000000
00000100
00001000
00000100
00000000
00001010
00000000
00000110
00000000
00000101
00000000
,
00002002
00000000
00000000
00000000
,
00000000
00000000
00000000
00000000
00000000
00003003
00000000
00000000
;
