#VERSION:0.83;
#TITLE:炎と森のカーニバル;
#SUBTITLE:;
#ARTIST:SEKAI NO OWARI;
#TITLETRANSLIT:;
#SUBTITLETRANSLIT:;
#ARTISTTRANSLIT:;
#GENRE:;
#CREDIT:;
#MUSIC:Honoo To Mori No Carnival.ogg;
#BANNER:Honoo To Mori No Carnival.png;
#BACKGROUND:Honoo To Mori No Carnival-bg.png;
#CDTITLE:;
#SAMPLESTART:74.500;
#SAMPLELENGTH:15.000;
#SELECTABLE:YES;
#OFFSET:2.052;
#BPMS:0.000=116.000;
#STOPS:;
#BGCHANGES:;
#FGCHANGES:;

//--------------- dance-single - Talkion ----------------
#NOTEDATA:;
#STEPSTYPE:dance-single;
#DESCRIPTION:Talkion;
#DIFFICULTY:Medium;
#METER:10;
#RADARVALUES:0,0,0,0,0;
#NOTES:
0000
0000
0000
0000
,
0000
0000
0000
0000
,
0000
0000
0000
0000
,
0000
0000
0000
0000
,
0000
0000
0000
0000
,
1002
0203
2300
3200
,
0302
0000
1003
0100
0020
0000
0031
0100
,
0020
0000
1030
0001
0020
0000
0000
0100
,
0230
1300
0011
1010
,
2001
3200
0302
0023
,
2030
0000
3001
0100
0020
0000
1030
0100
,
0020
0000
1030
0010
0002
0000
0000
0103
,
0020
1030
0101
1100
,
2000
0000
0010
0000
0001
3001
1000
0000
,
0002
0000
0010
0000
1000
1003
0001
0000
,
0200
0000
0001
0000
0010
0310
0100
0000
,
0020
0000
1000
0000
0100
0130
0010
0000
,
1000
0010
1000
0000
0010
0001
0010
0000
,
0001
0100
0001
0000
0100
1000
1000
0001
,
1000
0100
1000
0000
0100
0001
0100
0000
,
0001
0010
0001
0000
0010
1000
1000
0001
,
1000
0100
1000
0000
0100
0001
0100
0000
,
0001
0010
0001
0000
0010
1000
1000
0001
,
0010
0001
1000
0000
0010
1000
0010
0000
,
0200
0000
1000
0000
0010
0000
0301
0100
,
0001
1000
0100
0000
0001
1000
0001
0000
,
0010
1000
0001
0000
1000
0100
0100
0010
,
0001
1000
0010
0000
0001
1000
0001
0000
,
0100
1000
0001
0000
1000
0010
0100
0100
,
0001
1000
0100
0000
0001
1000
0001
0000
,
0010
1000
0001
0000
1000
0010
0100
0100
,
0001
0010
0100
0000
1000
0010
0001
0000
,
0010
1000
0100
0000
0001
0100
0100
1000
,
0020
0130
0002
1003
,
0200
0302
0023
2030
,
3200
0000
0000
0301
0020
0000
0000
1030
,
0100
0001
0010
1000
0100
0001
0010
0100
,
0110
0000
0100
0010
1001
0100
0010
0000
,
1010
0000
1000
0001
0011
0010
0011
0000
,
1001
0000
1000
0001
0110
0000
0001
1000
,
0110
0000
0001
0100
0101
0001
0101
0000
,
1100
0000
0100
0010
1001
0000
0001
1000
,
1010
0000
1000
0001
0011
0010
0011
0000
,
0110
0000
0010
0100
1001
0010
0100
0000
,
1100
0000
1000
0001
0101
0100
0101
0000
,
1001
1000
0100
0010
0012
0000
1003
0000
,
1001
0001
0101
0100
1100
0000
1010
0000
,
0012
0103
2010
3100
,
0110
0000
1001
0001
2001
0000
3010
0000
,
0202
0000
0000
0000
,
0303
0000
0000
0000
,
0002
0000
0100
0000
1000
1003
0001
0000
,
2000
0000
0100
0000
0001
3001
1000
0000
,
2002
0000
0000
0000
,
0000
0000
0000
0000
,
0000
0000
0000
0000
,
0000
0000
0000
0000
,
0000
0000
0000
0000
,
0000
0000
0000
0000
,
3003
0000
0000
0000
;

//--------------- dance-single - Talkion ----------------
#NOTEDATA:;
#STEPSTYPE:dance-single;
#DESCRIPTION:Talkion;
#DIFFICULTY:Hard;
#METER:13;
#RADARVALUES:0,0,0,0,0;
#NOTES:
0000
0000
0000
0000
,
0000
0000
0000
0000
,
0000
0000
0000
0000
,
0000
0000
0000
0000
,
0000
0000
0000
0000
,
0201
1300
1020
0031
,
0201
0000
0310
1000
1200
0000
0310
0001
,
0201
0000
1300
0001
0201
0000
1300
0001
,
2001
0000
0000
0000
0010
0000
0000
3010
1000
0001
0000
0000
0011
0000
0000
0000
,
1020
0031
0201
1300
,
1020
0000
0130
0001
0021
0000
0130
1000
,
1020
0000
0031
1000
1020
0000
0031
0100
,
1200
0000
0000
0000
0010
0000
0000
0310
0100
0001
0000
0000
1001
0000
1000
0000
,
0010
0000
1000
0000
0001
1000
0001
0010
0000
0010
0100
0000
1000
0000
0000
0000
,
0001
0000
0000
0000
0000
0000
1000
0000
0000
0000
0000
0000
0001
0000
0000
0100
0000
0000
0001
0000
0000
1000
0000
0000
0000
0000
0000
0000
0000
0000
1000
0000
0000
0000
1000
0000
0001
0000
0000
0000
0000
0000
0010
0000
0000
0000
0000
0000
,
0100
0000
1000
0000
0001
1000
0001
0100
0000
0100
0010
0000
1000
0000
0000
0000
,
0001
0000
0000
0000
0000
0000
1000
0000
0000
0000
0000
0000
0001
0000
0000
0010
0000
0000
0001
0000
0000
1000
0000
0000
0000
0000
0000
0000
0000
0000
1000
0000
0000
0000
1000
0000
0010
0000
0000
0000
0010
0000
0100
0000
0000
0000
0000
0000
,
0001
1000
0100
0001
0010
0001
0100
2000
,
0000
0000
0000
3001
0000
0000
1000
0000
0000
0010
0000
0000
0100
0000
0000
0001
0000
0001
1000
0000
0000
0100
0000
0000
,
1000
0001
0100
1000
0010
1000
0100
0002
,
0000
0000
0000
0013
0000
0000
0100
0000
0000
1000
0000
0000
0001
0000
0000
1000
0000
1000
0010
0000
0000
1000
0000
0000
,
0001
0010
1000
0100
1000
0010
0001
2000
,
0000
0000
0000
3010
0000
0000
0100
0000
0000
0001
0000
0000
1000
0000
0000
0100
0000
0100
0010
0000
0000
0002
0000
0000
,
0000
0103
1000
0020
0000
0130
1000
0020
,
0000
0000
0000
0130
0000
0000
0001
0000
0000
1000
0000
0000
0100
0000
0000
0010
0000
0010
0100
0000
0100
1000
0000
0000
,
0001
0100
1000
0010
0001
0100
1000
0002
,
0000
0000
0000
1003
0000
0000
0100
0000
0000
0001
0000
0000
1000
0000
0000
0100
0000
0100
0010
0000
0000
0001
0000
0000
,
1000
0010
0001
0100
1000
0010
0001
2000
,
0000
0000
0000
3100
0000
0000
0001
0000
0000
0010
0000
0000
0100
0000
0000
1000
0000
1000
0001
0000
0000
0100
0000
0000
,
1000
0100
0001
0010
1000
0100
0001
0020
,
0000
0000
0000
0130
0000
0000
1000
0000
0000
0010
0000
0000
0100
0000
0000
0001
0000
0001
1000
0000
0000
0200
0000
0000
,
0000
0310
0001
0200
0000
0310
0001
0200
,
0000
0000
0000
0310
0000
0000
0001
0000
0000
1001
0000
0000
0000
0000
0000
1000
0000
1000
0010
0000
0000
1000
0000
0000
,
0002
0013
2000
3100
,
1001
0000
0000
0000
0000
0000
0000
0000
0000
0000
0000
0000
0101
0000
0000
0000
0000
0000
0000
0000
0000
0000
0000
0000
0001
0000
0000
0000
0000
0000
1000
0000
0000
0000
1000
0000
0001
0000
0000
0000
0000
0000
0010
0000
0000
0100
0000
0000
,
1000
0000
0001
0000
1000
0000
0010
0100
0001
0000
1000
0000
0001
0000
0010
0100
,
1000
0100
0010
0100
1000
0001
0100
0010
2000
0000
0000
0000
0000
0000
0000
0000
,
3001
1000
0000
1000
0001
0010
0100
1000
0001
0100
0000
0010
2000
0000
0000
0000
,
3001
0000
1000
0000
0100
1000
0001
0100
0010
0000
0100
0010
1000
0001
0000
0001
,
0010
0100
0000
0100
1000
0001
0000
0001
0100
0000
0010
0000
1000
0000
0001
0010
,
0100
1000
0002
0000
0100
0000
0000
0000
1003
0000
0001
0000
0010
0000
0100
0000
,
1000
0001
1000
0000
0010
0100
0001
0100
0020
0000
0000
0000
1000
0000
0000
0000
,
0130
0010
1000
0001
1000
0100
0000
0010
0002
0000
0000
0000
0010
0000
0000
0013
,
0001
1000
0000
1000
0010
0100
0010
1000
0001
0000
0010
0000
0100
0000
1000
0001
,
0100
0010
1000
0001
0011
0000
1100
0000
,
1000
0001
1000
0010
0100
0010
0000
0010
2000
0000
0000
0000
0001
0000
0000
0000
,
3100
1000
0100
1000
0001
0100
0000
0010
1000
0000
0000
0000
1002
0000
0000
0013
,
0001
1000
0010
1000
0001
1000
0100
1000
,
1001
0101
2010
3100
,
0022
0000
0000
0000
,
0033
0000
0000
0000
,
0001
0000
1000
0000
0010
1000
0010
0100
0000
0100
0001
0000
1000
0000
0000
0000
,
0001
0000
0000
0000
0000
0000
1000
0000
0000
0000
0000
0000
0001
0000
0000
0010
0000
0000
0001
0000
0000
1000
0000
0000
0000
0000
0000
0000
0000
0000
1000
0000
0000
0000
1000
0000
0001
0000
0000
0000
0000
0000
0100
0000
0000
0000
0000
0000
,
0120
0000
1000
0000
,
0001
0000
1000
0000
,
0001
0000
1000
0000
,
0001
0000
1000
0000
,
0200
0000
0000
0000
,
0000
0000
0000
0000
,
0330
0000
0000
0000
;
