#TITLE:HiT! HiT! HiT!;
#SUBTITLE:;
#ARTIST:Cranky vs. HiTECH NINJA;
#TITLETRANSLIT:;
#SUBTITLETRANSLIT:;
#ARTISTTRANSLIT:;
#GENRE:;
#CREDIT:;
#BANNER:HiT! HiT! HiT!.png;
#BACKGROUND:HiT! HiT! HiT!-bg.png;
#LYRICSPATH:;
#CDTITLE:cdtitle.png;
#MUSIC:HiT! HiT! HiT!.ogg;
#OFFSET:0.000000;
#SAMPLESTART:37.500000;
#SAMPLELENGTH:13.500000;
#SELECTABLE:YES;
#BPMS:0.000000=160.000000
;
#STOPS:
;
#BGCHANGES:;
#KEYSOUNDS:;
#ATTACKS:;

//---------------dance-single - MEGAtive----------------
#NOTES:
     dance-single:
     :
     Beginner:
     5:
     0.232456,0.311819,0.150533,0.258057,0.000000,227.000000,206.000000,21.000000,36.000000,0.000000,0.000000,0.232456,0.311819,0.150533,0.258057,0.000000,227.000000,206.000000,21.000000,36.000000,0.000000,0.000000:
0000
0000
0000
0000
,
0000
0000
0000
0000
,
0000
0000
0000
0000
,
0000
0000
0000
0000
,
0000
0000
0000
0000
,
0000
0000
0000
0000
,
0000
0000
0000
0000
,
0000
0000
0000
0000
,
1001
0000
0000
0000
,
0011
0000
0000
0000
,
1001
0000
1010
0000
,
1001
0000
0101
0000
,
1001
0001
0001
0001
,
1000
1000
1000
1000
,
0010
0010
0010
0010
,
0100
0100
0100
0100
,
2002
0000
0000
3003
,
0220
0000
0000
0330
0000
0000
0000
0000
,
1000
0010
1000
0000
,
0001
0010
0001
0000
,
1000
0010
1000
0000
,
0001
0010
0001
1000
,
0001
0001
0100
0000
,
0100
0100
0010
0000
,
0010
0010
1000
0000
,
2002
0000
0000
3003
,
0001
0001
0001
0000
,
1000
1000
1000
0000
,
0010
0010
0100
0100
,
0001
1000
0001
1000
,
0001
0001
0001
0000
,
1000
1000
1000
0000
,
0100
0100
0010
0010
,
2002
0000
3003
0000
,
0001
0000
0001
0000
,
1000
0000
1000
0000
,
0010
0010
0100
0000
,
0001
0001
1000
1000
,
0001
0000
0001
0000
,
1000
0000
1000
0000
,
0010
0010
0100
0000
,
0001
0001
1000
1000
,
0001
0001
0001
0000
,
0100
0100
0100
0000
,
0010
0010
0010
0000
,
1000
1000
0001
0100
,
0001
0001
0001
0000
,
0010
0010
0010
0000
,
0100
0100
0100
0000
,
1000
1000
0001
0010
,
0001
0000
0000
0000
,
2002
0000
3003
0000
,
0102
0000
0023
0000
,
0230
0000
2300
0000
,
3001
0000
0001
0000
,
1000
0000
1000
0000
,
0012
0000
0203
0000
,
0320
0000
2030
0000
,
3001
0000
0001
0000
,
1000
0000
1000
0010
,
2010
0000
3200
0000
,
0320
0000
0032
0000
,
1003
0000
1000
0000
,
0001
0000
0001
0000
,
2100
0000
3020
0000
,
0230
0000
0302
0000
,
1003
0000
0000
0000
,
2002
0000
0000
3003
,
0220
0000
0000
0330
0000
0000
0000
0000
,
1000
0010
0100
0001
,
1000
0100
0010
0000
,
0001
0100
0010
1000
,
0001
0010
0100
0000
,
1000
0100
0010
0001
,
1000
0010
0100
0000
,
0001
0010
0100
1000
,
2002
0000
0000
3003
,
1000
1000
1000
0000
,
0001
0001
0001
0000
,
0100
0100
0010
0010
,
1000
0001
1000
0001
,
1000
1000
1000
0000
,
0001
0001
0001
0000
,
0010
0010
0100
0100
,
2002
0000
3003
0000
,
0220
0000
0000
0000
,
0000
0000
0000
0000
,
0330
0000
0000
0000
;

//---------------dance-single - MEGAtive----------------
#NOTES:
     dance-single:
     :
     Easy:
     8:
     0.492561,0.561274,0.501778,0.086019,0.017921,481.000000,411.000000,70.000000,12.000000,0.000000,0.000000,0.492561,0.561274,0.501778,0.086019,0.017921,481.000000,411.000000,70.000000,12.000000,0.000000,0.000000:
0000
0000
0000
0000
,
0000
0000
0000
0000
,
0000
0000
0000
0000
,
0000
0000
0000
0000
,
0000
0000
0000
0000
,
0000
0000
0000
0000
,
0000
0000
0000
0000
,
0000
0000
0000
0000
,
1001
0001
0001
0001
,
1001
1000
1000
1000
,
1001
0001
1001
1000
,
1001
0001
1001
1000
,
1001
0011
1001
1010
,
1001
0110
1001
0011
,
1001
0110
1001
1100
,
1001
0000
0011
0000
0010
0100
1000
0001
,
0200
0010
1000
0301
,
2002
0000
3003
0000
,
1001
0000
0001
0010
0001
0000
1000
0010
,
1000
0000
0001
0010
0001
0000
1000
0010
,
1000
0000
0001
0100
0001
0000
1000
0100
,
1000
0000
0001
0100
0001
0000
1000
0100
,
1000
0000
0001
0010
0001
0000
1000
0010
,
1000
0000
0001
0010
0001
0000
1000
0010
,
1000
0000
0001
0010
0001
0010
0100
1000
,
0001
0000
0000
0000
,
0001
0010
0100
0010
0001
0000
1000
0000
,
0001
0100
0010
0100
0001
0000
1000
0001
,
1000
0100
0010
0100
1000
0000
0001
0000
,
1001
0000
0110
0000
1000
0100
0010
0001
,
1000
0010
0100
0010
1000
0000
0001
0000
,
1000
0100
0010
0100
1000
0000
0001
1000
,
0001
0100
0010
0100
0001
0000
1000
0000
,
1001
0000
0000
0001
0000
0000
1001
0000
0000
0000
0000
0000
0000
0000
0000
0000
,
0001
0000
1000
0010
1000
0000
0001
0010
,
0001
0000
1000
0010
1000
0000
0001
0010
,
0001
0100
0010
1000
0001
0010
0100
0000
,
1000
0100
0010
0001
1000
0010
0100
0000
,
0001
0000
1000
0100
1000
0000
0001
0100
,
0001
0000
1000
0100
1000
0000
0001
0100
,
0001
0000
1000
0010
0100
0001
1000
0100
,
1000
0010
0100
0001
1000
0001
0010
0000
,
1001
0011
1001
1010
,
1001
1100
1001
0101
,
1001
0110
1001
0110
,
0011
1010
0011
1010
,
1001
0011
1001
1010
,
1001
1100
1001
0101
,
1001
0110
1001
0110
,
0011
1010
0011
1010
,
1002
0010
1000
0103
,
2002
0000
0000
3003
0000
0000
0000
0000
,
0001
0010
0001
0000
1000
0010
1000
0010
,
0100
0001
1000
0000
0100
1000
0100
1000
,
0001
0010
0001
0000
1000
0000
0001
0000
,
1000
0001
1000
0001
,
1000
0100
1000
0000
0001
0100
0001
0100
,
0010
1000
0001
0000
0010
0001
0010
0001
,
1000
0100
1000
0000
0001
0000
1000
0000
,
0001
1000
0001
1000
,
0001
0100
0001
0000
1000
0100
1000
0100
,
0010
0001
1000
0000
0010
1000
0010
1000
,
0001
0100
0001
0000
1000
0000
0001
0000
,
1000
0001
1000
0001
,
1000
0010
1000
0000
0001
0010
0001
0010
,
0100
1000
0001
0000
0100
0001
0100
0000
,
2001
0000
0000
0001
0000
0000
0001
0000
0000
0001
0000
0000
3001
0000
0000
0000
,
1020
0000
0100
0000
0001
0000
0100
0030
,
2002
0000
0000
3003
0000
0000
0000
0000
,
1000
0010
1000
0010
0100
0001
1000
0000
,
0001
0010
0001
0010
0100
1000
0001
0000
,
0001
0100
0001
0100
0010
1000
0001
0000
,
1000
0100
1000
0100
0010
0001
1000
0000
,
1000
0100
1000
0100
0010
0001
1000
0000
,
0001
0100
0001
0100
0010
1000
0001
0000
,
0001
0010
0001
0010
0100
1000
0001
0000
,
1001
0000
0000
0000
,
1000
0100
0010
0100
1000
0000
0001
0000
,
1000
0010
0100
0010
1000
0000
0001
1000
,
0001
0010
0100
0010
0001
0000
1000
0000
,
1001
0000
0110
0000
0001
0010
0100
1000
,
0001
0100
0010
0100
0001
0000
1000
0000
,
0001
0010
0100
0010
0001
0000
1000
0001
,
1000
0010
0100
0010
1000
0000
0001
0000
,
1001
0000
0000
1000
0000
0000
1001
0000
0000
0000
0110
0000
0000
0100
0000
0000
,
2002
0000
0000
0000
,
0000
0000
0000
0000
,
3003
0000
0000
0000
;

//---------------dance-single - MEGAtive----------------
#NOTES:
     dance-single:
     :
     Medium:
     10:
     0.541715,0.592456,0.236552,0.043010,0.143365,529.000000,496.000000,33.000000,6.000000,0.000000,0.000000,0.541715,0.592456,0.236552,0.043010,0.143365,529.000000,496.000000,33.000000,6.000000,0.000000,0.000000:
0000
0000
0000
0000
,
0000
0000
0000
0000
,
0000
0000
0000
0000
,
0000
0000
0000
0000
,
0000
0000
0000
0000
,
0000
0000
0000
0000
,
0000
0000
0000
0000
,
0000
0000
0000
0000
,
1001
0010
0010
0010
,
1001
0100
0100
0100
,
1001
0001
1001
1000
,
0011
0001
1010
1000
,
0001
1000
0001
1000
0001
1000
0001
1000
,
0010
0100
0010
0100
0010
0100
0010
0100
,
0001
0010
0100
1000
0001
0010
0100
1000
,
0001
0100
0010
1000
0001
0100
0010
1000
,
0001
0000
0000
1000
0000
0000
0001
0000
0000
1000
0000
0000
0010
0000
0100
0000
,
1001
0000
0000
1001
0000
0000
1001
0000
0000
0000
0000
0000
0000
0000
0000
0000
,
1000
0010
1000
0100
1000
0000
1000
1000
,
0001
0010
0001
0100
0001
0000
0001
0001
,
1000
0100
1000
0010
1000
0000
1000
1000
,
0001
0100
0001
0010
0001
0000
0001
1000
,
0001
0100
0001
0010
0001
0000
0001
0001
,
1000
0100
1000
0010
1000
0000
1000
1000
,
0001
0010
0001
0100
0001
0000
0001
0001
,
1000
0000
0000
0000
1000
0000
0000
1000
0000
0000
1000
0000
0000
1000
0000
0000
,
1000
0010
0100
0001
1000
0100
1000
0010
,
1000
0100
0010
0001
1000
0010
1000
0100
,
1000
0010
0100
0001
1000
0100
1000
0010
,
1000
0000
0000
1000
0000
0000
1000
0000
0001
0000
0010
0000
0100
0000
1000
0000
,
0001
0100
0010
1000
0001
0010
0001
0100
,
0001
0010
0100
1000
0001
0100
0001
0010
,
0001
0100
0010
1000
0001
0010
0001
0100
,
0001
0000
0000
0001
0000
0000
0001
0000
0000
0000
1000
0000
0100
0000
1000
0000
,
0001
0000
1000
0010
1000
0000
0001
0010
,
0001
0000
1000
0010
1000
0000
0001
0010
,
0001
0100
0010
0100
0001
0010
0100
0000
,
1000
0010
0100
0010
1000
0100
0010
0000
,
1001
0000
1000
0100
1000
0000
0001
0100
,
0001
0000
1000
0100
1000
0000
0001
0100
,
0001
0000
0100
0010
1000
0100
0010
0001
,
1000
0010
0100
0001
1000
0100
0010
0000
,
1001
0000
0000
0001
0000
0000
0100
0000
0000
0000
0010
0000
1000
0000
0001
0000
,
1000
0000
0000
1000
0000
0000
0100
0000
0000
0000
0010
0000
0001
0000
1000
0000
,
0001
0000
0000
0001
0000
0000
0100
0000
0000
0000
0010
0000
1000
0000
0001
0000
,
1000
1100
0110
0011
,
1001
0000
0000
0001
0000
0000
0010
0000
0000
0000
0100
0000
1000
0000
0001
0000
,
1000
0000
0000
1000
0000
0000
0010
0000
0000
0000
0100
0000
0001
0000
1000
0000
,
0001
0000
0000
0001
0000
0000
0010
0000
0000
0000
0100
0000
1000
0000
0001
0000
,
1000
0000
0000
1000
0000
0000
0100
0000
0000
0000
0010
0000
0001
0000
1000
0000
,
2002
0000
0000
0000
0000
0000
0000
3003
,
1001
0000
0000
0110
0000
0000
1001
0000
0000
0000
0000
0000
0000
0000
0000
0000
,
0001
0000
0000
0010
0000
0000
0100
0000
1000
0000
0000
0010
0000
0000
0100
0000
,
0001
0000
0000
0010
0000
0000
0100
0000
1000
0000
0000
0010
0000
0000
0100
0000
,
0001
1000
0001
1000
0001
0010
0100
1000
,
0001
1000
0001
1000
0001
0100
0010
1000
,
0001
0000
0000
0100
0000
0000
0010
0000
1000
0000
0000
0100
0000
0000
0010
0000
,
0001
0000
0000
0100
0000
0000
0010
0000
1000
0000
0000
0100
0000
0000
0010
0000
,
0001
1000
0001
1000
0001
0100
0010
1000
,
0001
0000
1000
0000
0001
0000
1000
0000
0001
0000
0010
0100
0010
0000
0100
0000
,
1000
0000
0000
0010
0000
0000
0100
0000
0001
0000
0000
0010
0000
0000
0100
0000
,
1000
0000
0000
0010
0000
0000
0100
0000
0001
0000
0000
0010
0000
0000
0100
0000
,
1000
0001
1000
0001
1000
0010
0100
0001
,
1000
0001
1000
0001
1000
0100
0010
0001
,
1000
0000
0000
0100
0000
0000
0010
0000
0001
0000
0000
0100
0000
0000
0010
0000
,
1000
0000
0000
0100
0000
0000
0010
0000
0001
0000
0000
0100
0000
0000
0010
0000
,
1010
0000
0000
1001
0000
0000
0011
0000
0000
0110
0000
0000
1100
0000
1000
0000
,
2002
0000
0000
0000
0000
0000
0000
3003
,
1001
0000
0000
0110
0000
0000
1001
0000
0000
0000
0000
0000
0000
0000
0000
0000
,
1001
0000
0001
0010
0001
0100
0001
0010
,
1000
0010
0001
0010
1000
0010
0001
0000
,
1001
0000
1000
0100
1000
0010
1000
0100
,
0001
0100
1000
0100
0001
0100
1000
0000
,
1001
0000
0001
0100
0001
0010
0001
0100
,
1000
0100
0001
0100
1000
0100
0001
0000
,
1001
0000
0001
0010
1000
0010
0001
1000
,
0001
0000
0000
0000
0001
0000
0000
0001
0000
0000
0001
0000
0000
0001
0000
0000
,
0001
0100
0010
1000
0001
0010
0001
0100
,
0001
0010
0100
1000
0001
0100
0001
0010
,
0001
0100
0010
1000
0001
0010
0001
0100
,
0001
0000
0000
0001
0000
0000
0001
0000
1000
0000
0100
0000
0010
0000
0001
0000
,
1000
0010
0100
0001
1000
0100
1000
0010
,
1000
0100
0010
0001
1000
0010
1000
0100
,
1000
0010
0100
0001
1000
0100
1000
0010
,
1000
0000
0000
1000
0000
0000
1000
0000
0000
0000
0001
0000
0000
0001
0000
0000
,
2002
0000
0000
0000
,
0000
0000
0000
0000
,
3003
0000
0000
0000
;

//---------------dance-single - MEGAtive----------------
#NOTES:
     dance-single:
     :
     Hard:
     13:
     0.669720,0.748366,0.379917,0.293898,0.437263,654.000000,601.000000,53.000000,41.000000,0.000000,0.000000,0.669720,0.748366,0.379917,0.293898,0.437263,654.000000,601.000000,53.000000,41.000000,0.000000,0.000000:
// measure 0
0000
0000
0000
0000
,  // measure 1
0000
0000
0000
0000
,  // measure 2
0000
0000
0000
0000
,  // measure 3
0000
0000
0000
0000
,  // measure 4
0000
0000
0000
0000
,  // measure 5
0000
0000
0000
0000
,  // measure 6
0000
0000
0000
0000
,  // measure 7
0000
0000
0000
0000
,  // measure 8
1001
0100
0100
0100
,  // measure 9
1001
0010
0010
0010
,  // measure 10
1001
0100
1001
0010
,  // measure 11
1001
0100
1001
0010
,  // measure 12
1000
0100
0010
0001
1000
0010
0100
0001
,  // measure 13
1000
0100
0010
0001
1000
0010
0100
0001
,  // measure 14
1000
0100
0001
0100
1000
0010
0001
0010
,  // measure 15
1000
0100
0001
0100
1000
0001
0100
1000
,  // measure 16
0100
0001
0000
0001
1000
0000
1000
0100
0000
0100
1000
0000
0010
0000
0010
0000
,  // measure 17
1001
0000
0000
0110
0000
0000
1001
0000
0000
0000
0000
0000
0000
0000
0000
0000
,  // measure 18
0001
0010
0001
0100
0001
0010
0001
0001
,  // measure 19
1000
0010
1000
0100
1000
0010
1000
1000
,  // measure 20
0001
0010
0001
0100
0001
0010
0001
0001
,  // measure 21
1000
0010
1000
0100
1000
0010
1000
1000
,  // measure 22
0001
0100
0001
0010
0001
0100
0001
0001
,  // measure 23
1000
0100
1000
0010
1000
0100
1000
1000
,  // measure 24
0001
0100
0001
0010
0001
0100
0001
0001
,  // measure 25
1001
0000
0000
1100
0000
0000
0110
0000
0000
0000
0011
0000
0000
1001
0000
0000
,  // measure 26
1000
0010
0000
0010
1000
0000
1000
0010
0000
0010
1000
0000
1001
0000
0001
0000
,  // measure 27
0010
0100
0000
0100
0010
0000
0010
0100
0000
0100
0010
0000
0011
0000
0001
0000
,  // measure 28
0100
0010
0000
0010
0100
0000
0100
0010
0000
0010
0100
0000
0101
0000
0001
1000
,  // measure 29
0100
0000
0100
1000
0000
1000
0100
0000
0100
0000
1000
0000
0010
0000
0100
0000
,  // measure 30
0001
0010
0000
0010
0001
0000
0001
0010
0000
0010
0001
0000
1001
0000
1000
0000
,  // measure 31
0010
0100
0000
0100
0010
0000
0010
0100
0000
0100
0010
0000
1010
0000
1000
0000
,  // measure 32
0100
0010
0000
0010
0100
0000
0100
0010
0000
0010
0100
0000
1100
0000
1000
0010
,  // measure 33
0100
0000
0000
1001
0000
0000
0110
0000
0000
0000
0001
0000
0010
0000
0001
0000
,  // measure 34
1000
0010
0100
0010
1000
0100
0010
0100
,  // measure 35
1000
0010
0100
0010
1000
0100
0010
0100
,  // measure 36
1000
0010
0001
0010
1000
0010
0001
0010
,  // measure 37
1000
0100
0001
0100
1000
0010
0100
0000
,  // measure 38
0001
0100
0010
0100
0001
0010
0100
0010
,  // measure 39
0001
0100
0010
0100
0001
0010
0100
0010
,  // measure 40
0001
0100
0001
1000
0100
1000
0001
0100
,  // measure 41
0010
1000
0100
1000
0001
0100
0001
0010
,  // measure 42
0100
0000
0000
1000
0010
0000
0200
0000
0000
0000
0301
0000
0010
0000
0100
0000
,  // measure 43
1000
0000
0000
0001
0100
0000
0020
0000
0000
0000
1030
0001
1000
0000
0100
0000
,  // measure 44
0010
0000
0000
0001
0100
0000
0020
0000
0130
0000
0000
0001
0010
0000
0100
0000
,  // measure 45
1000
0010
0001
0010
1000
0001
0001
0000
,  // measure 46
0010
0000
0000
0100
1000
0000
0010
0000
0100
0000
0010
0000
1000
0000
0001
0000
,  // measure 47
1000
0000
0000
0001
0010
0000
0200
0000
0000
0000
1300
0001
1000
0000
0010
0000
,  // measure 48
0100
0001
0100
1000
0100
0001
0010
1000
,  // measure 49
0010
0001
0100
0010
1000
0001
0001
1000
,  // measure 50
2002
0000
0000
0000
0000
0000
0000
3003
,  // measure 51
1100
0000
0000
0101
0000
0000
1100
0000
0000
0000
0000
0000
0000
0000
0000
0000
,  // measure 52
0002
0000
0000
0103
2000
0000
3100
0000
0002
0000
0000
0013
2000
0000
3010
0000
,  // measure 53
0002
0000
0000
0103
2000
0000
3100
0000
0002
0000
0000
0013
2000
0000
3010
0000
,  // measure 54
0001
0100
0001
0010
0001
0100
1000
0100
,  // measure 55
0001
0000
0010
0000
0001
0000
0100
0000
0001
0000
0010
0000
1000
0000
0010
0001
,  // measure 56
2000
0000
0000
3010
0002
0000
0013
0000
2000
0000
0000
3100
0002
0000
0103
0000
,  // measure 57
2000
0000
0000
3010
0002
0000
0013
0000
2000
0000
0000
3100
0002
0000
0103
0000
,  // measure 58
1000
0010
1000
0100
1000
0010
0001
0010
,  // measure 59
1000
0000
0100
0000
1000
0000
0010
0000
1000
0000
0100
0010
0100
0000
1000
0010
,  // measure 60
0200
0000
0000
0301
0020
0000
1030
0000
0020
0000
0000
0031
0200
0000
1300
0000
,  // measure 61
0200
0000
0000
0301
0020
0000
1030
0000
0020
0000
0000
0031
0200
0000
1300
0000
,  // measure 62
0100
0001
0010
0001
0100
1000
0100
0001
,  // measure 63
0010
0000
0001
0000
0100
0000
0001
0000
0010
0000
1000
0000
0010
0000
0001
0100
,  // measure 64
0020
0000
0000
1030
0200
0000
0301
0000
0200
0000
0000
1300
0020
0000
0031
0000
,  // measure 65
0020
0000
0000
1030
0200
0000
0301
0000
0200
0000
0000
1300
0020
0000
0031
0000
,  // measure 66
0011
0000
0000
0110
0000
0000
1010
0000
0000
1001
0000
0000
0011
0000
0001
0000
,  // measure 67
2002
0000
0000
0000
0000
0000
0000
3003
,  // measure 68
0011
0000
0000
1010
0000
0000
0011
0000
0000
0000
0000
0000
0000
0000
0000
0000
,  // measure 69
1001
0000
0000
0001
0100
0000
1000
0000
0100
0000
0001
0000
0010
0100
0000
0100
,  // measure 70
0010
0000
0001
0000
0100
0010
0000
0010
0100
0000
0001
0000
1000
0100
0000
0000
,  // measure 71
1001
0000
0000
1000
0010
0000
0001
0000
0010
0000
1000
0000
0100
0010
0000
0010
,  // measure 72
0100
0000
1000
0000
0010
0100
0000
0100
0010
0000
1000
0000
0001
0010
0000
0000
,  // measure 73
1001
0000
0000
0001
0010
0000
1000
0000
0010
0000
0001
0000
0100
0010
0000
0010
,  // measure 74
0100
0000
0001
0000
0010
0100
0000
0100
0010
0000
0001
0000
1000
0010
0000
0000
,  // measure 75
1001
0000
0000
1000
0100
0000
0100
1000
0000
0000
0010
0000
0010
0100
0000
0000
,  // measure 76
1001
0000
0000
0011
0000
0000
0110
0000
0000
0000
1100
0000
0000
1001
0000
0000
,  // measure 77
0001
0100
0000
0100
0001
0000
0001
0100
0000
0100
0001
0000
1001
0000
1000
0000
,  // measure 78
0100
0010
0000
0010
0100
0000
0100
0010
0000
0010
0100
0000
1100
0000
1000
0000
,  // measure 79
0010
0100
0000
0100
0010
0000
0010
0100
0000
0100
0010
0000
1010
0000
1000
0001
,  // measure 80
0010
0000
0010
0001
0000
0001
0010
0000
0010
0000
0001
0000
0100
0000
0010
0000
,  // measure 81
1000
0100
0000
0100
1000
0000
1000
0100
0000
0100
1000
0000
1001
0000
0001
0000
,  // measure 82
0100
0010
0000
0010
0100
0000
0100
0010
0000
0010
0100
0000
0101
0000
0001
0000
,  // measure 83
0010
0100
0000
0100
0010
0000
0010
0100
0000
0100
0010
0000
0011
0000
0001
1000
,  // measure 84
0010
0000
0000
1001
0000
0000
1100
0000
0000
0000
0110
0000
0010
0100
1000
0001
,  // measure 85
0200
0000
0000
0000
,  // measure 86
0000
0000
0000
0000
,  // measure 87
0300
0000
0000
0000
;
