#VERSION:0.83;
#TITLE:Here On My Own;
#SUBTITLE:;
#ARTIST:Swardy;
#TITLETRANSLIT:;
#SUBTITLETRANSLIT:;
#ARTISTTRANSLIT:;
#GENRE:;
#ORIGIN:;
#CREDIT:;
#BANNER:hereonmyown-bn.png;
#BACKGROUND:hereonmyown-bg.png;
#PREVIEWVID:;
#JACKET:hereonmyown-jacket.png;
#CDIMAGE:;
#DISCIMAGE:;
#LYRICSPATH:;
#CDTITLE:;
#MUSIC:Here On My Own.ogg;
#OFFSET:-0.009000;
#SAMPLESTART:80.000000;
#SAMPLELENGTH:12.000000;
#SELECTABLE:YES;
#BPMS:0.000=120.000;
#STOPS:;
#DELAYS:;
#WARPS:;
#TIMESIGNATURES:0.000=4=4;
#TICKCOUNTS:0.000=4;
#COMBOS:0.000=1;
#SPEEDS:0.000=1.000=0.000=0;
#SCROLLS:0.000=1.000;
#FAKES:;
#LABELS:0.000=Song Start;
#BGCHANGES:;
#KEYSOUNDS:;
#ATTACKS:
;

//---------------dance-single - ----------------
#NOTEDATA:;
#CHARTNAME:;
#STEPSTYPE:dance-single;
#DESCRIPTION:;
#CHARTSTYLE:;
#DIFFICULTY:Beginner;
#METER:1;
#RADARVALUES:0.055588,0.082402,0.000000,0.000000,0.000000,51.000000,51.000000,0.000000,0.000000,0.000000,0.000000,0.000000,0.000000,0.000000,0.055588,0.082402,0.000000,0.000000,0.000000,51.000000,51.000000,0.000000,0.000000,0.000000,0.000000,0.000000,0.000000,0.000000;
#CREDIT:SHAYMIN;
#NOTES:
0000
0000
0000
0000
,
0000
0000
0000
0000
,
0000
0000
0000
0000
,
0000
0000
0000
0000
,
0000
0000
0000
0000
,
0000
0000
0000
0000
,
0000
0000
0000
0000
,
0000
0000
0000
0000
,
1000
0000
0000
0000
,
1000
0000
1000
0000
,
1000
0000
0000
0000
,
0000
0000
0000
0000
,
0001
0000
0000
0000
,
0001
0000
0001
0000
,
0001
0000
0000
0000
,
0000
0000
0000
0000
,
0010
0000
0000
0000
,
0100
0000
0010
0000
,
0100
0000
0000
0000
,
0000
0000
0000
0000
,
0100
0000
0000
0000
,
0010
0000
0100
0000
,
0010
0000
0000
0000
,
0000
0000
0000
0000
,
1000
0000
0000
0000
,
0001
0000
0000
0000
,
0010
0000
0000
0000
,
0001
0000
0000
0000
,
1000
0000
0000
0000
,
0001
0000
0000
0000
,
0100
0000
0000
0000
,
0001
0000
0000
0000
,
1000
0000
0000
0000
,
0100
0000
0000
0000
,
0010
0000
0000
0000
,
0001
0000
0000
0000
,
1000
0000
0000
0000
,
0010
0000
0000
0000
,
0100
0000
0000
0000
,
0001
0000
0000
0000
,
1000
0000
0000
0000
,
0001
0000
0010
0000
,
0001
0000
0000
0000
,
1000
0000
0000
0000
,
0001
0000
0000
0000
,
1000
0000
0100
0000
,
1000
0000
0000
0000
,
0001
0000
0000
0000
,
1000
0000
0000
0000
,
0010
0000
0100
0000
,
0010
0000
0000
0000
,
1000
0000
0000
0000
,
0001
0000
0000
0000
,
0010
0000
0100
0000
,
0010
0000
0000
0000
;

//---------------dance-single - ----------------
#NOTEDATA:;
#CHARTNAME:;
#STEPSTYPE:dance-single;
#DESCRIPTION:;
#CHARTSTYLE:;
#DIFFICULTY:Easy;
#METER:2;
#RADARVALUES:0.068668,0.125319,0.000000,0.091558,0.000000,63.000000,63.000000,0.000000,12.000000,0.000000,0.000000,0.000000,0.000000,0.000000,0.068668,0.125319,0.000000,0.091558,0.000000,63.000000,63.000000,0.000000,12.000000,0.000000,0.000000,0.000000,0.000000,0.000000;
#CREDIT:SHAYMIN;
#NOTES:
0000
0000
0000
0000
,
0000
0000
0000
0000
,
0000
0000
0000
0000
,
0000
0000
0000
0000
,
0000
0000
0000
0000
,
0000
0000
0000
0000
,
0000
0000
0000
0000
,
0000
0000
0000
0000
,
2000
0000
0000
0000
,
3000
0000
0001
0000
,
0020
0000
0000
0000
,
0030
0000
0000
0000
,
0002
0000
0000
0000
,
0003
0000
1000
0000
,
0200
0000
0000
0000
,
0300
0000
0000
0000
,
2000
0000
0000
0000
,
3000
0000
0001
0000
,
2000
0000
0000
0000
,
3000
0000
0000
0000
,
0002
0000
0000
0000
,
0003
0000
1000
0000
,
0002
0000
0000
0000
,
0003
0000
0000
0000
,
1000
0000
0100
0000
,
1000
0000
0100
0000
,
0010
0000
0000
0000
,
0010
0000
0000
0000
,
0001
0000
0100
0000
,
0001
0000
0100
0000
,
0010
0000
0000
0000
,
0010
0000
0000
0000
,
1000
0000
0001
0000
,
0010
0000
0001
0000
,
1000
0000
0000
0000
,
0001
0000
0000
0000
,
1000
0000
0001
0000
,
0100
0000
0010
0000
,
1000
0000
0000
0000
,
0001
0000
0000
0000
,
1000
1000
0000
1000
,
1000
0000
0001
0000
,
0020
0000
0000
0000
,
0030
0000
0001
0000
,
0100
0100
0000
0100
,
0100
0000
0010
0000
,
0200
0000
0000
0000
,
0300
0000
0010
0000
,
1000
0001
0000
1000
,
0001
0000
1000
0000
,
0002
0000
0000
0000
,
0003
0000
0010
0000
,
0001
1000
0000
0001
,
1000
0000
0010
0000
,
0200
0000
0000
0300
;

//---------------dance-single - ----------------
#NOTEDATA:;
#CHARTNAME:;
#STEPSTYPE:dance-single;
#DESCRIPTION:;
#CHARTSTYLE:;
#DIFFICULTY:Medium;
#METER:5;
#RADARVALUES:0.135156,0.187979,0.000000,0.152596,0.000000,124.000000,124.000000,0.000000,20.000000,0.000000,0.000000,0.000000,0.000000,0.000000,0.135156,0.187979,0.000000,0.152596,0.000000,124.000000,124.000000,0.000000,20.000000,0.000000,0.000000,0.000000,0.000000,0.000000;
#CREDIT:SHAYMIN;
#NOTES:
0000
0000
0000
0000
,
0000
0000
0000
0000
,
0000
0000
0000
0000
,
0000
0000
0000
0000
,
0000
0000
0000
0000
,
0000
0000
0000
0000
,
0000
0000
0000
0000
,
0000
0000
0000
0000
,
2000
0000
0000
0000
,
0100
0000
0010
0000
,
3002
0000
0000
0000
,
0203
0000
0000
0000
,
0320
0000
0000
0000
,
1000
0000
0100
0000
,
2030
0000
0000
0000
,
3002
0000
0000
0000
,
0023
0000
0000
0000
,
0100
0000
0001
0000
,
0230
0000
0000
0000
,
2300
0000
0000
0000
,
3002
0000
0000
0000
,
0100
0000
0010
0000
,
2003
0000
0000
0000
,
3000
0000
0000
0000
,
0001
0100
1000
0010
,
0001
0010
1000
0100
,
0001
0010
0000
0010
,
0001
1000
0000
1000
,
0001
0100
0001
0010
,
0001
0100
0010
1000
,
0100
1000
0000
1000
,
0001
0100
0000
0100
,
0010
1000
0010
0001
,
0010
1000
0100
0001
,
0100
1000
0000
1000
,
0001
0100
0000
0100
,
0001
0010
0100
1000
,
0010
0100
0001
1000
,
0010
1000
0000
1000
,
0001
0010
0000
0010
,
0001
0100
0001
0100
,
0002
0003
2000
3000
,
0100
1000
0100
0010
,
0001
1000
0001
0001
,
0100
0010
0100
0010
,
2000
3000
0002
0003
,
1000
0100
0010
0001
,
0010
0100
1000
1000
,
0001
0100
0001
0100
,
0002
0003
2000
3000
,
0100
1000
0001
1000
,
0100
0010
0001
0001
,
1000
0010
0100
0010
,
2000
3000
0002
0003
,
0200
0000
0000
0300
;

//---------------dance-single - ----------------
#NOTEDATA:;
#CHARTNAME:;
#STEPSTYPE:dance-single;
#DESCRIPTION:;
#CHARTSTYLE:;
#DIFFICULTY:Hard;
#METER:7;
#RADARVALUES:0.197285,0.250639,0.000000,0.289932,0.000000,181.000000,181.000000,0.000000,38.000000,0.000000,0.000000,0.000000,0.000000,0.000000,0.197285,0.250639,0.000000,0.289932,0.000000,181.000000,181.000000,0.000000,38.000000,0.000000,0.000000,0.000000,0.000000,0.000000;
#CREDIT:SHAYMIN;
#NOTES:
0000
0000
0000
0000
,
0000
0000
0000
0000
,
0000
0000
0000
0000
,
0000
0000
0000
0000
,
0000
0000
0000
0000
,
0000
0000
0000
0000
,
0000
0000
0000
0000
,
0000
0000
0000
0000
,
0010
0010
0100
0100
,
0002
0000
2003
0000
,
3002
0000
0010
0000
,
2003
0000
0000
0000
0010
0010
0010
0000
,
3001
0001
1000
1000
,
0002
0000
2003
0000
,
3200
0000
0010
0000
,
2300
0000
0000
0000
0001
0001
0001
0000
,
3100
0010
0001
0010
,
0200
0000
2300
0000
,
3020
0000
0100
0000
,
2030
0000
0000
0000
0001
0001
0001
0000
,
3010
0100
0001
1000
,
0200
0000
0320
0000
,
0032
0000
0000
0000
,
0003
0000
0000
0000
,
1000
0000
0010
1000
0010
0000
0100
0000
,
0001
0000
1000
0100
0010
0100
1000
0000
,
0002
0100
0000
0100
,
2003
0100
0000
0100
,
3001
0000
0010
0001
0010
0000
0100
0000
,
1000
0000
0001
0100
0010
1000
0001
0000
,
2000
0010
0000
0010
,
3002
0010
0000
0010
,
1003
0000
0010
0100
0001
0000
1000
0000
,
0001
0000
0100
0010
1000
0010
0100
0000
,
0002
0010
0000
0100
,
2003
0010
0000
0100
,
3001
0000
0010
0001
0100
0000
0010
0000
,
0100
0000
0010
1000
0100
1000
0001
0000
,
2000
0100
0000
0010
,
3002
0000
0100
0000
0010
0010
0010
0000
,
1003
0001
0100
0000
0001
1000
0100
0000
,
0020
0031
0200
0310
,
2000
0100
0001
3100
,
0002
0000
0100
0000
1000
1000
1003
0000
,
0001
0010
0100
0000
1000
0010
0100
0000
,
0020
1030
0002
0013
,
0200
1000
0010
1300
,
0002
0000
0100
0000
0010
0010
0013
0000
,
1000
0010
0100
0000
0001
0010
0100
0000
,
2000
3001
0200
0310
,
2000
0100
0010
3100
,
0002
0000
0100
0000
0010
0010
0013
0000
,
0001
1000
0100
0000
1000
0001
0100
0000
,
0020
1030
0002
0013
,
0200
0000
0000
0300
;

//---------------dance-single - ----------------
#NOTEDATA:;
#CHARTNAME:;
#STEPSTYPE:dance-single;
#DESCRIPTION:;
#CHARTSTYLE:;
#DIFFICULTY:Challenge;
#METER:10;
#RADARVALUES:0.320451,0.355071,0.000000,0.198375,0.000000,294.000000,294.000000,0.000000,26.000000,0.000000,0.000000,0.000000,0.000000,0.000000,0.320451,0.355071,0.000000,0.198375,0.000000,294.000000,294.000000,0.000000,26.000000,0.000000,0.000000,0.000000,0.000000,0.000000;
#CREDIT:SHAYMIN;
#NOTES:
// measure 0
0000
0000
0000
0000
,  // measure 1
0000
0000
0000
0000
,  // measure 2
0000
0000
0000
0000
,  // measure 3
0000
0000
0000
0000
,  // measure 4
0000
0000
0000
0000
,  // measure 5
0000
0000
0000
0000
,  // measure 6
0000
0000
0000
0000
,  // measure 7
0000
0000
0000
0000
,  // measure 8
1000
0100
1000
0100
1000
0001
1000
0001
,  // measure 9
0200
0301
0020
0031
,  // measure 10
1000
0010
1000
0010
0100
0001
0100
0001
,  // measure 11
1000
0100
1000
0100
0010
0001
1000
0010
,  // measure 12
0100
0010
0100
0010
1000
0001
1000
0001
,  // measure 13
0020
0031
0200
0310
,  // measure 14
1000
0001
1000
0001
0010
0001
0010
0001
,  // measure 15
1000
0010
1000
0010
0100
0001
1000
0100
,  // measure 16
0010
0001
0010
0100
0010
0001
0010
0100
,  // measure 17
0020
0031
0200
0310
,  // measure 18
1000
0100
1000
0100
1000
0001
1000
0001
,  // measure 19
1000
0010
1000
0010
1000
0001
0010
0100
,  // measure 20
1000
0010
1000
0100
1000
0010
1000
0100
,  // measure 21
2000
3010
0002
0013
,  // measure 22
2000
0000
0000
0000
,  // measure 23
3000
0000
0000
0000
,  // measure 24
0001
0000
0010
0001
1000
0000
0001
0000
,  // measure 25
0100
0000
0001
1000
0100
1000
0001
0100
,  // measure 26
0010
1000
0100
0000
0100
1000
0010
0000
,  // measure 27
0100
0001
0010
0000
0010
0001
0100
0001
,  // measure 28
0010
0000
0001
0100
0010
0000
1000
0000
,  // measure 29
0001
0000
1000
0100
0010
0100
1000
0001
,  // measure 30
0100
0001
1000
0000
1000
0001
0100
0000
,  // measure 31
0001
1000
0100
0000
0100
1000
0001
1000
,  // measure 32
0100
0000
0010
0001
0100
0000
0010
0000
,  // measure 33
0100
0000
0001
1000
0100
1000
0001
0100
,  // measure 34
0010
1000
0001
0000
0010
0001
1000
0000
,  // measure 35
0100
1000
0001
0000
0100
0001
1000
0001
,  // measure 36
0100
0000
0010
1000
0100
0000
1000
0000
,  // measure 37
0010
0000
0100
0001
0010
0001
0100
0010
,  // measure 38
1000
0001
0100
0000
0100
0001
1000
0000
,  // measure 39
0100
1000
0001
0000
1000
0100
0010
0001
,  // measure 40
1000
0010
2000
0000
3001
0010
0002
0000
,  // measure 41
0103
0010
2000
0000
3010
0100
0002
0000
,  // measure 42
1003
0100
1000
0001
1000
0010
1000
0001
,  // measure 43
0001
0010
0001
0100
0001
1000
0001
0001
,  // measure 44
0100
0010
2000
0000
3100
0010
0002
0000
,  // measure 45
0013
0100
2000
0000
3010
0100
0002
0000
,  // measure 46
1003
0100
1000
0010
0100
0001
0010
0001
,  // measure 47
0001
0100
0001
0010
0100
1000
0010
1000
,  // measure 48
1000
0100
0020
0000
0130
1000
0020
0000
,  // measure 49
0130
0001
0020
0000
0031
0100
0020
0000
,  // measure 50
1030
0001
0010
0001
0100
0010
1000
0100
,  // measure 51
0100
1000
0010
0100
0001
1000
0001
0010
,  // measure 52
0010
0001
2000
0000
3010
1000
0002
0000
,  // measure 53
0013
0001
0200
0000
0310
1000
0200
0000
,  // measure 54
0320
0000
0000
0030
;
