#TITLE:Hella Deep;
#SUBTITLE:;
#ARTIST:MASAYOSHI IIMORI;
#TITLETRANSLIT:;
#SUBTITLETRANSLIT:;
#ARTISTTRANSLIT:;
#GENRE:;
#CREDIT:;
#MUSIC:Hella Deep.ogg;
#BANNER:Hella Deep.png;
#BACKGROUND:Hella Deep-bg.png;
#CDTITLE:;
#SAMPLESTART:24.714;
#SAMPLELENGTH:15.000;
#SELECTABLE:YES;
#OFFSET:0.886;
#BPMS:0.000=150.000
,64.000=300.000
,68.000=150.000
,84.000=300.000
,85.000=150.000
,92.000=300.000
,93.000=150.000
,116.000=300.000
,117.500=150.000
,132.000=75.000
,133.000=72.000
,135.000=144.000
,141.000=288.000
,153.000=132.000
,177.000=264.000
,182.000=132.000
;
#STOPS:64.000=0.200
,65.000=0.100
,65.500=0.100
,66.000=0.200
,67.000=0.200
,84.000=0.200
,92.000=0.200
,116.000=0.300
,132.000=2.400
,177.000=1.591
,178.000=0.227
,179.000=0.227
,180.000=0.227
,181.000=0.227
;
#DISPLAYBPM:132.000:150.000;
#BGCHANGES:2.000=Hella Deep.avi=1.000=0=0=0=StretchNoLoop====,
99999.000=-nosongbg-=1.000=0=0=0=StretchNoLoop====
;
#FGCHANGES:;

//--------------- dance-single - Talkion ----------------
#NOTES:
     dance-single:
     Talkion:
     Beginner:
     4:
     0,0,0,0,0:
0000
0000
0000
0000
,
0000
0000
0000
0000
,
0000
0000
0000
0000
,
0000
0000
0000
0000
,
0000
0000
0000
0000
,
1000
0000
1000
0000
,
0001
0000
0001
0000
,
1000
0000
1000
0000
,
0001
0000
0001
0000
,
1000
1000
1000
0000
,
0001
0001
0001
0000
,
1000
1000
1000
0000
,
0001
0001
0001
0000
,
1000
0000
0010
0000
,
0100
0000
0001
0000
,
1000
0001
1000
0001
,
1000
0000
0000
0000
,
0001
0001
0001
0000
,
1000
1000
1000
0000
,
0001
0001
0001
0000
,
1000
1000
1000
0000
,
0010
0000
0100
0000
,
0010
0010
0010
0000
,
1000
0000
0001
0000
,
2000
0000
3001
0000
,
1000
1000
1000
0000
,
0001
0001
0001
0000
,
1000
1000
1000
0000
,
0001
0001
0001
0000
,
0100
0000
0010
0000
,
0100
0100
0100
0000
,
0001
0000
1000
0000
,
0002
0000
0000
0000
,
0003
1001
0000
0000
,
0000
0000
0000
0000
,
0000
0000
0000
0000
,
0000
0000
0000
0000
,
0000
0000
0000
0000
,
0000
0000
0001
0000
,
0001
0000
0001
0000
,
0001
0000
0001
0000
,
0001
0000
0001
0000
,
0001
1000
0000
1000
,
0000
0010
0100
0010
,
0100
0000
0000
0000
,
0000
0000
0001
1000
,
0001
0000
1000
1000
,
0001
0000
1000
0100
,
1000
0000
0001
0001
,
0100
0000
0001
0000
,
1000
1000
0001
0000
,
0001
0001
1000
0000
,
1000
1000
0010
0000
,
0020
0030
0010
0100
,
0010
0000
0100
0100
,
0001
0000
0000
0100
,
0010
0000
0010
0010
,
1000
0000
1001
0000
,
1001
0000
1001
0000
,
1001
0000
0001
0000
,
1000
0000
0001
0001
,
0002
0003
0000
0000
,
0000
1000
0000
1000
,
1000
0000
0000
0000
,
0001
0000
0000
0001
,
0001
0000
0200
0000
,
0310
0010
0000
0100
,
0100
0000
0001
0000
,
1000
1000
0000
0001
,
0001
0000
1001
0000
;

//--------------- dance-single - Talkion ----------------
#NOTES:
     dance-single:
     Talkion:
     Easy:
     7:
     0,0,0,0,0:
0000
0000
0000
0000
,
0000
0000
0000
0000
,
0000
0000
0000
0000
,
0000
0000
0000
0000
,
0000
0000
0000
0000
,
1000
1000
0001
0100
,
0000
0100
0010
1000
,
0001
0000
0000
0000
1000
0001
1000
0000
,
0020
0000
0000
0130
0010
0000
0000
0000
,
1000
1000
1000
1000
,
0001
0001
0001
0001
,
0100
0100
0100
0100
,
0010
0010
0010
0010
,
1000
0001
0100
0001
,
1000
0001
0100
0001
,
1000
0001
1000
0001
2000
0000
0000
0000
,
3001
0000
0000
0000
,
1000
0100
1000
1001
,
0001
0100
0001
1001
,
1000
0100
1000
1001
,
0001
0100
0001
1001
,
1000
0000
0100
0010
,
0001
1000
0001
0000
0100
0100
0010
0000
,
1000
0000
0001
0010
,
0200
0000
1300
0000
,
1000
0010
1000
1001
,
0001
0010
0001
1001
,
1000
0010
1000
1001
,
0001
0010
0001
1001
,
1000
0000
0001
0000
,
1000
0000
0001
0000
,
0100
0100
0010
0010
,
2000
0000
0000
0000
,
3001
0000
0000
0000
,
0000
0000
0000
0000
,
0000
0000
0000
0000
,
0000
0000
0000
0000
,
0000
0000
0000
0000
,
0000
2001
0000
0100
,
0000
0010
0000
3100
,
0000
1002
0000
0100
,
0000
0010
0000
0103
,
0000
0001
0001
1000
,
1000
0000
0010
0100
0010
0100
0020
0000
,
0000
0030
0000
0000
,
0000
0000
1001
1001
,
0001
0100
0110
0110
,
0010
2000
3001
1000
,
0001
0100
0100
0000
0010
0000
1000
0000
,
0010
1000
1000
0000
2002
0000
3003
0000
,
0001
0100
0001
0000
1000
0000
0100
0000
,
1000
0100
1000
0000
0001
0000
0100
0000
,
0010
0100
0010
0000
1000
0000
0100
0000
,
0020
0000
0031
0000
1000
0000
0001
0100
,
0010
0000
1000
0000
0001
0000
1000
0100
,
0010
0000
0001
0000
1000
0000
0010
0100
,
0001
0000
0100
0000
0010
0000
1000
0001
,
0010
0002
1003
0000
,
1010
0000
0011
0000
,
1001
0000
1000
1000
,
0001
0000
0001
0000
1000
0001
1000
0001
,
0200
0300
0000
0000
,
0100
0010
0200
0000
0000
0000
0310
0000
,
1000
0100
0020
0000
0031
0000
1000
0000
,
0001
1000
0001
0000
0100
0100
0010
0000
,
1001
0000
2000
0000
,
3001
1000
0200
0000
0000
0000
0310
0000
,
0001
1000
0001
0000
0200
0000
0000
0000
,
0310
0100
0010
0000
1000
0000
0001
0000
,
1001
0000
0110
0000
;

//--------------- dance-single - Talkion ----------------
#NOTES:
     dance-single:
     Talkion:
     Medium:
     11:
     0,0,0,0,0:
0000
0000
0000
0000
,
0000
0000
0000
0000
,
0000
0000
0000
0000
,
0000
0000
0000
0000
,
0000
0000
0000
0000
,
0002
0003
2000
3000
0001
0000
0100
0000
,
0010
0000
2000
3001
1000
0000
0100
0000
,
0010
0000
0001
0000
1000
0010
0010
0000
,
0200
0320
1030
0000
,
0001
0001
0001
0001
,
0100
0100
0100
0100
,
0010
0010
0010
0010
,
1000
1000
1000
1000
,
0001
1000
0100
0000
1000
0001
0100
0000
,
0001
1000
0010
0000
1000
0001
0010
0000
,
0001
0010
0100
1000
0001
0010
0100
1000
,
0001
0000
0001
0001
1000
0000
1000
0000
,
0010
0000
0110
0100
0110
0000
1001
0000
,
0011
0001
1000
0001
0101
0000
0110
0000
,
1001
0000
0110
0100
0110
0000
1001
0000
,
1100
1000
0001
1000
0010
0100
0010
0100
,
0001
0000
0000
0000
0001
0000
1000
0000
0100
0000
0000
0100
0000
0000
0100
0000
,
0010
0001
1000
0010
0100
0100
0002
0000
,
1003
0000
0000
0000
1010
0010
0100
0000
,
0002
0000
0000
0000
1003
0001
1000
0100
,
0001
0000
0110
0100
0110
0000
1001
0000
,
0101
0100
0010
1000
1010
0000
0011
0000
,
1001
0000
0110
0010
0110
0000
1001
0000
,
1010
1000
0010
0100
0101
0000
1100
0000
,
1001
0000
0000
0001
0100
0010
1000
0000
,
0001
1000
0100
1000
0001
0100
0010
0000
,
0001
0010
1000
0100
0010
0000
0001
1000
,
0020
0000
0000
0000
0000
0100
0130
0010
,
1000
1002
0000
0000
,
0000
0000
0000
0000
,
0000
0000
0000
0000
,
0000
0000
0000
0000
,
0000
0000
0000
0000
,
0000
2003
3100
0002
,
0103
2000
3010
0002
,
0013
2000
3100
0002
,
0103
2000
3010
0002
,
0013
0000
1000
0100
0010
0000
0001
0100
,
0010
0000
1000
0100
0010
0001
1000
0100
,
0010
0001
1000
0000
0001
0000
0001
0000
,
0001
0000
1001
0000
1010
0000
0110
0010
,
0110
0000
1001
0000
0011
0010
0100
1000
,
1010
0000
0020
0000
0130
0000
0010
1000
,
0100
0100
0010
0010
0001
1000
0001
0100
,
1000
0100
0010
1000
1001
0000
0011
0010
,
0001
0001
1000
1000
0010
0010
0100
0010
,
1000
1000
0001
0001
1000
0000
1001
0001
,
0010
0010
0100
0100
1000
1000
0001
0100
,
0020
0000
1030
1000
0001
0000
1001
1000
,
0100
0100
0010
0010
0001
1000
0010
0001
,
0010
0100
0001
1000
1001
0000
1100
0100
,
1000
1000
0001
0001
0100
0100
0010
1000
,
0001
0001
2000
0000
3100
0000
0011
0000
,
0100
1010
0100
0011
,
0200
0000
0300
0000
1001
0001
0100
0010
,
1000
0000
0100
0000
0010
0000
0001
0000
1000
0001
1000
0000
0001
1000
0001
0000
,
0200
0000
0310
0100
0000
0000
0010
1000
,
0001
0000
0000
0001
0000
0000
0001
0000
0000
0001
0000
0000
0010
0000
0001
0000
,
1000
0010
0200
0000
1300
0100
0001
0001
,
2000
0000
3100
0010
0001
0001
1000
1000
,
0010
0000
0000
0100
0000
0000
0001
0000
0000
0000
0000
0000
1000
0000
0100
0000
1000
0000
0100
0000
1000
0000
0100
0000
,
0010
0000
0020
0000
0032
0000
1003
0001
,
0100
0010
1000
0000
0001
0010
1000
0001
,
0200
0000
0000
0000
1300
0000
0001
0000
0100
0010
0100
0000
0020
0000
0000
0000
,
1030
0000
1001
0000
;

//--------------- dance-single - Talkion ----------------
#NOTES:
     dance-single:
     Talkion:
     Hard:
     13:
     0,0,0,0,0:
0000
0000
0000
0000
,
0000
0000
0000
0000
,
0000
0000
0000
0000
,
0000
0000
0000
0000
,
0000
0000
0000
0000
,
2000
3000
0002
0003
1000
0000
0100
0000
,
0010
0000
0002
1003
0001
0000
0100
0000
,
0010
0000
1000
0000
0001
0010
0010
0000
,
0001
1000
0001
1000
0020
0000
0000
0000
0130
0000
0000
0000
0000
0000
0000
0000
,
0001
0000
0001
0000
0001
0000
0001
1000
,
0100
0000
0100
0000
0100
0000
0100
0010
,
0001
0000
0001
0000
0001
0000
0001
1000
,
0010
0000
0010
0000
0010
0000
0010
0100
,
0001
1000
0100
1000
0001
1000
0010
1000
,
0001
0010
0100
0010
0001
0100
0010
0100
,
0001
1000
0001
1000
0001
1000
0001
1000
0200
0000
0000
0000
0000
0000
0000
0000
,
0310
0000
0010
0010
0200
0300
0020
0030
,
1001
0000
0000
0000
0101
0000
0010
0000
1010
0000
1000
0001
0020
0000
0000
0000
,
0031
0000
0010
0100
1000
0000
0001
0000
0101
0000
0100
0010
1000
0000
1000
0000
,
0001
0000
0000
0000
0011
0000
0100
0000
1100
0000
1000
0001
0200
0000
0000
0000
,
0301
0000
0100
0010
1000
0000
0002
0000
0010
0000
0010
0000
0010
0000
0013
0000
,
0100
0000
0000
0000
1001
0000
0010
0000
1010
0000
0000
0010
0100
0000
0001
0000
,
1000
0100
0010
0001
1000
0000
0001
0000
0100
0000
0100
0000
0020
0000
0000
0000
,
1030
0000
0000
0000
1001
0000
0011
0001
,
0200
0000
2300
0000
3002
0000
0023
0000
1030
0000
0001
1000
0001
0000
0010
0000
,
0100
0000
0000
0000
1100
0000
0001
0000
1010
0000
1000
0001
0020
0000
0000
0000
,
0130
0000
0010
0100
1000
0000
0001
0000
0101
0000
0100
0010
1000
0000
1000
0000
,
0001
0000
0000
0000
0011
0000
1000
0000
0101
0000
0001
1000
0200
0000
0000
0000
,
0310
0000
0100
0010
0001
0000
2000
0000
0010
0000
0010
0000
0010
0000
3010
0000
,
0100
0000
0000
0100
0110
0010
1001
0000
,
1000
0000
0100
1000
0001
0000
0100
0000
0101
0000
0010
0000
2010
0000
3002
0000
,
1003
0001
0010
0100
1100
0000
1100
1000
,
0001
0100
0001
0100
0020
0000
0000
0000
0000
0000
0130
0010
0100
0000
0010
0000
,
1010
2001
0000
0000
,
0000
0000
0000
0000
,
0000
0000
0000
0000
,
0000
0000
0000
0000
,
0000
0000
0000
0000
,
0000
3002
0010
2003
,
0100
3002
0010
2003
,
0100
3020
0001
0230
,
1000
0320
0001
0230
,
1000
0000
0310
0100
0010
0100
0001
1000
,
0001
0000
0000
1000
0000
0000
0100
0000
0010
0100
0000
0010
0100
0000
0010
0100
0000
0010
0200
0000
0000
0000
0000
0000
,
0000
0310
0001
0001
,
0001
0000
1001
0000
1010
0000
0101
0010
,
2001
0000
0000
0000
0000
0000
0100
0000
0000
0000
0000
0000
3100
0000
0000
0000
0000
0000
1000
0000
0001
0000
1000
0000
0001
0000
0000
0000
0000
0000
0100
0000
0000
0010
0000
0000
1000
0000
0000
0000
0000
0000
0001
0000
0000
0000
0000
0000
,
0011
0000
2001
0000
3010
0000
0110
0010
,
1000
0000
0100
0000
0100
0000
0100
0000
0001
0000
0100
0010
0001
0000
1000
0000
,
0010
0001
0010
0100
0101
0000
2001
3100
,
1000
0000
0001
1000
0000
1000
0002
0000
0000
0103
0000
0000
0020
0000
0000
0130
0000
0000
0010
0000
0000
1000
0000
0000
,
0001
0000
1000
0001
0000
0001
2000
0000
0000
3100
0000
0000
0010
0000
0000
0000
0000
0000
1002
0000
0000
0103
0000
0000
,
0010
0000
0100
0010
0000
0010
0200
0000
0000
0301
0000
0000
2000
0000
0000
3001
0000
0000
0010
0000
0000
0100
0000
0000
,
2000
0000
3010
0010
0100
0000
1001
1000
,
0001
0000
0010
0000
0010
0000
0010
0000
1000
0000
0010
0100
1000
0000
0001
0000
,
0100
1000
0100
0010
1010
0000
1001
0001
,
1000
0000
0010
0000
0010
0000
0010
0000
0001
0000
0010
1000
0100
0000
0010
0000
,
0001
0000
1000
0001
0200
0000
0000
0000
0310
0000
0000
0000
1100
0000
0010
0000
,
0202
0303
0011
0100
2020
3030
1100
0010
,
0202
0303
0000
0000
0011
0001
1010
1000
,
0011
0000
0001
0000
1010
0000
1000
0000
0001
0010
0100
1000
0001
0010
0100
2000
,
0000
0000
3010
1000
0000
0000
0001
0011
,
0100
0000
0000
1100
0000
0000
1010
0000
0000
0011
0000
0000
0101
0000
0100
0000
,
0010
0000
1000
0000
0002
0000
0000
0000
1003
0000
0001
0000
1000
0100
1000
0000
,
0020
0000
0100
0000
0130
0000
0010
0000
1000
0000
0001
1000
0100
1000
0001
1000
,
0200
0000
0000
0000
0000
0000
0301
0000
0000
0000
0000
0000
0100
0000
0000
1000
0000
0000
0001
0000
0000
0000
0000
0000
0100
0000
0000
0000
0010
0000
0000
0000
0100
0000
0000
0000
0010
0000
0000
0000
0100
0000
0000
0000
0010
0000
0000
0000
,
2000
0100
3200
0000
0001
0000
1300
0100
,
0010
0001
0100
0000
0110
1000
0001
0010
,
0200
0000
1000
0000
1300
0000
0001
0000
0100
0010
1000
0001
0200
0000
0000
0000
,
2300
0000
3001
0000
;

//--------------- dance-single - Talkion ----------------
#NOTES:
     dance-single:
     Talkion:
     Challenge:
     15:
     0,0,0,0,0:
0000
0000
0000
0000
,
0000
0000
0000
0000
,
0000
0000
0000
0000
,
0000
0000
0000
0000
,
0000
0000
0000
0000
,
1000
0100
0010
0001
000M
0000
1010
0000
,
0201
0000
1300
0100
0001
0010
0100
1000
,
0001
0100
0010
1000
0002
0000
0100
0103
,
0010
1000
0010
1000
0004
0000
0000
0000
0013
0000
0000
0000
0000
0000
0000
0000
,
0011
0000
1010
0000
0011
0000
1010
0100
,
1001
0000
0110
0000
1001
0000
0110
0001
,
1010
0000
0011
0000
1010
0000
0011
0100
,
1001
0000
0110
0000
1001
0000
0110
1000
,
0001
0001
0010
0010
0100
0100
1000
1000
,
0010
0010
0100
0100
0001
0001
1000
1000
,
0001
0010
0100
0010
0001
0010
0100
0010
0004
0000
0000
0000
0000
0000
0000
0000
,
0103
0000
0100
0100
0020
0030
0200
0300
,
1001
0000
0000
0000
1200
0000
0310
0000
0101
0000
0001
0100
0010
0000
1000
0000
,
0001
0000
0010
0100
2000
0000
3001
0000
0100
0000
0001
1000
0100
0000
0100
0000
,
1001
0000
0000
0000
0021
0000
0130
0000
1010
0000
1000
0010
0100
0000
0001
0000
,
1000
0000
0100
0010
1000
0000
0010
0100
2000
0000
0001
0000
0001
0000
3001
0000
,
0100
0000
0000
0000
1001
0000
0010
0000
0101
0000
0000
0100
0010
0000
1000
0000
,
0100
0001
0100
0010
0001
0000
1000
0000
1010
0000
1010
0000
0040
0000
0430
0000
,
0301
0000
0000
0000
0M0M
0000
0000
0000
1020
0000
0130
0000
0010
0100
0001
0010
,
0200
0000
2300
0000
3002
0000
0203
0000
1300
0000
0100
0001
1000
0000
0001
0000
,
1001
0000
0000
0000
0012
0000
0103
0000
1010
0000
1000
0100
0010
0000
0001
0000
,
1000
0000
0010
0100
0001
0000
0100
0000
0010
0000
1000
0001
0010
0000
0010
0000
,
1001
0000
0000
0000
2100
0000
3010
0000
0101
0000
0001
0010
0100
0000
1000
0000
,
0001
0000
0100
0010
1000
0000
0010
1000
0200
0000
0010
0000
0010
0000
0310
0000
,
0001
0000
0000
0100
1010
0100
1001
0000
,
1000
0000
0100
1000
0010
0000
0010
0000
0101
0000
0010
0000
4000
3000
0004
0003
,
1000
0000
0001
0000
0010
1000
0010
0100
1000
0000
0001
0000
0100
0000
0010
0000
,
1000
0010
0100
0001
4000
0000
0000
0000
0000
0000
3100
0010
0001
0000
0001
0000
,
2020
3030
0000
0000
0201
0000
0000
0000
0000
0000
0000
0000
0000
0000
0000
0000
,
0000
0000
0000
0000
,
0000
0000
0000
0000
,
0000
0000
0000
0000
,
0000
0000
0000
0000
,
0000
0000
0310
0100
0001
1000
0200
0000
,
0001
1000
0001
1000
,
0001
0000
0310
0100
1000
0001
0200
0000
,
1000
0001
1000
0001
,
1000
0000
0310
0010
0100
0100
0001
0001
,
1000
0000
0000
1000
0000
0000
0001
0000
0001
0010
0000
0010
0100
0000
0100
1000
0000
1000
0001
0100
0001
0100
0001
0100
,
0010
1000
0010
1000
0010
1000
0001
0000
0000
0000
0000
0000
0010
0000
0000
0000
0000
0000
0010
0000
0000
0000
0000
0000
,
0010
0000
00M0
0000
1001
0000
0201
0310
,
1100
0000
0000
0000
0000
0000
0010
0000
0000
0000
0000
0000
1001
0000
0000
0000
0000
0000
0001
0000
0100
0000
0001
0000
0100
0000
0000
0000
0000
0000
1000
0000
0000
0100
0000
0000
0001
0000
0000
0000
0000
0000
1000
0000
0000
0000
0000
0000
,
1100
0000
0000
0100
0000
M100
0002
0000
0000
0000
0000
0000
1003
0000
0000
0000
0000
0000
1010
0000
0000
0010
0000
M010
,
0001
0000
1000
0000
0110
0000
1000
0000
0002
0000
0103
0001
2000
0000
3100
0000
,
0002
2003
3020
0031
0101
0000
1020
0031
,
0010
0000
0010
0100
0000
0100
0002
0000
0000
1003
0000
0000
1200
0000
0000
0310
0000
0000
1001
0000
0000
0001
0000
0000
,
0100
0000
0100
0010
0000
0010
2000
0000
0000
3001
0000
0000
0010
0000
0000
0000
0000
0000
0011
0000
0000
0001
0000
0000
,
1000
0000
1000
0010
0000
0010
0200
0000
0000
0301
0000
0000
0021
0000
0000
0130
0000
0000
1001
0000
0000
1000
0000
0000
,
0020
0000
0000
0000
0000
0000
0130
0000
0000
01M0
0000
0000
1001
0000
0000
0000
0000
0000
1100
0000
0000
0100
0000
M100
,
0001
0000
1000
0000
0101
0000
1000
0000
0002
0000
0103
0001
2000
0000
3100
0000
,
0001
0000
0001
0100
0000
0100
1000
0000
0000
0001
0000
0000
1001
0000
0000
0000
0000
0000
0011
0000
0000
0010
0000
001M
,
1000
0000
0001
0000
1010
0000
0001
0000
2000
0000
3010
1000
0002
0000
0013
0000
,
1000
0000
0001
0100
0040
0000
0000
0000
0031
0000
0000
0000
1010
0000
0011
0000
,
2002
3003
0101
1100
2002
3003
1010
0011
,
2002
3003
M00M
M00M
1200
0310
0201
0310
,
1002
0000
0013
0000
2001
0000
3010
0000
0001
0010
1000
0010
0001
0010
1000
0010
,
0002
0003
000M
0110
0000
0000
1004
0403
,
0310
0000
1000
0100
0020
0000
1000
0000
0000
0001
0000
0000
1030
0000
0010
0001
,
0100
0000
0100
0000
0020
0000
0000
0000
1030
0000
0001
0000
0010
001M
1000
0000
,
1020
0000
0100
0000
0130
0000
0010
0000
1000
0000
0001
0010
1000
0010
0001
0010
,
1000
0000
0000
0000
0000
0000
0002
0000
0000
0000
0000
0000
1003
0000
0000
0010
0000
0000
0001
0000
0000
0000
0000
0000
1000
0000
0000
0000
1000
0000
0000
0000
1000
0000
0000
0000
0001
0000
0000
0000
0001
0000
0000
0000
0001
0000
0000
0000
,
0200
0310
0400
0000
1000
0000
0301
1000
,
0100
0000
0010
0000
0002
0000
1003
0000
0001
0100
1000
0100
0010
0000
1000
0000
,
0101
0000
0010
0000
0010
0000
1000
0000
0001
1000
0001
1000
0400
0000
0000
0000
,
0302
0000
1003
0000
;

//--------------- dance-double - Talkion ----------------
#NOTES:
     dance-double:
     Talkion:
     Edit:
     15:
     0,0,0,0,0:
00000000
00000000
00000000
00000000
,
00000000
00000000
00000000
00000000
,
00000000
00000000
00000000
00000000
,
00000000
00000000
00000000
00000000
,
00000000
00000000
00000000
00000000
,
10000000
01000000
00100000
00010000
000M0000
00000000
00001100
00000000
,
00000012
00000000
00000103
00000010
00010000
00000100
00000010
00000100
,
00010000
00001000
01000000
00100000
20000000
00000000
00010000
30010000
,
00100000
00001000
00100000
00001000
00040000
00000000
00000000
00000000
00030010
00000000
00000000
00000000
00000000
00000000
00000000
00000000
,
00000110
00000000
00001001
00000000
00000011
00000000
00000010
00001000
,
00011000
00000000
01100000
00000000
10010000
00000000
10000000
01000000
,
01010000
00000000
00011000
00000000
00001100
00000000
00000100
00000001
,
00001001
00000000
00000011
00000000
00001010
00000000
00001000
00010000
,
00001000
00001000
01000000
01000000
00100000
00100000
10000000
10000000
,
00010000
00010000
00100000
00100000
00001000
00001000
00010000
00010000
,
00000010
00001000
00000001
00001000
00000010
00001000
00000001
00001000
00000040
00000000
00000000
00000000
00000000
00000000
00000000
00000000
,
00000130
00000000
00000100
00000100
00000020
00000030
00000200
00000300
,
00001001
00000000
00000000
00000000
00020100
00000000
00031000
00000000
0101M000
00000000
01000000
00100000
10000000
00000000
00010000
00000000
,
10000000
00000000
01000000
00100000
00020000
00000000
01030000
00000000
00001000
00000000
00010000
00001000
01000000
00000000
01000000
00000000
,
10010000
00000000
00000000
00000000
00102000
00000000
00013000
00000000
000M1010
00000000
00000010
00000100
00000001
00000000
00001000
00000000
,
00000001
00000000
00000010
00000100
00001000
00000000
00000100
00010000
00002000
00000000
01000000
00000000
01000000
00000000
01003000
00000000
,
00100000
00000000
00000000
00000000
10010000
00000000
00100000
00000000
01010000
00000000
00000000
01000000
00001000
00000000
00010000
00000000
,
00000100
00000010
00000100
00010000
00001000
00000000
00010000
00000000
00001010
00000000
00001010
00000000
00000040
00000000
00000430
00000000
,
00000301
00000000
00000000
00000000
00000M0M
00000000
00000000
00000000
00002010
00000000
00003100
00000000
00010000
00001000
01000000
00010000
,
00200000
00000000
20300000
00000000
30200000
00000000
00302000
00000000
00013000
00000000
00000010
00001000
00000001
00000000
00001000
00000000
,
00001100
00000000
00000000
00000000
01001M00
00000000
01000000
00000000
10010000
00000000
10000000
00010000
00100000
00000000
00001000
00000000
,
00010000
00000000
00000010
00001000
00000100
00000000
00000010
00000000
00001000
00000000
00010000
00001000
01000000
00000000
00010000
00000000
,
00110000
00000000
00000000
00000000
00M10010
00000000
00000010
00000000
00001001
00000000
00000001
00001000
00000100
00000000
00010000
00000000
,
00001000
00000000
01000000
00010000
00100000
00000000
01000000
00100000
00020000
00000000
01000000
00000000
01000000
00000000
01030000
00000000
,
00001000
00000000
00000000
00010000
00001100
00010000
00001010
00000000
,
00000010
00000000
00000100
00000010
00001000
00000000
00001000
00000000
00000011
00000000
00000100
00000000
00040000
00030000
00004000
00003000
,
01000000
00000000
00010000
00000000
10000000
01000000
00100000
00010000
01000000
00000000
00001000
00000000
00010000
00000000
00000010
00000000
,
00000100
00000010
00000100
00000010
00004000
00000000
00000000
00000000
00000000
00000000
00003100
00010000
00001000
00000000
01000000
00000000
,
02200000
03300000
00000000
00000000
10020000
00000000
00000000
00000000
00000000
00000000
00000000
00000000
00000000
00000000
00000000
00000000
,
00000000
00000000
00000000
00000000
,
00000000
00000000
00000000
00000000
,
00000000
00000000
00000000
00000000
,
00000000
00000000
00000000
00000000
,
00000000
00000000
00130000
00001000
00000010
00000001
00002000
00000000
,
00010000
00000001
00010000
00000001
,
00010000
00000000
00003100
00010000
01000000
10000000
00020000
00000000
,
00001000
10000000
00001000
10000000
,
00001000
00000000
00130000
00100000
00001000
00001000
00010000
00010000
,
00000010
00000000
00000000
00000010
00000000
00000000
00000100
00000000
00000100
00000001
00000000
00000001
00001000
00000000
00001000
00000100
00000000
00000100
00010000
00001000
00010000
00001000
00010000
00001000
,
00010000
00001000
00010000
00001000
00010000
00001000
01000000
00000000
00000000
00000000
00000000
00000000
00100000
00000000
00000000
00000000
00000000
00000000
00100000
00000000
00000000
00000000
00000000
00000000
,
00100000
00000000
10010000
00000000
11000000
00000000
00120000
00031000
,
00001010
00000000
00000000
00000000
00000000
00000000
00000001
00000000
00000000
00000000
00000000
00000000
00001001
00000000
00000000
00000000
00000000
00000000
00001000
00000000
00000100
00000000
00001000
00000000
00000100
00000000
00000000
00000000
00000000
00000000
00010000
00000000
00000000
00001000
00000000
00000000
01000000
00000000
00000000
00000000
00000000
00000000
00010000
00000000
00000000
00000000
00000000
00000000
,
01010000
00000000
00000000
01000000
00000000
010M0000
20000000
00000000
00000000
00000000
00000000
00000000
30010000
00000000
00000000
00000000
00000000
00000000
00110000
00000000
00000000
00010000
00000000
00M10000
,
00001000
00000000
00000010
00000000
00001001
00000000
00000010
00000000
00000002
00000000
00001003
00000001
00000200
00000000
00001300
00000000
,
02000000
03002000
00003200
00000310
00001010
00000000
00020100
00031000
,
01000000
00000000
01000000
00100000
00000000
00100000
02000000
00000000
00000000
03001000
00000000
00000000
00102000
00000000
00000000
01003000
00000000
00000000
01001000
00000000
00000000
00001000
00000000
00000000
,
00010000
00000000
00010000
00000100
00000000
00000100
00000020
00000000
00000000
00000031
00000000
00000000
00001000
00000000
00000000
00000000
00000000
00000000
00002001
00000000
00000000
00003010
00000000
00000000
,
00000100
00000000
00000100
00000010
00000000
00000010
00020000
00000000
00000000
00031000
00000000
00000000
02001000
00000000
00000000
03100000
00000000
00000000
10010000
00000000
00000000
10000000
00000000
00000000
,
02000000
00000000
00000000
00000000
00000000
00000000
03100000
00000000
00000000
0M100000
00000000
00000000
10010000
00000000
00000000
00000000
00000000
00000000
01010000
00000000
00000000
00010000
00000000
0M010000
,
00001000
00000000
00000100
00000000
00001001
00000000
00000100
00000000
00000002
00000000
00001003
00000001
00000020
00000000
00001030
00000000
,
00100000
00000000
00100000
00001000
00000000
00001000
00010000
00000000
00000000
00000010
00000000
00000000
00000110
00000000
00000000
00000000
00000000
00000000
00001010
00000000
00000000
00001000
00000000
000010M0
,
00010000
00000000
00100000
00000000
10010000
00000000
00100000
00000000
20000000
00000000
30010000
10000000
02000000
00000000
03010000
00000000
,
00000100
00000000
00000010
00000100
00004000
00000000
00000000
00000000
00003001
00000000
00000000
00000000
00000101
00000000
00000110
00000000
,
00020020
00030030
00011000
01001000
02200000
03300000
10100000
01100000
,
02002000
03003000
0M00M000
0M00M000
00012000
00003010
00000012
00000103
,
00002100
00000000
00013000
00000000
00021000
00000000
01030000
00000000
10000000
01000000
00010000
01000000
10000000
01000000
00010000
01000000
,
20000000
30000000
M0000000
01100000
00000000
00000000
10040000
04030000
,
03001000
00000000
00010000
00000100
00000020
00000000
00000001
00000000
00000000
00001000
00000000
00000000
00000031
00000000
00000010
00000100
,
00010000
00000000
00010000
00000000
00002000
00000000
00000000
00000000
01003000
00000000
00010000
00000000
01000000
010M0000
10000000
00000000
,
12000000
00000000
00100000
00000000
03100000
00000000
00001000
00000000
00010000
00000000
00000100
00000001
00000100
00001000
00000100
00000001
,
00000100
00000000
00000000
00000000
00000000
00000000
00020000
00000000
00000000
00000000
00000000
00000000
00031000
00000000
00000000
01000000
00000000
00000000
00010000
00000000
00000000
00000000
00000000
00000000
10000000
00000000
00000000
00000000
10000000
00000000
00000000
00000000
10000000
00000000
00000000
00000000
00010000
00000000
00000000
00000000
00010000
00000000
00000000
00000000
00010000
00000000
00000000
00000000
,
00200000
00301000
00000040
00000000
00000000
00000000
00000130
00010000
,
01000000
00000000
10000000
00000000
00020000
00000000
10030000
00000000
00100000
01000000
00100000
01000000
00001000
00000000
00010000
00000000
,
00010200
00000000
00000010
00000000
00000310
00000000
00000001
00000000
00001000
00000001
00000100
00001000
00040000
00000000
00000000
00000000
,
02030000
00000000
13000000
00000000
;
