#TITLE:Heavenly Star (3-Dimentionally Mix);
#SUBTITLE:;
#ARTIST:Genki Rockets;
#TITLETRANSLIT:;
#SUBTITLETRANSLIT:;
#ARTISTTRANSLIT:;
#GENRE:;
#CREDIT:;
#BANNER:Heavenly Star (3-Dimentionally Mix)-bn.png;
#BACKGROUND:Heavenly Star(3-Dimentionally Mix)-bg.png;
#LYRICSPATH:;
#CDTITLE:;
#MUSIC:09 Heavenly Star (3-Dimentionally Mix).mp3;
#OFFSET:0.172180;
#SAMPLESTART:71.219917;
#SAMPLELENGTH:15.000000;
#SELECTABLE:YES;
#DISPLAYBPM:125.000000;
#BPMS:0.000000=124.999992
;
#STOPS:
;
#BGCHANGES:1.000=Heavenly Star (3-Dimentionally Mix).mp4=1.000=1=0=1=StretchNormal==CrossFade==,
252.000=Heavenly Star(3-Dimentionally Mix)-bg.png=1.000=0=0=1=====,
99999=-nosongbg-=1.000=0=0=0 // don't automatically add -songbackground-
;
#KEYSOUNDS:;
#ATTACKS:;

//---------------dance-single - ----------------
#NOTES:
     dance-single:
     :
     Hard:
     11:
     0.419887,0.476725,0.398267,0.358440,0.027879,369.000000,319.000000,50.000000,45.000000,0.000000,0.000000,0.419887,0.476725,0.398267,0.358440,0.027879,369.000000,319.000000,50.000000,45.000000,0.000000,0.000000:
// measure 0
0000
0000
0000
0000
,  // measure 1
0000
0000
0000
0000
,  // measure 2
0000
0000
0000
0000
,  // measure 3
0000
0000
0000
0000
,  // measure 4
0000
1002
1000
0100
,  // measure 5
0103
0120
0001
1000
,  // measure 6
1030
2001
0001
0010
,  // measure 7
3010
0210
1000
0001
,  // measure 8
0301
0002
0000
2003
,  // measure 9
0000
3020
0130
0101
,  // measure 10
2200
3300
1000
0100
,  // measure 11
0010
0022
0033
2200
,  // measure 12
3300
0000
0001
0100
0010
1000
0100
0010
,  // measure 13
0001
0100
0010
1000
0010
0100
0010
0001
,  // measure 14
0010
1000
0010
0100
0001
0010
0100
1000
,  // measure 15
0010
0100
0001
0010
0001
0100
0001
1000
,  // measure 16
0001
0100
0001
0010
0100
1000
0001
0100
,  // measure 17
0010
1000
0100
0010
0100
1000
0100
0001
,  // measure 18
0100
0010
0100
1000
0001
0100
0010
1000
,  // measure 19
0100
0010
0001
1000
0001
0100
0001
1000
,  // measure 20
0001
0100
0001
1000
0000
1200
0000
1300
,  // measure 21
1000
0010
0000
0010
0100
0000
0110
0000
,  // measure 22
2002
0000
3003
0000
0001
0001
0100
0000
,  // measure 23
0010
0100
0000
0220
0000
0000
0330
0000
,  // measure 24
0000
0000
0100
0100
0000
0101
0000
1010
,  // measure 25
0000
2001
0000
3001
0100
0010
1000
0000
,  // measure 26
2020
3030
1100
0011
,  // measure 27
0001
0001
0000
0202
0000
0303
0000
0000
,  // measure 28
0000
0000
1000
1000
0000
2100
0000
3001
,  // measure 29
0000
0201
0000
0310
0100
0001
0100
0000
,  // measure 30
0110
0110
0000
0000
1100
0000
0011
0000
,  // measure 31
1000
1000
0000
0220
0000
0000
0330
0000
,  // measure 32
0000
0000
0001
0001
0100
0001
0000
0101
,  // measure 33
0000
1010
0000
1000
0100
0010
0100
0000
,  // measure 34
2200
0000
3300
0000
0000
1000
0100
0010
,  // measure 35
0001
0000
0100
0000
0010
0000
1000
0000
0001
1000
0001
0000
1000
0000
0001
0000
,  // measure 36
0100
0010
0100
0000
0001
0000
0100
0000
0010
0000
1000
0000
0100
0000
0010
0000
,  // measure 37
0001
0201
0010
1000
,  // measure 38
0310
0000
0100
0001
1000
0001
0100
0100
,  // measure 39
0010
0100
0201
0000
0301
1000
1200
0000
,  // measure 40
1300
0000
0010
0000
0210
0000
0000
0000
0310
0000
0000
0000
1000
0000
0000
1000
,  // measure 41
0000
0100
0010
0000
0021
0000
0001
0000
,  // measure 42
0130
0000
1000
0000
0001
0100
0101
0000
,  // measure 43
1000
0100
1100
0000
2002
0000
0000
0000
,  // measure 44
3003
0000
0001
0010
0100
0010
0001
0100
,  // measure 45
0100
1020
0100
0001
,  // measure 46
0130
0000
0010
1000
0001
1000
0100
0100
,  // measure 47
1000
0001
0102
0000
1003
0010
1020
0000
,  // measure 48
0130
0000
0010
0000
0210
0000
0000
0000
0310
0000
0000
0000
1000
0000
0000
1000
,  // measure 49
0000
0100
0010
0000
0012
0000
0100
0000
,  // measure 50
0013
0000
0001
0000
0100
0010
1000
0000
,  // measure 51
1010
0101
2002
0000
,  // measure 52
3003
0011
0101
1010
,  // measure 53
1001
0000
0001
0100
0010
1000
0010
0100
,  // measure 54
0001
0100
0010
1000
0010
0100
0010
0001
,  // measure 55
0010
0100
0001
0010
0100
1000
0100
0010
,  // measure 56
0001
0010
0100
1000
0100
0010
0100
0001
,  // measure 57
0100
0010
0100
1000
0010
0100
0001
1000
,  // measure 58
0100
1000
0100
0000
1000
0000
0001
0000
0100
0000
0010
0000
1000
0000
0001
0000
,  // measure 59
0100
0001
0100
0000
0001
0000
1000
0000
0100
0000
1000
0000
0001
0000
0100
0000
,  // measure 60
0001
1000
0001
0000
1000
0000
0001
0000
1000
0000
0100
0000
0010
0000
0001
0000
,  // measure 61
0100
0010
2020
0000
0000
0000
0000
0000
,  // measure 62
0000
0000
0000
0000
,  // measure 63
3030
0000
0000
0000
;

//---------------dance-single - ----------------
#NOTES:
     dance-single:
     :
     Beginner:
     3:
     0.100136,0.195151,0.047792,0.000000,0.000000,88.000000,82.000000,6.000000,0.000000,0.000000,0.000000,0.100136,0.195151,0.047792,0.000000,0.000000,88.000000,82.000000,6.000000,0.000000,0.000000,0.000000:
0000
0000
0000
0000
,
0000
0000
0000
0000
,
0000
0000
0000
0000
,
0000
0000
0000
0000
,
0000
1000
0000
0000
,
0000
1000
0000
0000
,
0000
0001
0000
0000
,
0000
0001
0000
0000
,
0000
0100
0000
0000
,
0000
0000
0000
0100
,
0000
0000
0010
0000
,
0000
0000
0000
0000
,
0000
0010
0000
0000
,
0000
0010
0000
0000
,
0000
1000
0000
0000
,
0000
1000
0000
0000
,
0000
0100
0000
0000
,
0000
0100
0000
0000
,
0000
0010
0000
0000
,
0000
0010
0000
0000
,
0000
0101
0000
0000
,
0000
0000
0000
0000
,
0000
0000
1100
0000
,
0000
0000
0000
0000
,
0000
1001
0000
0000
,
0000
0000
0000
0000
,
0000
0000
0110
0000
,
0000
0000
0000
0000
,
1001
0000
0001
0000
,
0001
0000
1000
0000
,
1000
0000
0100
0000
,
0100
0000
0010
0000
,
0010
0000
0001
0000
,
0001
0000
0100
0000
,
0100
0000
0001
0000
,
0000
0001
0001
0000
,
0001
0000
1000
0000
,
0000
1000
0000
1000
,
0000
1000
0000
0000
,
0000
0001
0000
0001
,
0000
0001
0000
0100
,
0100
0100
0000
0000
,
0000
0100
0000
0100
,
0000
0100
0100
0000
,
0000
0001
0000
0000
,
0000
0001
0000
0000
,
0001
0000
0000
0001
,
0000
1000
0000
1000
,
0000
1000
0000
0000
,
0000
0100
0100
0000
,
0000
0000
0010
0000
,
0010
0000
0001
0000
,
0001
0000
0100
0000
,
0100
0010
0000
0000
,
0000
0010
0000
0000
,
0000
0100
0000
0000
,
0000
0100
0000
0000
,
0000
0001
0001
0001
,
0000
0100
0100
0100
,
0000
0010
0010
0010
,
0000
1000
1000
1000
,
0000
1001
0000
0000
;

//---------------dance-single - ----------------
#NOTES:
     dance-single:
     :
     Easy:
     5:
     0.142238,0.243938,0.143376,0.430128,0.000000,125.000000,107.000000,18.000000,54.000000,0.000000,0.000000,0.142238,0.243938,0.143376,0.430128,0.000000,125.000000,107.000000,18.000000,54.000000,0.000000,0.000000:
0000
0000
0000
0000
,
0000
0000
0000
0000
,
0000
0000
0000
0000
,
0000
0000
0000
0000
,
0000
2000
0001
0001
,
3001
0000
0000
0000
,
0000
0200
0010
0010
,
0310
0000
0000
0000
,
0000
2000
0100
0100
,
3100
0000
0000
0000
,
0000
0020
0001
0001
,
0031
0000
0000
0000
,
0000
0000
2002
0000
0000
0000
0003
3000
,
0000
0220
0000
0330
,
0000
2020
0000
0000
,
3030
0000
0202
0000
0000
0000
0000
0303
,
0000
2020
0000
0000
,
3030
2002
0000
0000
,
3003
0220
0000
0000
,
0330
2002
0000
0000
,
3003
0001
0000
0001
,
0000
0001
0000
0100
,
0100
0000
1000
0000
,
1000
0000
1000
0000
,
0000
0001
0000
0001
,
0000
0001
0000
0100
,
0100
0000
1000
0000
,
1000
0000
1000
0000
,
0000
0100
0000
0100
,
0000
0000
0000
0001
,
0001
0000
1000
0000
,
1000
0000
0000
0100
,
0100
1000
0000
0010
,
0000
0100
0000
0001
,
0000
0000
0000
0000
,
0000
2002
0000
0000
,
0000
0000
0000
3003
,
0000
2000
0000
0001
,
3001
0000
0100
0100
,
0000
0002
0000
0010
,
0013
0000
1000
1000
,
0000
0010
0110
0000
,
0000
0000
0100
0100
,
0010
0010
1001
0000
,
0000
0000
0000
1000
,
0100
0020
0000
0000
,
0030
0001
0001
0001
,
0000
0200
0000
0000
,
0300
0010
0010
0010
,
0000
2200
3300
0022
,
0033
0202
0303
2020
,
3030
2002
3003
2200
,
3300
0010
0010
0010
,
0010
0002
0003
0200
,
0300
0020
0030
2000
,
3000
0200
0300
2000
,
3000
0020
0030
0200
,
0300
0002
0003
2000
,
3000
0002
0003
2000
,
3000
0020
0030
0200
,
0300
0020
0030
0200
,
0300
1001
0000
0000
;

//---------------dance-single - ----------------
#NOTES:
     dance-single:
     :
     Medium:
     8:
     0.286752,0.341514,0.087619,0.215064,0.000000,252.000000,241.000000,11.000000,27.000000,0.000000,0.000000,0.286752,0.341514,0.087619,0.215064,0.000000,252.000000,241.000000,11.000000,27.000000,0.000000,0.000000:
0000
0000
0000
0000
,
0000
0000
0000
0000
,
0000
0000
0000
0000
,
0000
0000
0000
0000
,
0000
2000
0100
0100
,
3100
0020
0001
0001
,
0031
0200
0010
0010
,
0310
2000
0100
0100
,
3100
0001
0000
0001
,
0000
1000
0010
0100
,
0100
0000
0000
0000
0001
0100
0001
0000
,
1000
0100
1000
0000
2002
0000
0000
0000
,
3003
1000
0100
0010
,
0001
0100
0010
1000
,
0010
0100
0001
1000
,
0100
1000
0001
0100
,
0010
1000
0100
1000
,
0100
1000
0100
0000
0010
0000
0001
0000
,
0010
0001
0010
0000
0001
0000
1000
0000
,
0001
1000
0001
0000
0100
0000
0010
0000
,
0100
0010
0200
0000
0000
0000
0300
0000
,
0000
0000
0020
0000
0000
0000
0000
0030
,
0000
2000
0000
0000
,
3000
0002
0000
0000
,
0003
0100
0100
0100
,
0000
0010
0010
0010
,
0010
0000
1000
1000
,
1000
0000
0001
0001
,
0001
0201
0001
0001
,
0301
0000
0100
0000
0010
1000
0100
0000
,
2100
0100
0100
3100
,
0010
0000
0001
1000
0001
0000
0100
0010
,
0100
2010
0001
0100
,
3001
0000
0001
0000
0100
0000
0010
1000
,
0010
0100
0001
1000
,
0100
0000
1000
0000
0100
1000
0100
0000
,
0010
0001
0010
0000
0001
0000
0100
0010
,
0100
0000
0201
0000
0301
0000
0001
0100
,
0001
0000
1200
0000
1300
0000
0100
1000
,
0100
2000
3010
0200
,
0301
0000
0100
0000
0010
1000
0010
0100
,
0001
1000
0100
0000
1000
0000
0100
0000
,
0010
0001
0000
0011
,
0000
0101
2020
3030
,
0000
0001
0100
0010
,
1000
0000
2100
0000
3100
0000
1000
0100
,
1000
0000
0010
0001
0010
0000
0001
0100
,
0001
0200
0310
2000
,
3100
0020
0031
0100
,
0010
0000
1000
0100
1000
0000
0010
0001
,
0010
0000
0001
1000
0001
0000
0100
0010
,
0100
0010
1000
0100
,
0010
0002
0203
0320
,
2030
0000
3100
0001
,
0100
1000
0100
0000
1000
0000
0010
0000
,
0100
0001
0100
0000
0010
0000
1000
0000
,
0010
0100
0001
0000
1000
0000
0100
0000
,
1000
0100
1000
0000
0001
0000
0100
0001
,
0100
0001
0100
0000
0010
0000
1000
0010
,
1000
0010
1000
0000
0001
0000
1000
0001
,
1000
0001
1000
0000
0010
0000
0100
0010
,
0100
0010
0110
0000
0000
0000
0000
0000
;
