#VERSION:0.83;
#TITLE:Heaven;
#SUBTITLE:(S3RL ft. Tamika Remix);
#ARTIST:DJ Sammy;
#TITLETRANSLIT:;
#SUBTITLETRANSLIT:;
#ARTISTTRANSLIT:;
#GENRE:;
#ORIGIN:;
#CREDIT:;
#BANNER:banner.png;
#BACKGROUND:background.png;
#PREVIEWVID:;
#JACKET:jacket.png;
#CDIMAGE:;
#DISCIMAGE:;
#LYRICSPATH:;
#CDTITLE:;
#MUSIC:Heaven (S3RL Remix).ogg;
#OFFSET:-0.045380;
#SAMPLESTART:37.080276;
#SAMPLELENGTH:21.942856;
#SELECTABLE:YES;
#BPMS:0.000=175.000;
#STOPS:;
#DELAYS:;
#WARPS:;
#TIMESIGNATURES:0.000=4=4;
#TICKCOUNTS:0.000=4;
#COMBOS:0.000=1;
#SPEEDS:0.000=1.000=0.000=0;
#SCROLLS:0.000=1.000;
#FAKES:;
#LABELS:0.000=Song Start;
#BGCHANGES:;
#KEYSOUNDS:;
#ATTACKS:
;

//---------------dance-single - ----------------
#NOTEDATA:;
#CHARTNAME:;
#STEPSTYPE:dance-single;
#DESCRIPTION:;
#CHARTSTYLE:;
#DIFFICULTY:Beginner;
#METER:3;
#RADARVALUES:0.171437,0.240941,0.037211,0.000000,0.000000,129.000000,125.000000,4.000000,0.000000,0.000000,0.000000,0.000000,0.000000,0.000000,0.171437,0.240941,0.037211,0.000000,0.000000,129.000000,125.000000,4.000000,0.000000,0.000000,0.000000,0.000000,0.000000,0.000000;
#CREDIT:Daniel Van Eden;
#NOTES:
// measure 0
0000
0000
0000
0000
,  // measure 1
0000
0000
0000
0000
,  // measure 2
0000
0000
0000
0000
,  // measure 3
0000
0000
0000
0000
,  // measure 4
0000
0000
0000
0000
,  // measure 5
0000
0000
0000
0000
,  // measure 6
0000
0000
0000
0000
,  // measure 7
0000
0000
0000
0000
,  // measure 8
0000
0000
0000
0000
,  // measure 9
1000
0000
0010
0000
,  // measure 10
1000
0000
0001
0000
,  // measure 11
0010
0010
0000
0010
,  // measure 12
0000
0010
0000
0100
,  // measure 13
0100
0000
1000
0000
,  // measure 14
0001
0000
0000
0000
,  // measure 15
0100
0000
0001
0000
,  // measure 16
1000
0000
0010
0000
,  // measure 17
1000
0000
0100
0000
,  // measure 18
0010
0000
0001
0000
,  // measure 19
1000
1000
0000
0001
,  // measure 20
0000
1000
0000
0001
,  // measure 21
0001
0000
0010
0000
,  // measure 22
0100
0000
0000
0000
,  // measure 23
0100
0000
1000
0000
,  // measure 24
0001
0000
0000
0000
,  // measure 25
0010
0000
0000
0000
,  // measure 26
0100
0000
0000
0000
,  // measure 27
1001
0000
0001
0000
,  // measure 28
1000
0000
0000
0000
,  // measure 29
0100
0000
0010
0000
,  // measure 30
0001
0000
0000
0000
,  // measure 31
1000
0000
0010
0000
,  // measure 32
0100
0000
0000
0000
,  // measure 33
0100
0000
0010
0000
,  // measure 34
1000
1000
1000
0000
,  // measure 35
1001
0000
1000
0000
,  // measure 36
0001
0000
0000
0000
,  // measure 37
0010
0000
0001
0000
,  // measure 38
0100
0000
0000
0000
,  // measure 39
0010
0000
0100
0000
,  // measure 40
0010
0000
0000
0000
,  // measure 41
0110
0000
0000
0000
,  // measure 42
0000
0000
0000
0000
,  // measure 43
0010
0000
0100
0000
,  // measure 44
0001
0000
0001
0000
,  // measure 45
0010
0000
0100
0000
,  // measure 46
1000
0000
1000
0000
,  // measure 47
0001
0000
0010
0000
,  // measure 48
0001
0001
0001
0000
,  // measure 49
1000
0000
0010
0000
,  // measure 50
1000
1000
1000
0000
,  // measure 51
0100
0000
0010
0000
,  // measure 52
0100
0100
0100
0000
,  // measure 53
0010
0000
0001
0000
,  // measure 54
1000
1000
1000
0000
,  // measure 55
0001
0000
0001
0000
,  // measure 56
1000
0000
1000
0000
,  // measure 57
0010
0000
0010
0000
,  // measure 58
0100
0000
0000
0000
,  // measure 59
1001
0000
1000
0000
,  // measure 60
0010
0000
1000
0000
,  // measure 61
0100
0000
0010
0000
,  // measure 62
0001
0000
0100
0000
,  // measure 63
0001
0000
1000
0000
,  // measure 64
0010
0000
1000
0000
,  // measure 65
0100
0000
0010
0000
,  // measure 66
0001
0000
1000
0000
,  // measure 67
0100
0000
0100
0100
,  // measure 68
0100
0000
0010
0000
,  // measure 69
0001
0000
0100
0100
,  // measure 70
0100
0000
0010
0000
,  // measure 71
1000
0000
0001
0000
,  // measure 72
0001
0000
1000
0000
,  // measure 73
0010
0000
1000
0000
,  // measure 74
0001
0000
0000
0000
;

//---------------dance-single - ----------------
#NOTEDATA:;
#CHARTNAME:;
#STEPSTYPE:dance-single;
#DESCRIPTION:;
#CHARTSTYLE:;
#DIFFICULTY:Easy;
#METER:7;
#RADARVALUES:0.293701,0.344202,0.027908,0.027908,0.000000,221.000000,218.000000,3.000000,3.000000,0.000000,0.000000,0.000000,0.000000,0.000000,0.293701,0.344202,0.027908,0.027908,0.000000,221.000000,218.000000,3.000000,3.000000,0.000000,0.000000,0.000000,0.000000,0.000000;
#CREDIT:Daniel Van Eden;
#NOTES:
0000
0000
0000
0000
,
0000
0000
0000
0000
,
0000
0000
0000
0000
,
0000
0000
0000
0000
,
0000
0000
0000
0000
,
0000
0000
0000
0000
,
0000
0000
0000
0000
,
0000
0000
0000
0000
,
0000
0000
0000
0000
,
1000
0000
0100
0000
,
0010
0100
0010
0001
,
1000
1000
0000
0001
,
0000
1000
0010
0100
,
0001
0010
0001
0000
,
1000
0010
0100
0000
,
0010
1000
0010
0000
,
1000
0001
0010
0000
,
0100
0010
0100
0000
,
1000
0001
1000
0010
,
0100
0100
0000
0010
,
0000
0100
0001
1000
,
0010
1000
0001
0100
,
0010
0000
0100
0000
,
0001
0010
0100
0000
,
1000
0000
0010
0000
,
2002
0000
0000
3003
,
0010
0000
0000
1000
0000
0000
0001
0000
,
0010
0010
0001
1000
,
0100
0010
0001
0000
,
0100
0100
0001
0100
,
0010
1000
0001
0000
,
1000
1000
0010
1000
,
0100
0000
0010
0001
,
1000
0000
0001
0000
,
1000
1000
1000
0000
,
0010
0010
1000
0001
,
0100
0010
1000
0000
,
0100
0100
1000
0100
,
0010
0001
1000
0000
,
0001
0001
0100
0010
,
1000
0001
0010
0000
,
0200
0000
0010
0000
,
1000
1000
1300
0100
,
0010
0010
0001
0001
,
1000
0000
1000
0000
,
0001
0001
0100
0000
,
0100
0010
0100
0000
,
1001
0001
1000
1000
,
0010
1000
0010
0000
,
1000
1000
0001
0001
,
1000
0100
0010
0001
,
1000
0001
1000
0010
,
1000
0001
0001
0000
,
0001
0010
0001
1000
,
0001
1000
1000
0000
,
0100
1000
0010
1000
,
0001
0100
0001
0000
,
0010
0001
1000
0001
,
0100
0000
0000
0001
0000
0000
1000
0000
,
0010
1000
0010
0100
,
0001
0010
0010
0000
,
0001
0010
0001
1000
,
0100
0010
0010
0000
,
0100
1000
0010
1000
,
0001
0100
0100
0000
,
0010
1000
0001
1000
,
0100
0010
0001
1000
,
0010
0010
1000
0001
,
0010
0100
1000
0100
,
0010
0010
0001
1000
,
0010
0100
0001
1000
,
0010
0010
1000
0001
,
0100
0100
0001
0010
,
0100
0100
0010
0010
,
1001
0000
0000
0000
;

//---------------dance-single - ----------------
#NOTEDATA:;
#CHARTNAME:;
#STEPSTYPE:dance-single;
#DESCRIPTION:;
#CHARTSTYLE:;
#DIFFICULTY:Medium;
#METER:11;
#RADARVALUES:0.449190,0.523280,0.195358,0.074422,0.055817,338.000000,317.000000,21.000000,8.000000,0.000000,0.000000,0.000000,0.000000,0.000000,0.449190,0.523280,0.195358,0.074422,0.055817,338.000000,317.000000,21.000000,8.000000,0.000000,0.000000,0.000000,0.000000,0.000000;
#CREDIT:Daniel Van Eden;
#NOTES:
0000
0000
0000
0000
,
0000
0000
0000
0000
,
0000
0000
0000
0000
,
0000
0000
0000
0000
,
0000
0000
0000
0000
,
0000
0000
0000
0000
,
0000
0000
0000
0000
,
0000
0000
0000
0000
,
0000
0000
0000
0000
,
0010
0001
1000
0001
,
0010
0100
0010
0100
0000
1000
0000
0010
,
1000
0001
0000
0001
0000
1000
0000
1000
,
0000
0001
0000
0001
0010
0100
0200
1300
,
0010
0000
1000
0000
0001
0000
0100
0001
,
0100
0000
0010
0000
1000
0000
0100
1000
,
0100
0000
0000
0010
0000
0000
0001
0000
,
1000
0000
0000
0000
0010
0000
0000
0000
1000
0000
0000
1000
0000
0000
1000
0000
,
0001
0000
0010
0000
0001
0100
0001
0000
,
1000
0000
0001
0000
1000
0010
1000
0000
,
0001
0010
0100
0000
1000
0010
0100
0000
,
0001
0010
0100
0000
1000
0010
0100
0000
,
0001
0000
1000
0000
0100
0000
0100
0020
,
0000
0000
0030
0000
0000
0010
0001
0000
,
1000
0000
0001
0200
0000
0000
0000
0000
,
0310
0000
1000
0000
0000
1000
0001
0000
,
1001
0000
0010
0100
,
0101
0000
0000
0001
0000
0000
1000
0000
,
0010
1000
0010
0100
0000
0100
0001
0000
,
1000
0000
0001
0000
0010
0000
0100
0010
,
0100
0000
1000
0100
0000
0100
0010
0000
,
0001
0000
1000
0000
0010
0000
1000
0010
,
1000
0001
1000
0001
0000
0001
0100
0000
,
0001
0000
0010
0000
0100
0010
0100
0010
,
0001
1000
0100
1000
,
0001
0000
0010
0000
0100
1000
0100
0010
,
0001
1000
0001
1000
0000
1000
0010
0000
,
0100
0000
0001
0000
1000
0000
0001
0010
,
0001
0000
0001
0010
0000
0010
0100
0000
,
1000
0000
0010
0000
1000
0000
0001
0100
,
0001
0100
0001
1000
0000
0000
1000
0010
,
1000
0001
1000
0100
,
0020
0000
0031
1000
,
0100
0100
0010
0001
,
1000
1000
0100
0100
,
0010
0000
0000
0010
0000
0000
0001
0000
0001
0000
0001
0000
,
0010
0000
0000
0010
0000
0000
0100
0000
0100
0000
0000
1000
,
0001
0000
0001
0000
0100
0001
0100
0010
,
1000
1010
0001
0011
,
0010
0000
0000
0000
0100
0000
0010
0000
0100
0000
0000
0100
0000
0000
1000
0000
,
0001
0011
1000
1100
,
0010
0000
0100
0010
0100
0010
1000
0001
,
0100
0101
0100
1100
,
1000
0000
0000
0000
0001
0000
1000
0000
0001
0000
0000
0010
0000
0000
0010
0000
,
0001
0011
1000
1010
,
0010
0110
2002
3003
,
0010
1010
0010
0011
,
0001
0000
0000
0000
1000
0000
0001
0000
1000
0000
0000
1000
0000
0000
0001
0000
,
0100
0110
0010
1010
,
1002
0000
0000
0010
0000
0000
0103
0000
,
0001
0100
0010
1000
0001
1000
0100
0000
,
0010
0000
0001
0000
1000
0000
0010
1000
,
0010
0000
1000
0100
0000
0100
0010
0000
,
0001
0000
1000
0000
0001
0000
0010
0100
,
0010
0001
1000
0010
0000
0010
1000
0001
,
0100
0000
0000
0000
0001
0000
0000
0000
0010
0000
0000
0001
0000
0000
1000
0000
,
0010
1100
0010
0101
,
1000
0000
1001
0000
1001
0000
0000
0001
,
0100
0000
0000
0000
0010
0000
0000
0000
1000
0000
0000
0001
0000
0000
1000
0000
,
0010
0000
0000
0000
1000
0000
0000
0000
0100
0000
0000
0010
0000
0000
0100
0000
,
1000
0000
0000
0000
0001
0000
0000
0000
0010
0000
0000
0100
0000
0000
0010
0000
,
0001
0000
0100
0000
0010
1000
0001
0100
,
0010
0000
1000
0000
0001
0010
0100
0010
,
0001
0000
1000
0000
0010
1000
0100
1000
,
0010
0100
0010
1000
,
0002
0000
0000
0000
,
0003
0000
0000
0000
;

//---------------dance-single - ----------------
#NOTEDATA:;
#CHARTNAME:;
#STEPSTYPE:dance-single;
#DESCRIPTION:;
#CHARTSTYLE:;
#DIFFICULTY:Hard;
#METER:14;
#RADARVALUES:0.653851,0.697707,0.176752,0.120936,0.255826,492.000000,473.000000,19.000000,13.000000,0.000000,0.000000,0.000000,0.000000,0.000000,0.653851,0.697707,0.176752,0.120936,0.255826,492.000000,473.000000,19.000000,13.000000,0.000000,0.000000,0.000000,0.000000,0.000000;
#CREDIT:Daniel Van Eden;
#NOTES:
0000
0000
0000
0000
,
0000
0000
0000
0000
,
0000
0000
0000
0000
,
0000
0000
0000
0000
,
0000
0000
0000
0000
,
0000
0000
0000
0000
,
0000
0000
0000
0000
,
0000
0000
0000
0000
,
0000
0000
0000
0000
,
0000
0000
1020
0000
,
1030
0001
0100
0001
0000
0010
0000
0001
,
0010
0100
0000
0100
0010
0100
0000
0100
,
1000
0000
0100
0000
0000
0000
0100
0000
0010
0000
0001
0000
0001
0010
0100
0000
,
0010
0001
1000
0001
0100
0010
1000
0000
,
0010
1000
0001
1000
0100
0010
0001
0100
,
0010
1000
0100
0001
0100
1000
0010
1000
,
0001
0000
0000
0000
0010
0000
0001
0000
1000
0000
0000
1100
0000
0000
0110
0000
,
0010
0000
0011
0000
0010
0001
0100
0000
,
0010
1000
0001
1000
0100
0010
0001
0010
,
0100
1000
0010
0100
0010
1000
0010
0100
,
0001
0010
0100
0010
0001
1000
0001
0100
,
0020
0000
1000
0000
1030
0000
1000
0002
,
0000
0000
0013
0000
0000
0001
1000
0000
,
0100
0000
0010
0020
0000
0000
0130
0000
,
0110
0000
1001
0000
0000
1000
0100
0010
,
0001
0020
0000
0000
0130
0000
1000
0010
,
0100
0000
0000
1010
0000
0000
1001
1000
,
0100
0000
1000
0000
0001
0000
1000
0000
0100
0000
0000
0100
0010
0000
0001
0000
,
0100
0000
0001
0000
1000
0000
0001
0000
0100
0000
0000
0100
0010
0000
1000
0000
,
0001
0000
0010
0000
0100
0000
0010
0000
0001
0000
0000
0001
0100
0000
0010
0000
,
1000
0000
0010
0000
0100
0000
0010
0000
1000
0000
0000
1000
0100
0000
0010
0000
,
0001
0000
1000
0000
0010
0000
1000
0000
0001
0000
0000
0001
0100
0000
0010
0000
,
1000
0000
0001
0000
0010
0000
0001
0000
1000
0000
0000
1000
0100
0000
0010
0000
,
0001
1000
0010
0100
0001
0010
0100
1000
,
1001
0000
1010
0000
1000
0001
0001
0100
,
0010
0000
0100
0000
0001
0000
1000
0000
0010
0000
1000
0010
0000
0000
0010
0000
,
0100
0000
0001
0000
1000
0000
0010
0000
0100
0000
0100
0001
0000
0000
0010
0000
,
0100
0000
1000
0000
0001
0000
0010
0000
0100
0000
1000
0100
0000
0000
1000
0000
,
0010
0000
0100
0000
0001
0000
1000
0000
0010
0000
0010
1000
0000
0000
0100
0000
,
0010
0000
0001
0000
1000
0000
0010
0000
0100
0000
0001
0100
0000
0000
0100
0000
,
0010
0000
1000
0000
0001
0000
0100
0000
0010
0000
1000
0001
0000
0000
1000
0000
,
0100
0000
0010
0000
0002
0000
0013
0100
,
2000
0000
0000
3010
0000
0010
0100
0000
0001
1000
0000
0000
,
1000
0000
0100
0010
0000
0100
1000
0000
0010
0100
0000
0100
,
0001
0000
0010
0001
0000
0100
0010
0000
0010
1000
0001
0000
,
0001
0000
0100
0010
0000
0100
0001
0000
0001
1000
0000
0100
,
0010
0000
0000
0000
0100
0000
1000
0000
0000
0000
0000
0000
0001
0000
0000
0010
0000
0000
0010
0000
0000
0100
0000
0000
,
1000
0100
0001
0100
1000
0010
0100
0010
,
1000
0000
0001
0000
0010
0000
0100
0000
0100
0000
1000
0010
0000
1000
0001
0000
,
1000
0100
0001
0100
1000
0010
0100
0010
,
1000
0000
1000
0001
1000
0100
0100
0010
,
0001
0010
1000
0010
0001
0100
0010
0100
,
0001
0000
1000
0000
0010
0000
1000
0000
1000
0000
0100
0001
0000
0100
0010
0000
,
0001
0100
1000
0100
0001
0100
0010
0100
,
0001
1000
0010
0100
0001
1000
0002
0000
,
0013
0100
1000
0001
0010
0001
0100
0010
,
1000
0000
0100
0000
0010
0000
0001
0000
0001
0000
0100
1000
0000
0100
0010
0000
,
1000
0010
0001
0010
0100
0001
0010
0100
,
0020
0000
0000
0130
1000
0110
1001
0000
,
1001
0000
0000
0000
0001
0000
0100
0000
0010
0000
1000
0100
0000
0100
1000
0000
,
0001
0000
0000
0000
1000
0000
0010
0000
0100
0000
0001
0010
0000
0010
0001
0000
,
1000
0000
0010
0000
0001
0000
0010
0000
0100
0000
0001
1000
0000
1000
0100
0000
,
0010
0000
0100
0000
0001
0000
0100
0000
0010
0000
0100
1000
0000
1000
0010
0000
,
0100
0000
0001
0000
0010
0000
0001
0000
1000
0000
0100
0010
0000
0001
0010
0000
,
0100
0000
1000
0000
0001
0000
0010
0000
0001
0000
0100
0010
0000
1000
0010
0000
,
1000
0001
0010
0001
1000
0100
0010
0100
,
1000
0010
0100
0001
0010
0100
0000
1001
,
1000
0000
0010
0000
0100
0000
0001
0000
1000
0000
0001
0010
0001
0000
1000
0000
,
0001
0000
0010
0000
0100
0000
1000
0000
0001
0000
1000
0010
0100
0000
0001
0000
,
1000
0000
0100
0000
0010
0000
0001
0000
1000
0000
0001
0010
0100
0000
1000
0000
,
0001
0000
0100
0000
0010
0000
1000
0000
0001
0000
1000
0010
1000
0000
0100
0000
,
0010
0000
0000
0000
0110
0000
0000
0000
0100
0000
0010
0001
0000
0010
0100
0000
,
1000
0000
0000
0000
1010
0000
0000
0000
0100
0000
0010
0100
0000
0001
0100
0000
,
0102
1003
2010
3001
,
2002
0000
0000
0000
,
3003
0000
0000
0000
;
