#VERSION:0.83;
#TITLE:Haunted Castle;
#SUBTITLE:;
#ARTIST:Billx;
#TITLETRANSLIT:;
#SUBTITLETRANSLIT:;
#ARTISTTRANSLIT:;
#GENRE:;
#ORIGIN:;
#CREDIT:;
#BANNER:hauntedcastle_bn.png;
#BACKGROUND:hauntedcastle_bg.png;
#PREVIEWVID:;
#JACKET:hauntedcastle_jacket.png;
#CDIMAGE:;
#DISCIMAGE:;
#LYRICSPATH:;
#CDTITLE:cdtitle.png;
#MUSIC:hauntedcastle.ogg;
#OFFSET:0.000000;
#SAMPLESTART:50.526314;
#SAMPLELENGTH:10.105263;
#SELECTABLE:YES;
#BPMS:0.000=190.000;
#STOPS:;
#DELAYS:;
#WARPS:;
#TIMESIGNATURES:0.000=4=4;
#TICKCOUNTS:0.000=4;
#COMBOS:0.000=1;
#SPEEDS:0.000=1.000=0.000=0;
#SCROLLS:0.000=1.000;
#FAKES:;
#LABELS:0.000=Song Start;
#BGCHANGES:;
#KEYSOUNDS:;
#ATTACKS:
;

//---------------dance-single - ----------------
#NOTEDATA:;
#CHARTNAME:;
#STEPSTYPE:dance-single;
#DESCRIPTION:;
#CHARTSTYLE:;
#DIFFICULTY:Hard;
#METER:16;
#RADARVALUES:0.661971,0.958717,0.058104,0.210627,0.551989,638.000000,630.000000,8.000000,29.000000,0.000000,0.000000,0.000000,0.000000,0.000000,0.661971,0.958717,0.058104,0.210627,0.551989,638.000000,630.000000,8.000000,29.000000,0.000000,0.000000,0.000000,0.000000,0.000000;
#CREDIT:;
#OFFSET:0.000000;
#BPMS:0.000000=190.000000
,32.000000=95.000000
,96.000000=190.000000
;
#STOPS:;
#DELAYS:;
#WARPS:;
#TIMESIGNATURES:0.000000=4=4
;
#TICKCOUNTS:0.000000=4
;
#COMBOS:0.000000=1
;
#SPEEDS:0.000000=1.000000=0.000000=0
,32.000000=2.000000=0.000000=0
,32.500000=0.500000=7.500000=0
,44.000000=1.000000=4.000000=0
;
#SCROLLS:0.000000=1.000000
,94.000000=0.500000
,96.000000=1.000000
;
#FAKES:;
#LABELS:0.000000=Song Start
;
#NOTES:
// measure 0
0000
0000
0000
0000
,  // measure 1
0000
0000
0000
0000
,  // measure 2
0000
0000
0000
0000
,  // measure 3
0000
0000
0000
0000
,  // measure 4
1000
0100
0001
0100
1000
0001
0010
1000
,  // measure 5
0010
0001
0100
0010
0001
1000
0100
0001
,  // measure 6
1000
0001
0010
1000
0001
0100
0010
0100
,  // measure 7
1000
0010
0001
0010
0100
1000
0100
0001
,  // measure 8
1000
0000
0000
0000
,  // measure 9
0000
0000
0000
0000
,  // measure 10
1000
0100
1000
0010
0100
0001
0100
0001
,  // measure 11
0002
0100
2003
0100
,  // measure 12
3001
0000
0000
0000
0000
0000
0101
0000
0000
0000
0000
0001
0100
0000
0000
0010
0000
0000
1000
0000
0000
0100
0000
0000
,  // measure 13
0010
0000
0000
0000
0000
0000
0110
0000
0000
0000
0000
0100
0010
0000
0000
0001
0000
1000
0010
0000
0010
1000
0000
0000
,  // measure 14
0100
0000
0000
0000
0000
0000
1100
0000
0000
0000
0000
0100
1000
0000
0000
0000
0000
0000
0001
0000
0000
0100
0000
0000
,  // measure 15
0010
0000
0000
0000
0000
0000
0110
0000
0000
0000
0000
0010
0100
0000
0010
0000
0010
0000
0100
0000
0001
0010
0100
1000
,  // measure 16
0001
0000
0000
0100
0000
0000
0100
0000
0000
0010
0000
0100
0001
0000
0000
0100
0001
1000
0010
0100
0001
0010
0000
0000
,  // measure 17
0100
0000
0000
1000
0000
0000
1000
0000
0000
0001
0000
1000
0001
0000
0000
1000
0100
0010
0001
1000
0100
0010
0000
0000
,  // measure 18
0100
0000
0000
0010
0000
0000
0001
0000
0010
0001
0000
0001
1000
0000
0000
0000
0010
0100
0001
0000
0000
1000
0000
0000
,  // measure 19
0100
0000
0000
1000
0000
0000
0001
0000
0100
0001
0000
0001
1000
0100
0010
0001
1000
0010
0100
0001
0100
0001
0100
0001
,  // measure 20
0100
0000
0000
0010
0000
0000
0010
0000
0000
0100
0000
0010
0100
0000
0000
0001
0000
0000
0100
0001
0100
1000
0000
0000
,  // measure 21
0200
0000
0000
0000
0000
0000
0310
0000
0010
1000
0000
1000
0001
0000
0000
0010
0000
0001
0010
1000
0010
0100
0000
0000
,  // measure 22
0000
0000
0000
0010
0000
0000
0100
0000
1000
0001
0000
0100
0010
0000
0000
0000
0010
0100
0001
0000
0000
1000
0000
0000
,  // measure 23
1001
0000
0000
0100
0000
0000
1000
0000
0001
0100
0000
0001
1000
0000
0000
0000
0000
0000
0000
0000
0000
0000
0000
0000
,  // measure 24
1001
0000
0000
0000
0001
0000
0100
0001
0100
0000
0010
0000
0100
0000
0010
0000
,  // measure 25
1000
0000
0100
0000
0010
0000
0100
0000
1000
0000
0000
0000
1000
0100
0010
0100
,  // measure 26
1000
0000
0000
0000
0001
0000
1000
0100
1000
0000
0010
0000
0100
0000
0010
0000
,  // measure 27
1000
0000
0001
0000
0100
0000
0010
0000
0100
0000
0001
1000
0001
0010
0001
1000
,  // measure 28
0001
0000
0000
0000
1000
0000
0100
1000
0100
0000
1000
0000
0010
0000
0100
0000
,  // measure 29
0001
0000
0010
0000
0100
0000
0010
0000
0001
0000
0000
0000
0001
0100
0010
0100
,  // measure 30
0002
0100
2003
0100
,  // measure 31
3020
0001
0230
1000
,  // measure 32
0301
0000
0000
0000
0001
0000
1000
0010
1000
0000
0100
0000
0010
0000
0100
0000
,  // measure 33
0010
0000
0001
0000
0100
0000
0010
0000
0100
0000
0000
0000
0001
0010
0100
0010
,  // measure 34
0001
0000
0000
0000
1000
0000
0001
0100
0001
0000
1000
0000
0100
0000
0010
0000
,  // measure 35
0001
0010
0001
0000
1000
0000
0010
0000
0100
0000
0010
1000
0010
0100
0010
0100
,  // measure 36
0001
0000
0000
0000
0001
0000
1000
0001
1000
0000
0100
0000
1000
0000
0001
0000
,  // measure 37
0010
0000
0100
0000
1000
0000
0100
0000
0010
0000
0000
0000
0010
0001
1000
0001
,  // measure 38
0010
0000
0000
0000
0010
0000
0001
1000
0001
0000
0100
0000
0010
0000
0100
0000
,  // measure 39
0001
0000
0100
0000
0010
0000
1000
0000
0001
0000
0000
0000
0001
0010
0001
0100
,  // measure 40
0001
0000
0000
0000
0100
0000
0010
0100
0001
0000
0100
0000
0010
0000
1000
0000
,  // measure 41
0100
0000
0001
0000
0100
0000
0010
0000
0100
0000
0000
0000
1000
0100
0010
0001
,  // measure 42
0100
0000
0000
0000
0010
0000
0100
0001
1000
0000
0100
0000
0010
0000
0001
0000
,  // measure 43
0010
0100
1000
0000
0010
0000
0001
0000
0010
0000
0100
0001
0100
0010
1000
0100
,  // measure 44
1000
0000
0000
0000
0001
0000
0100
0001
0010
0000
0100
0000
0010
0000
0001
0000
,  // measure 45
0100
0000
1000
0000
0100
0000
0010
0000
1000
0000
0000
0000
0001
0100
0010
1000
,  // measure 46
0200
0001
2300
0001
,  // measure 47
3020
0001
0230
1000
,  // measure 48
0301
0000
0000
0000
0100
0000
1000
0100
1000
0000
0100
0000
0001
0000
1000
0000
,  // measure 49
0100
0000
0000
0000
0100
0000
0001
0100
0001
0000
0100
0000
1000
0000
0001
0000
,  // measure 50
0100
0000
0000
0000
0010
0000
0001
0010
0001
0000
0010
0000
1000
0000
0001
0000
,  // measure 51
0010
0000
1000
0000
0001
0000
0100
0000
1000
0000
0000
0000
1000
0100
0010
0001
,  // measure 52
0010
0000
0000
0000
0010
0000
1000
0010
1000
0000
0010
0000
0001
0000
1000
0000
,  // measure 53
0000
0000
0000
0000
0010
0000
0001
0010
0001
0000
0010
0000
1000
0000
0001
0000
,  // measure 54
0010
0000
0000
0000
0100
0000
0010
1000
0010
0000
0001
0000
1000
0000
0100
0000
,  // measure 55
1000
0000
0010
0000
0001
0000
1000
0000
0100
0000
0001
0100
0010
1000
0001
1000
,  // measure 56
0100
0000
0000
0000
,  // measure 57
0000
0000
0000
0000
,  // measure 58
0000
0000
0000
0000
,  // measure 59
0000
0000
0000
0000
,  // measure 60
1000
0000
0000
1000
0000
0000
0001
0000
0000
0001
0000
0100
,  // measure 61
0001
0000
0001
0100
0010
0100
1000
0000
0000
0100
0000
0000
,  // measure 62
0001
0000
0000
0001
0000
0000
1000
0000
0000
1000
0000
1000
,  // measure 63
0100
0000
0010
0000
0100
0000
0010
0000
0001
0000
0010
0001
0010
0000
0001
0000
1000
0000
0010
1000
0010
0000
0100
0000
,  // measure 64
0001
0000
0001
0010
0000
0000
0010
0000
0000
0001
0000
1000
,  // measure 65
0000
0000
0010
0000
0000
0000
0100
0000
0010
1000
0010
0100
,  // measure 66
1000
0000
0000
0100
0000
0000
0010
0000
0000
1000
0000
0001
,  // measure 67
0010
0100
0010
1000
0010
0001
1000
0100
0010
0001
1000
0010
,  // measure 68
0100
0000
0000
0101
0000
0000
1000
0000
0000
1000
0100
0010
,  // measure 69
0001
0000
0000
0001
0100
0010
1000
0000
0000
0010
0000
0000
,  // measure 70
0100
0000
0100
0010
0000
0010
1000
0000
0001
0100
0010
1000
,  // measure 71
0100
0001
1000
0010
0001
0100
1000
0001
0010
1000
0001
0010
,  // measure 72
0200
0000
1300
0200
0000
0310
0001
0001
,  // measure 73
1000
1000
0010
0010
0200
0000
0000
0300
,  // measure 74
0010
0100
0010
0000
0010
0000
2000
0000
0000
0000
3001
0000
1000
0000
0001
0010
,  // measure 75
0100
0000
0010
0000
0100
0000
0000
0000
0010
0100
1000
0000
0001
0000
0000
0000
,  // measure 76
0020
0000
0031
0020
0000
0130
1000
1000
,  // measure 77
0001
0001
0100
0100
0020
0000
0000
0030
,  // measure 78
0200
1000
0302
1000
,  // measure 79
0023
1000
0032
2003
,  // measure 80
3020
0000
0031
0020
0000
0130
1000
1000
,  // measure 81
0100
0100
0010
0010
0200
0000
0000
0300
,  // measure 82
0001
0100
1000
0000
0001
0000
0010
0000
0000
0000
0100
0000
0001
0000
0001
0100
,  // measure 83
0010
0000
0010
0000
1000
0000
0000
0000
1000
0100
0001
0000
0100
0000
0000
0000
,  // measure 84
0200
0000
0301
0200
0000
0310
1000
1000
,  // measure 85
0001
0001
0100
0100
0020
0000
0000
0030
,  // measure 86
0001
0010
1000
0000
0010
0000
0100
0000
0000
0000
0100
0000
0010
0000
0001
0100
,  // measure 87
0010
0000
0001
0000
1000
0000
0000
0000
0100
0010
0001
1000
0100
0000
0000
0000
,  // measure 88
0110
0000
0000
0000
;

//---------------dance-single - ----------------
#NOTEDATA:;
#CHARTNAME:;
#STEPSTYPE:dance-single;
#DESCRIPTION:;
#CHARTSTYLE:;
#DIFFICULTY:Medium;
#METER:14;
#RADARVALUES:0.556139,0.717585,0.116208,0.101682,0.261468,536.000000,520.000000,16.000000,14.000000,0.000000,0.000000,0.000000,0.000000,0.000000,0.556139,0.717585,0.116208,0.101682,0.261468,536.000000,520.000000,16.000000,14.000000,0.000000,0.000000,0.000000,0.000000,0.000000;
#CREDIT:DigitalBasic;
#OFFSET:0.000000;
#BPMS:0.000000=190.000000
;
#STOPS:;
#DELAYS:;
#WARPS:;
#TIMESIGNATURES:0.000000=4=4
;
#TICKCOUNTS:0.000000=4
;
#COMBOS:0.000000=1
;
#SPEEDS:0.000000=1.000000=0.000000=0
,32.000000=0.250000=16.000000=0
,56.000000=1.000000=8.000000=0
,152.000000=1.000000=1.000000=0
,159.000000=1.000000=0.500000=0
;
#SCROLLS:0.000000=1.000000
,156.000000=-0.500000
,159.000000=2.000000
,160.000000=1.000000
,184.000000=-0.500000
,185.000000=1.000000
,186.000000=-0.500000
,187.000000=1.000000
,188.000000=-0.500000
,189.000000=1.000000
,190.000000=-0.500000
,191.000000=1.000000
,248.000000=-0.500000
,249.000000=1.000000
,250.000000=-0.500000
,251.000000=1.000000
,252.000000=-0.500000
,253.000000=1.000000
,254.000000=-0.500000
,255.000000=1.000000
,288.000000=-0.100000
,289.000000=0.100000
,290.000000=-0.150000
,291.000000=0.150000
,292.000000=-0.200000
,293.000000=0.200000
,294.000000=-0.300000
,295.000000=0.300000
,296.000000=-0.450000
,297.000000=0.450000
,298.000000=-0.600000
,299.000000=0.600000
,300.000000=-0.800000
,301.000000=0.800000
,302.000000=-0.900000
,303.000000=1.250000
,304.000000=1.000000
,376.000000=-0.500000
,377.000000=1.000000
,378.000000=-0.500000
,379.000000=1.000000
,380.000000=-0.500000
,381.000000=1.000000
,382.000000=-0.500000
,383.000000=1.000000
;
#FAKES:;
#LABELS:0.000000=Song Start
;
#NOTES:
0000
0000
0000
0000
,
0000
0000
0000
0000
,
0000
0000
0000
0000
,
0000
0000
0000
0000
,
1000
0100
1000
0100
0010
0001
0010
0001
,
0100
0001
0100
0001
1000
0010
1000
0010
,
1000
0100
0010
0001
0010
0100
1000
0010
,
0100
0001
0100
0010
1000
0100
0010
0001
,
1000
0000
0000
0000
,
0000
0000
0000
0000
,
0000
0000
0000
0000
,
0000
0000
0000
0000
,
1000
0100
0001
0100
,
1000
0010
0001
0010
,
0200
0000
0000
0000
,
0020
0000
0000
0330
,
1000
0000
0000
0000
0000
0000
1100
0000
0000
0000
0000
1000
,
0100
1000
0010
0100
,
0001
0000
0000
0000
0000
0000
0101
0000
0000
0000
0000
0001
,
0010
0000
0000
0001
0000
1000
0001
0000
1000
0001
0000
0000
,
0100
0000
0000
0000
0000
0000
0110
0000
0000
0000
0000
0100
,
0010
0000
0010
1000
,
0001
0000
0000
0000
0000
0000
0011
0000
0000
0000
0000
0001
,
0010
0000
0100
0000
0010
0000
0100
0000
0000
0000
0000
0000
,
1000
0000
0000
0010
0000
0000
0010
0000
0000
1000
0000
1000
,
0010
0000
0000
0100
0000
0100
0001
0000
0001
1000
0000
0000
,
0100
0000
0000
1000
0000
0000
1000
0000
0000
0001
0000
0001
,
1000
0000
0000
0010
0000
0010
1000
0000
1000
0001
0000
0000
,
0010
0000
0000
0001
0000
0000
0100
0000
0010
0100
0000
0010
,
1000
0000
0000
0000
0000
1000
0100
0000
0000
0010
0000
0000
,
0001
0000
0000
0100
0000
0000
0010
0000
0100
0010
0000
0100
,
0010
0000
1000
0000
0001
0000
1000
0000
0000
0000
0000
0000
,
0100
0000
0000
0010
0000
0000
0010
0000
0000
0001
0000
0001
,
0010
0000
0000
0100
0000
0000
0010
0000
0010
0001
0000
0000
,
1000
0000
0000
0010
0000
0000
0100
0000
0010
1000
0000
0010
,
0100
0000
0000
0001
0000
1000
0100
0000
0100
0010
0000
0000
,
0000
0000
0000
0001
0000
0000
0100
0000
0001
0010
0000
0100
,
0010
0000
0000
0000
0000
0010
0001
0000
0000
1000
0000
0000
,
1001
0000
0000
0000
,
0000
0000
0000
0000
,
1001
0000
0000
0000
1000
0000
0010
1000
0010
0000
0100
0000
0010
0000
1000
0000
,
0100
0010
0100
1000
0010
0000
0100
0001
,
0010
0000
0000
0000
0001
0000
0010
0001
0010
0000
0100
0000
0010
0000
0001
0000
,
0100
0010
1000
0010
0100
0010
0010
0100
,
0001
0000
0000
0000
1000
0000
0010
1000
0010
0000
0100
0000
0010
0000
0100
0000
,
0001
0010
0100
0010
0001
0000
0001
0100
,
0020
0000
0230
0000
,
0302
0000
2003
0000
,
3001
0000
0000
0000
1000
0000
0100
0010
0100
0000
0010
0000
0001
0000
0010
0000
,
0001
1000
0010
0100
0010
0000
0010
1000
,
0001
0000
0000
0000
0010
0000
0001
1000
0001
0000
0100
0000
0010
0000
0100
0000
,
0001
0001
1000
0100
0010
0001
0001
1000
,
0010
0000
0000
0000
0100
0000
0001
1000
0001
0000
0010
0000
0100
0000
0010
0000
,
0001
1000
0010
0100
0010
0000
0100
0010
,
1000
0000
0000
0000
0010
0000
1000
0010
1000
0000
0100
0000
0010
0000
0100
0000
,
1000
0001
0010
0001
1000
0000
0010
1000
,
0100
0000
0000
0000
0010
0000
0100
1000
0001
0000
1000
0000
0001
0000
0100
0000
,
0010
0010
1000
0001
0100
0000
0100
0010
,
0001
0000
0000
0000
0010
0000
0100
0010
1000
0000
0001
0000
1000
0000
0001
0000
,
0010
0010
0100
1000
0001
0100
1000
0100
,
0001
0000
0000
0000
1000
0000
0001
0100
0010
0000
0100
0000
0010
0000
1000
0000
,
0001
0001
0010
0100
1000
0000
0100
0001
,
0200
0000
0320
0000
,
0032
0000
2003
0000
,
3010
0000
0000
0000
0100
0000
0010
0100
0010
0000
0100
0000
0010
0000
0100
0000
,
0000
0000
0000
0000
0001
0000
1000
0001
1000
0000
0001
0000
1000
0000
0001
0000
,
0010
0000
0000
0000
0100
0000
0010
0100
0010
0000
0100
0000
0010
0000
0100
0000
,
1000
0100
0010
0001
1000
0000
1000
0001
,
0100
0000
0000
0000
0001
0000
0100
0001
0100
0000
0001
0000
0100
0000
0001
0000
,
0000
0000
0000
0000
1000
0000
0100
1000
0100
0000
1000
0000
0100
0000
1000
0000
,
0001
0000
0000
0000
0010
0000
0001
0010
0001
0000
0010
0000
0001
0000
0010
0000
,
0001
0000
0100
0000
0010
0000
1000
0000
0010
0000
0100
0001
0100
0000
0010
1000
,
0100
0000
0000
0000
,
0000
0000
0000
0000
,
0000
0000
0000
0000
,
0000
0000
0000
0000
,
1000
1000
0001
0001
,
0100
0100
0010
0010
,
1000
1000
0100
0100
,
0010
0000
0001
0010
0000
0000
0001
0000
0000
0000
0001
0000
,
1000
0000
1000
0010
0000
0000
0010
0000
0000
0100
0000
0010
,
0000
0000
1000
0000
0000
0000
0100
0000
0010
0100
0000
0100
,
0010
0000
0000
0001
0000
0000
0100
0000
0000
1000
0000
0100
,
0010
0000
0010
1000
0000
1000
0001
0000
0001
0010
0000
0010
,
0100
0000
0000
0010
0000
0000
0100
0000
0000
1000
0000
0001
,
0000
0000
0010
0000
0000
0000
0001
0000
0001
1000
0000
0010
,
0000
0000
0000
0100
0000
0001
0100
0000
0010
1000
0000
0000
,
1100
0110
0011
1001
,
1000
0000
0001
1000
0000
0001
1000
0010
,
1000
0010
1000
0010
0100
0000
0000
0000
,
0001
1000
0001
0000
1000
0000
0001
0000
0000
0000
0010
0000
0001
0000
0010
0001
,
0010
0000
0001
0000
0010
0000
0000
0000
0100
1000
0100
0000
1000
0000
0000
0000
,
0010
0000
0100
0010
0000
0100
0001
0010
,
0001
0010
0001
0010
0100
0000
0000
0000
,
2000
0000
3200
0000
,
0320
0000
0032
0000
,
0103
0000
0010
0100
0000
0001
0010
0100
,
0010
0100
0010
0100
1000
0000
0000
0000
,
0001
0100
0001
0000
0100
0000
0010
0000
0000
0000
0010
0000
1000
0000
0100
1000
,
0100
0000
0010
0000
0001
0000
0000
0000
0001
0010
0001
0000
0100
0000
0000
0000
,
0010
0000
0100
0001
0000
1000
0010
0100
,
0010
0100
0010
0100
0001
0000
0000
0000
,
0011
1000
1100
0001
,
0101
0010
1010
1001
,
0101
0000
0000
0000
;

//---------------dance-single - ----------------
#NOTEDATA:;
#CHARTNAME:;
#STEPSTYPE:dance-single;
#DESCRIPTION:;
#CHARTSTYLE:;
#DIFFICULTY:Easy;
#METER:11;
#RADARVALUES:0.404653,0.528747,0.188838,0.130734,0.032684,390.000000,364.000000,26.000000,18.000000,0.000000,0.000000,0.000000,0.000000,0.000000,0.404653,0.528747,0.188838,0.130734,0.032684,390.000000,364.000000,26.000000,18.000000,0.000000,0.000000,0.000000,0.000000,0.000000;
#CREDIT:DigitalBasic;
#OFFSET:0.000000;
#BPMS:0.000000=190.000000
;
#STOPS:;
#DELAYS:;
#WARPS:;
#TIMESIGNATURES:0.000000=4=4
;
#TICKCOUNTS:0.000000=4
;
#COMBOS:0.000000=1
;
#SPEEDS:0.000000=1.000000=0.000000=0
;
#SCROLLS:0.000000=1.000000
,32.000000=0.500000
,56.000000=0.750000
,60.000000=1.000000
,152.000000=0.100000
,156.000000=0.000000
,158.000000=1.000000
;
#FAKES:;
#LABELS:0.000000=Song Start
;
#NOTES:
0000
0000
0000
0000
,
0000
0000
0000
0000
,
0000
0000
0000
0000
,
0000
0000
0000
0000
,
1000
0100
1000
0010
,
0100
0001
0010
0001
,
0100
0010
0100
0001
,
1000
0100
0010
0100
,
1000
0000
0000
0000
,
0000
0000
0000
0000
,
0000
0000
0000
0000
,
0000
0000
0000
0000
,
1000
0000
1100
0000
,
0001
0000
0101
0000
,
0020
0000
0030
0000
,
0200
0000
0300
0000
,
0100
0000
0110
0000
,
1000
0001
0100
0010
,
0100
0000
0110
0000
,
0010
1000
0001
1000
,
0100
0000
1100
0000
,
0010
0000
0001
0010
,
0100
0000
0000
0000
0000
0000
0011
0000
0000
0000
0000
0001
,
0100
0000
0001
0000
0100
0000
0001
0000
0000
0000
0000
0000
,
0001
0000
0101
0000
,
0001
0010
0100
0001
,
0100
0000
0110
0000
,
0010
0001
1000
0010
,
0100
0000
0101
0000
,
0010
1000
0100
0001
,
0100
0000
1100
0000
,
1000
0000
0001
0000
1000
0000
0001
0000
0000
0000
0000
0000
,
0012
0000
0010
0000
,
0010
0000
0010
0000
,
2003
0000
0010
0000
,
0010
0000
0010
0000
,
3020
0000
1000
0000
,
1000
0000
1000
0000
,
0230
0000
0000
0000
,
0300
0000
0000
0000
,
0110
0000
0010
0100
0001
0000
0001
0000
,
0010
0100
0010
0000
0001
0000
0001
1000
,
0100
0000
1000
0010
1000
0000
0010
0000
,
0100
0001
0100
0000
0010
1000
0010
1000
,
0100
0000
0010
0100
0010
0000
0001
0000
,
1000
0010
0100
0000
0001
0000
0100
0001
,
0020
0000
0230
0000
,
2300
0000
3002
0000
,
1003
0000
1000
0100
0010
0000
0100
0000
,
1000
0001
0100
0000
0001
0000
0100
0001
,
1000
0000
0010
1000
0100
0000
1000
0000
,
0001
0100
0010
0000
0100
0010
0100
0010
,
1000
0000
0010
0100
0001
0000
0100
0000
,
0001
1000
0010
0000
1000
0000
0100
0010
,
0001
0100
0101
1000
,
1010
0001
0011
1000
,
1100
0000
0100
1000
0010
0000
0010
0000
,
0100
0001
0010
0000
0100
0000
0010
0001
,
1000
0000
0010
0100
0010
0000
0001
0000
,
0010
1000
0001
0000
1000
0001
1000
0001
,
0010
0000
0100
0010
0001
0000
0010
0000
,
0100
0010
0001
0000
0100
0000
1000
0100
,
0002
0000
0203
0000
,
0320
0000
2030
0000
,
3100
0000
1000
0100
0010
0100
1000
0000
,
1000
0000
0001
0100
0010
0100
0001
0000
,
0100
0000
0010
1000
0100
1000
0010
0000
,
0010
0100
0001
0000
0100
0000
0010
1000
,
0001
0000
0010
0100
0010
0001
0010
0000
,
0100
0000
1000
0010
0100
0010
1000
0000
,
0001
0000
0010
0001
0100
0001
0010
0000
,
0010
0100
1000
0000
0010
1000
0010
0001
,
0100
0000
0000
0000
,
0000
0000
0000
0000
,
0000
0000
0000
0000
,
0000
0000
0000
0000
,
1000
0000
1000
0000
,
0001
0000
0001
0000
,
0100
0000
0100
0000
,
0010
0000
0100
0000
0000
0000
0100
0000
0000
0000
0100
0000
,
0001
0000
0000
0010
0000
0000
0010
0000
0000
0100
0000
0010
,
0000
0000
0100
0000
0000
0000
1000
0000
0000
0001
0000
0000
,
0100
0010
0100
1000
,
0100
0001
0010
1000
,
0010
0011
0001
0101
,
1000
1100
0001
0101
,
1000
0001
0100
0010
,
1000
0100
0001
0010
,
1000
0000
0100
1000
0000
0100
1000
0000
,
0001
0000
0100
0001
0100
0000
0000
0000
,
0001
0100
0001
0100
0000
0010
0100
0000
,
0001
1000
0001
0000
1000
0100
1000
0000
,
0001
0000
0100
0001
0000
0100
0001
0000
,
1000
0000
0100
1000
0100
0000
0000
0000
,
0020
0000
0032
0000
,
0203
0000
0320
0000
,
1030
0000
0001
0100
0000
0010
1000
0000
,
0100
0000
0010
0100
1000
0000
0000
0000
,
1000
0100
0001
0100
0000
0010
0001
0000
,
0100
0001
0100
0000
0010
1000
0010
0000
,
0100
0000
0001
0010
0000
0100
1000
0000
,
0001
0000
0100
0010
0001
0000
0000
0000
,
0110
0000
0101
0000
,
1010
0000
1001
1100
,
0101
0000
0000
0000
;
