#VERSION:0.83;
#TITLE:Hallucinate;
#SUBTITLE:;
#ARTIST:Dua Lipa;
#TITLETRANSLIT:;
#SUBTITLETRANSLIT:;
#ARTISTTRANSLIT:;
#GENRE:;
#ORIGIN:;
#CREDIT:;
#BANNER:Hallucinate.png;
#BACKGROUND:Hallucinate-bg.png;
#PREVIEWVID:;
#JACKET:Hallucinate-jacket.png;
#CDIMAGE:;
#DISCIMAGE:;
#LYRICSPATH:;
#CDTITLE:;
#MUSIC:Hallucinate.ogg;
#OFFSET:-0.000000;
#SAMPLESTART:55.053265;
#SAMPLELENGTH:15.736416;
#SELECTABLE:YES;
#DISPLAYBPM:122.000000;
#BPMS:0.000=122.010,
111.000=244.020,
112.000=122.010,
207.000=244.020,
208.000=122.010;
#STOPS:111.000=0.246,
207.000=0.246;
#DELAYS:;
#WARPS:;
#TIMESIGNATURES:0.000=4=4;
#TICKCOUNTS:0.000=4;
#COMBOS:0.000=1;
#SPEEDS:0.000=1.000=0.000=0;
#SCROLLS:0.000=1.000,
79.500=0.950,
82.000=0.900,
84.000=0.850,
86.000=0.800,
88.000=0.750,
90.000=0.700,
92.000=0.650,
94.000=0.600,
96.000=0.550,
100.000=0.500,
104.000=0.550,
105.000=0.600,
106.000=0.650,
107.000=0.700,
108.000=0.750,
108.500=0.800,
109.000=0.850,
109.500=0.900,
110.000=0.950,
110.500=1.000,
176.000=0.950,
178.000=0.900,
180.000=0.850,
182.000=0.800,
184.000=0.750,
186.000=0.700,
188.000=0.650,
190.000=0.600,
192.000=0.550,
193.000=0.600,
194.000=0.650,
195.000=0.700,
196.000=0.750,
197.000=0.800,
198.000=0.850,
199.000=0.900,
200.000=1.000,
200.500=1.125,
201.000=1.250,
201.500=1.375,
202.000=1.500,
202.500=1.625,
203.000=1.750,
203.500=1.875,
204.000=2.000,
206.000=1.500,
207.000=1.000;
#FAKES:;
#LABELS:0.000=Song Start;
#LASTSECONDHINT:133.336487;
#BGCHANGES:0.000=Hallucinate.avi=1.000=0=0=1=====,
271.500=Hallucinate-bg.png=1.000=1=0=1===CrossFade==,
99999=-nosongbg-=1.000=0=0=0 // don't automatically add -songbackground-
;
#KEYSOUNDS:;
#ATTACKS: TIME=39.11:LEN=5.00:MODS=10% Hidden: TIME=41.32:LEN=5.00:MODS=20% Hidden: TIME=43.29:LEN=5.00:MODS=30% Hidden: TIME=45.26:LEN=5.00:MODS=40% hidden,10% Stealth: TIME=40.34:LEN=5.00:MODS=25% Hidden: TIME=42.31:LEN=5.00:MODS=50% Hidden: TIME=44.27:LEN=5.00:MODS=75% hidden: TIME=46.24:LEN=5.00:MODS=20% hidden,20% Stealth: TIME=47.22:LEN=5.00:MODS=20% Sudden,10% Hidden: TIME=48.21:LEN=5.00:MODS=30% Sudden: TIME=49.19:LEN=5.00:MODS=40% Sudden;

//---------------dance-single - Classic 8 | Modern 12----------------
#NOTEDATA:;
#CHARTNAME:;
#STEPSTYPE:dance-single;
#DESCRIPTION:Classic 8 | Modern 12;
#CHARTSTYLE:;
#DIFFICULTY:Hard;
#METER:12;
#RADARVALUES:0.496759,0.500048,0.331523,0.456766,0.114191,472.000000,427.000000,45.000000,62.000000,20.000000,0.000000,0.000000,0.000000,0.000000,0.496759,0.500048,0.331523,0.456766,0.114191,472.000000,427.000000,45.000000,62.000000,20.000000,0.000000,0.000000,0.000000,0.000000;
#CREDIT:DDRDAIKENKAI;
#ATTACKS:TIME=39.110001:LEN=5.000000:MODS=10% Hidden:TIME=41.320000:LEN=5.000000:MODS=20% Hidden:TIME=43.290001:LEN=5.000000:MODS=30% Hidden:TIME=45.259998:LEN=5.000000:MODS=40% hidden,10% Stealth:TIME=40.340000:LEN=5.000000:MODS=25% Hidden:TIME=42.310001:LEN=5.000000:MODS=50% Hidden:TIME=44.270000:LEN=5.000000:MODS=75% hidden:TIME=46.240002:LEN=5.000000:MODS=20% hidden,20% Stealth:TIME=47.220001:LEN=5.000000:MODS=20% Sudden,10% Hidden:TIME=48.209999:LEN=5.000000:MODS=30% Sudden:TIME=49.189999:LEN=5.000000:MODS=40% Sudden:TIME=39.110001:LEN=5.000000:MODS=10% Hidden:TIME=41.320000:LEN=5.000000:MODS=20% Hidden:TIME=43.290001:LEN=5.000000:MODS=30% Hidden:TIME=45.259998:LEN=5.000000:MODS=40% hidden,10% Stealth:TIME=40.340000:LEN=5.000000:MODS=25% Hidden:TIME=42.310001:LEN=5.000000:MODS=50% Hidden:TIME=44.270000:LEN=5.000000:MODS=75% hidden:TIME=46.240002:LEN=5.000000:MODS=20% hidden,20% Stealth:TIME=47.220001:LEN=5.000000:MODS=20% Sudden,10% Hidden:TIME=48.209999:LEN=5.000000:MODS=30% Sudden:TIME=49.189999:LEN=5.000000:MODS=40% Sudden:TIME=39.110001:LEN=5.000000:MODS=10% Hidden:TIME=41.320000:LEN=5.000000:MODS=20% Hidden:TIME=43.290001:LEN=5.000000:MODS=30% Hidden:TIME=45.259998:LEN=5.000000:MODS=40% hidden,10% Stealth:TIME=40.340000:LEN=5.000000:MODS=25% Hidden:TIME=42.310001:LEN=5.000000:MODS=50% Hidden:TIME=44.270000:LEN=5.000000:MODS=75% hidden:TIME=46.240002:LEN=5.000000:MODS=20% hidden,20% Stealth:TIME=47.220001:LEN=5.000000:MODS=20% Sudden,10% Hidden:TIME=48.209999:LEN=5.000000:MODS=30% Sudden:TIME=49.189999:LEN=5.000000:MODS=40% Sudden:TIME=39.110001:LEN=5.000000:MODS=10% Hidden:TIME=41.320000:LEN=5.000000:MODS=20% Hidden:TIME=43.290001:LEN=5.000000:MODS=30% Hidden:TIME=45.259998:LEN=5.000000:MODS=40% hidden,10% Stealth:TIME=40.340000:LEN=5.000000:MODS=25% Hidden:TIME=42.310001:LEN=5.000000:MODS=50% Hidden:TIME=44.270000:LEN=5.000000:MODS=75% hidden:TIME=46.240002:LEN=5.000000:MODS=20% hidden,20% Stealth:TIME=47.220001:LEN=5.000000:MODS=20% Sudden,10% Hidden:TIME=48.209999:LEN=5.000000:MODS=30% Sudden:TIME=49.189999:LEN=5.000000:MODS=40% Sudden;
#DISPLAYBPM:122.000000;
#NOTES:
// measure 0
0000
0000
0000
0000
,  // measure 1
0000
0000
0000
0000
,  // measure 2
0000
0000
0000
0000
,  // measure 3
0000
0000
0000
0000
,  // measure 4
1000
0010
1000
0010
0100
0001
1000
0001
,  // measure 5
0010
0100
1000
0001
0000
1000
1000
1000
,  // measure 6
1010
0000
1100
0000
1001
1000
0001
0100
,  // measure 7
0001
0010
0100
0010
0000
0100
0100
0100
,  // measure 8
1000
0010
1000
0001
0200
0000
0301
0010
,  // measure 9
0001
0000
1000
0000
0010
0000
1000
0000
0200
0000
0000
0000
1000
0300
2000
0000
,  // measure 10
3010
0000
0100
0000
0010
0100
0000
0000
0201
0000
0000
0000
0301
0000
0001
0000
,  // measure 11
1000
0000
0100
0000
1000
0100
0000
0000
2100
0000
0000
0000
3002
0000
0000
0000
,  // measure 12
1003
0010
1000
0001
0100
0010
0100
0001
,  // measure 13
0010
0100
0010
0001
0000
1000
1000
1000
,  // measure 14
0010
1000
0100
0010
0001
1000
0010
0100
,  // measure 15
0001
0010
0100
1000
0000
0010
0010
0010
,  // measure 16
1000
0100
0010
0100
0002
0000
0103
1000
,  // measure 17
0001
0100
0010
0100
2000
0000
3100
0100
,  // measure 18
0001
0000
1000
0000
0010
0100
0000
0000
0101
0000
0000
0000
1100
0000
1000
0000
,  // measure 19
0000
0001
0000
0100
0010
0100
0010
2000
,  // measure 20
0010
0001
0100
3200
,  // measure 21
0320
0000
0001
0000
0031
1000
0001
0200
,  // measure 22
0010
1000
0001
0320
,  // measure 23
2030
0000
0001
0000
3100
0100
1000
0200
,  // measure 24
0010
0000
0000
0000
0320
0000
0000
0000
0032
0000
0000
0000
2003
0000
0000
3001
,  // measure 25
0020
0000
0100
0000
0130
0010
0001
0001
,  // measure 26
2000
0001
0100
3002
,  // measure 27
0103
0010
0100
0010
0100
0010
1001
0000
,  // measure 28
1000
0000
0010
0000
0100
0000
0010
0000
0001
0000
0010
0000
0100
0010
1000
0010
,  // measure 29
0100
0001
1000
0100
1100
0000
0011
0000
,  // measure 30
2100
0000
3001
0100
0101
0000
1010
0000
,  // measure 31
1002
0000
1003
0010
1000
0001
0200
0000
,  // measure 32
0301
0000
0010
0000
0100
0000
0010
0000
1000
0000
0010
0000
0100
1000
0100
0010
,  // measure 33
0100
1000
0001
0100
0110
0000
1001
0000
,  // measure 34
0120
0000
1030
0001
0110
0000
1001
0000
,  // measure 35
0210
0000
1300
0001
0010
0100
2000
0000
,  // measure 36
3001
0010
MM1M
0010
0002
0000
1003
0001
,  // measure 37
0010
0M1M
1000
0001
0000
2000
0000
3001
,  // measure 38
1000
0100
M1MM
0100
2000
0000
3001
1000
,  // measure 39
0100
M1M0
0001
1000
0000
0002
0000
0000
,  // measure 40
1003
0000
0010
0000
0001
0000
0010
0000
1000
0000
0010
0000
0100
0001
0100
0010
,  // measure 41
1000
0010
1000
0100
1100
0000
0011
0000
,  // measure 42
1002
0000
1003
0010
1010
0000
0101
0000
,  // measure 43
1002
0000
1003
0001
0010
0100
2000
0000
,  // measure 44
3001
0000
0200
0000
0000
0320
0000
0000
1030
0000
0001
0100
0000
0001
1000
0000
,  // measure 45
0001
0000
0020
0000
0000
0230
0000
0000
1300
0000
0010
1000
0000
0100
1000
0000
,  // measure 46
0001
0000
2000
0000
0000
3200
0000
0000
0310
0000
0001
1000
0000
0001
0100
0000
,  // measure 47
0010
0000
0010
1000
0002
0000
0203
0000
,  // measure 48
0301
0000
0000
0000
0000
0000
0000
0000
0000
0000
0000
0000
0000
0000
0000
0000
0000
0000
0000
0000
0000
0000
0000
0000
0020
0000
0000
0000
0000
0000
0000
0000
0000
0000
0000
0000
0000
0000
0000
0000
0000
0000
0000
0000
0000
0000
0000
0000
0000
0000
0000
0000
0000
0000
0000
0000
0000
0000
0000
0000
2030
0000
0000
0000
0000
0000
0000
0000
0000
0000
0000
0000
0000
0000
0000
0000
0000
0000
0000
0000
0000
0000
0000
0000
0000
0000
0000
0000
0000
0000
0000
0000
0000
0000
0000
0000
3010
0000
0000
0000
0000
0000
0000
0000
0000
0000
0000
0000
0000
0000
0000
0000
0000
0000
0000
0000
0000
0000
0000
0000
0001
0000
0000
0000
0000
0000
0000
0000
0000
0000
0000
0000
0000
0000
0000
0000
1000
0000
0000
0000
0000
0000
0000
0000
0000
0000
0000
0000
0000
0000
0100
0000
0000
0000
0000
0000
0000
0000
0000
0000
0000
0000
0000
0000
0000
0000
0000
0000
1000
0000
0000
0000
0000
0000
0000
0000
0000
0000
0000
0000
0000
0000
0000
0000
0000
0000
0000
0000
0000
0000
0000
0000
,  // measure 49
0001
0000
2000
0000
0000
3020
0000
0000
0031
0000
0010
1000
0000
0001
0100
0000
,  // measure 50
1000
0100
0001
0010
1000
0100
0001
0010
,  // measure 51
0100
0100
0100
0100
0200
1300
2100
0000
,  // measure 52
3001
0000
0010
0000
1000
0000
0010
0000
0001
0000
0010
0000
0100
0010
0001
0010
,  // measure 53
0100
1000
0010
1000
1100
0000
0011
0000
,  // measure 54
1002
0000
0103
0010
1010
0000
0101
0000
,  // measure 55
2001
0000
3001
0010
0100
0010
0002
0000
,  // measure 56
1003
0000
0100
0000
0001
0000
0100
0000
1000
0000
0100
0000
0010
0001
0010
0100
,  // measure 57
1000
0010
1000
0001
0101
0000
1100
0000
,  // measure 58
1002
0000
1003
0010
1010
0000
0011
0000
,  // measure 59
1002
0000
1003
0010
1000
0001
0200
0000
,  // measure 60
0301
0010
MM1M
0010
0002
0000
1003
0001
,  // measure 61
0010
0M1M
1000
0001
0000
2000
0000
3001
,  // measure 62
1000
0100
M1MM
0100
2000
0000
3001
1000
,  // measure 63
0100
M1M0
0001
1000
0000
0002
0000
1003
,  // measure 64
0010
0000
0001
0000
0010
0000
1000
0000
0100
0000
0001
0000
0100
1000
0100
0010
,  // measure 65
0001
0010
1000
0010
0011
0000
1001
0000
,  // measure 66
1020
0000
0130
0001
0101
0000
1001
0000
,  // measure 67
1200
0000
0310
0001
1000
0200
0002
0303
;

//---------------dance-single - Classic 6 | Modern 9----------------
#NOTEDATA:;
#CHARTNAME:;
#STEPSTYPE:dance-single;
#DESCRIPTION:Classic 6 | Modern 9;
#CHARTSTYLE:;
#DIFFICULTY:Medium;
#METER:9;
#RADARVALUES:0.363097,0.400038,0.036836,0.744086,0.000000,345.000000,340.000000,5.000000,101.000000,0.000000,0.000000,0.000000,0.000000,0.000000,0.363097,0.400038,0.036836,0.744086,0.000000,345.000000,340.000000,5.000000,101.000000,0.000000,0.000000,0.000000,0.000000,0.000000;
#CREDIT:DDRDAIKENKAI;
#ATTACKS:TIME=39.110001:LEN=5.000000:MODS=10% Hidden:TIME=41.320000:LEN=5.000000:MODS=20% Hidden:TIME=43.290001:LEN=5.000000:MODS=30% Hidden:TIME=45.259998:LEN=5.000000:MODS=40% hidden,10% Stealth:TIME=40.340000:LEN=5.000000:MODS=25% Hidden:TIME=42.310001:LEN=5.000000:MODS=50% Hidden:TIME=44.270000:LEN=5.000000:MODS=75% hidden:TIME=46.240002:LEN=5.000000:MODS=20% hidden,20% Stealth:TIME=47.220001:LEN=5.000000:MODS=20% Sudden,10% Hidden:TIME=48.209999:LEN=5.000000:MODS=30% Sudden:TIME=49.189999:LEN=5.000000:MODS=40% Sudden:TIME=39.110001:LEN=5.000000:MODS=10% Hidden:TIME=41.320000:LEN=5.000000:MODS=20% Hidden:TIME=43.290001:LEN=5.000000:MODS=30% Hidden:TIME=45.259998:LEN=5.000000:MODS=40% hidden,10% Stealth:TIME=40.340000:LEN=5.000000:MODS=25% Hidden:TIME=42.310001:LEN=5.000000:MODS=50% Hidden:TIME=44.270000:LEN=5.000000:MODS=75% hidden:TIME=46.240002:LEN=5.000000:MODS=20% hidden,20% Stealth:TIME=47.220001:LEN=5.000000:MODS=20% Sudden,10% Hidden:TIME=48.209999:LEN=5.000000:MODS=30% Sudden:TIME=49.189999:LEN=5.000000:MODS=40% Sudden:TIME=39.110001:LEN=5.000000:MODS=10% Hidden:TIME=41.320000:LEN=5.000000:MODS=20% Hidden:TIME=43.290001:LEN=5.000000:MODS=30% Hidden:TIME=45.259998:LEN=5.000000:MODS=40% hidden,10% Stealth:TIME=40.340000:LEN=5.000000:MODS=25% Hidden:TIME=42.310001:LEN=5.000000:MODS=50% Hidden:TIME=44.270000:LEN=5.000000:MODS=75% hidden:TIME=46.240002:LEN=5.000000:MODS=20% hidden,20% Stealth:TIME=47.220001:LEN=5.000000:MODS=20% Sudden,10% Hidden:TIME=48.209999:LEN=5.000000:MODS=30% Sudden:TIME=49.189999:LEN=5.000000:MODS=40% Sudden;
#DISPLAYBPM:122.000000;
#NOTES:
// measure 0
0000
0000
0000
0000
,  // measure 1
0000
0000
0000
0000
,  // measure 2
0000
0000
0000
0000
,  // measure 3
0000
0000
0000
0000
,  // measure 4
1000
0010
1000
0000
0001
0100
0001
0000
,  // measure 5
1000
0100
0010
0001
0000
1000
1000
0000
,  // measure 6
0011
0000
0011
0000
1000
0100
1000
0000
,  // measure 7
0001
0010
0100
1000
0000
0001
0001
0000
,  // measure 8
0200
0000
0310
0000
1000
0000
0001
1000
,  // measure 9
0200
0000
0310
0000
0001
0000
1000
0001
,  // measure 10
0200
0000
0310
0000
0100
0000
0010
0010
,  // measure 11
1000
0001
0100
0120
,  // measure 12
0130
0001
0100
0000
0010
1000
0010
0000
,  // measure 13
0100
0001
0010
0001
0000
0010
0010
0000
,  // measure 14
0001
0100
0001
0000
1000
0010
1000
0000
,  // measure 15
0010
1000
0100
1000
0000
0100
0100
0000
,  // measure 16
0020
0000
0031
0000
1000
0000
0010
1000
,  // measure 17
0002
0000
0103
0000
0001
0000
1000
0100
,  // measure 18
0020
0000
0031
0000
0100
0000
0010
0010
,  // measure 19
0100
0000
0100
0010
1000
0001
1000
0002
,  // measure 20
0000
0010
1000
0100
,  // measure 21
0200
0000
0303
0000
0010
0010
0010
2000
,  // measure 22
0000
0010
0001
0100
,  // measure 23
0200
0000
3300
0000
0010
0010
0010
0002
,  // measure 24
0000
2003
3002
2003
,  // measure 25
3020
0000
0100
0000
0000
0100
0130
0000
,  // measure 26
0002
1000
0010
0100
,  // measure 27
1003
0001
1000
0001
1000
0001
2001
0000
,  // measure 28
3010
0100
0001
0100
0010
0100
0002
0000
,  // measure 29
1003
0000
0001
1000
0200
0000
0320
0000
,  // measure 30
0032
0000
1003
0001
0200
0000
0320
0000
,  // measure 31
2030
0000
3001
2000
0100
0100
3200
0000
,  // measure 32
0310
0100
1000
0100
0010
0100
2000
0000
,  // measure 33
3002
0000
1003
0010
0200
0000
0302
0000
,  // measure 34
0203
0000
0310
1000
0200
0000
2300
0000
,  // measure 35
3002
0000
0013
0002
1000
1000
2003
0000
,  // measure 36
3000
0001
0001
0001
0002
0003
0000
1000
,  // measure 37
1000
1000
2000
3000
0000
0020
0130
0000
,  // measure 38
0000
0010
0010
0010
0020
0030
0000
0100
,  // measure 39
0100
0100
0200
0300
0000
0002
1003
0000
,  // measure 40
0001
0010
0100
0010
0001
0010
0200
0000
,  // measure 41
2300
0000
3010
0100
0002
0000
2003
0000
,  // measure 42
3200
0000
0310
0100
2000
0000
3002
0000
,  // measure 43
0203
0000
0310
2000
0001
0001
3002
0000
,  // measure 44
0203
0000
0010
0000
0301
1000
0100
0000
,  // measure 45
0020
0000
0001
0000
0130
1000
0001
0000
,  // measure 46
2000
0000
0010
0000
3001
0100
0010
0000
,  // measure 47
2000
0000
3100
0001
0002
0000
0203
0000
,  // measure 48
0320
0000
0001
0000
0130
1000
0001
0000
,  // measure 49
0200
0000
0001
0000
0310
1000
0001
0000
,  // measure 50
0002
0000
0023
0000
1030
0100
0001
0000
,  // measure 51
0200
0000
0010
0010
0310
0000
0120
0000
,  // measure 52
1030
0100
0010
0100
1000
0100
0020
0000
,  // measure 53
0032
0000
0103
0010
2000
0000
3002
0000
,  // measure 54
0023
0000
0130
0010
0002
0000
0203
0000
,  // measure 55
0320
0000
1030
0002
1000
1000
2003
0000
,  // measure 56
3001
0010
0100
0010
0001
0010
0200
0000
,  // measure 57
2300
0000
3010
0100
0002
0000
2003
0000
,  // measure 58
3200
0000
0310
0100
2000
0000
3002
0000
,  // measure 59
0023
0000
0031
2000
0100
0100
3200
0000
,  // measure 60
0300
1000
1000
1000
2000
3000
0000
0001
,  // measure 61
0001
0001
0002
0003
0000
0200
0310
0000
,  // measure 62
0000
0100
0100
0100
0200
0300
0000
0010
,  // measure 63
0010
0010
0020
0030
0000
2000
3001
0000
,  // measure 64
1000
0100
0001
0100
1000
0100
2000
0000
,  // measure 65
3002
0000
0103
0010
0200
0000
0302
0000
,  // measure 66
2003
0000
3100
0010
0002
0000
2003
0000
,  // measure 67
3200
0000
0310
0200
1000
1000
2000
3300
;

//---------------dance-single - Classic 3 | Modern 6----------------
#NOTEDATA:;
#CHARTNAME:;
#STEPSTYPE:dance-single;
#DESCRIPTION:Classic 3 | Modern 6;
#CHARTSTYLE:;
#DIFFICULTY:Easy;
#METER:5;
#RADARVALUES:0.270481,0.325031,0.029469,0.618844,0.000000,257.000000,253.000000,4.000000,84.000000,0.000000,0.000000,0.000000,0.000000,0.000000,0.270481,0.325031,0.029469,0.618844,0.000000,257.000000,253.000000,4.000000,84.000000,0.000000,0.000000,0.000000,0.000000,0.000000;
#CREDIT:DDRDAIKENKAI;
#ATTACKS:TIME=39.11:LEN=5.00:MODS=10% Hidden:TIME=41.32:LEN=5.00:MODS=20% Hidden:TIME=43.29:LEN=5.00:MODS=30% Hidden:TIME=45.26:LEN=5.00:MODS=40% hidden,10% Stealth:TIME=40.34:LEN=5.00:MODS=25% Hidden:TIME=42.31:LEN=5.00:MODS=50% Hidden:TIME=44.27:LEN=5.00:MODS=75% hidden:TIME=46.24:LEN=5.00:MODS=20% hidden,20% Stealth:TIME=47.22:LEN=5.00:MODS=20% Sudden,10% Hidden:TIME=48.21:LEN=5.00:MODS=30% Sudden:TIME=49.19:LEN=5.00:MODS=40% Sudden:TIME=39.11:LEN=5.00:MODS=10% Hidden:TIME=41.32:LEN=5.00:MODS=20% Hidden:TIME=43.29:LEN=5.00:MODS=30% Hidden:TIME=45.26:LEN=5.00:MODS=40% hidden,10% Stealth:TIME=40.34:LEN=5.00:MODS=25% Hidden:TIME=42.31:LEN=5.00:MODS=50% Hidden:TIME=44.27:LEN=5.00:MODS=75% hidden:TIME=46.24:LEN=5.00:MODS=20% hidden,20% Stealth:TIME=47.22:LEN=5.00:MODS=20% Sudden,10% Hidden:TIME=48.21:LEN=5.00:MODS=30% Sudden:TIME=49.19:LEN=5.00:MODS=40% Sudden:TIME=39.110001:LEN=5.000000:MODS=10% Hidden:TIME=41.320000:LEN=5.000000:MODS=20% Hidden:TIME=43.290001:LEN=5.000000:MODS=30% Hidden:TIME=45.259998:LEN=5.000000:MODS=40% hidden,10% Stealth:TIME=40.340000:LEN=5.000000:MODS=25% Hidden:TIME=42.310001:LEN=5.000000:MODS=50% Hidden:TIME=44.270000:LEN=5.000000:MODS=75% hidden:TIME=46.240002:LEN=5.000000:MODS=20% hidden,20% Stealth:TIME=47.220001:LEN=5.000000:MODS=20% Sudden,10% Hidden:TIME=48.209999:LEN=5.000000:MODS=30% Sudden:TIME=49.189999:LEN=5.000000:MODS=40% Sudden:TIME=39.110001:LEN=5.000000:MODS=10% Hidden:TIME=41.320000:LEN=5.000000:MODS=20% Hidden:TIME=43.290001:LEN=5.000000:MODS=30% Hidden:TIME=45.259998:LEN=5.000000:MODS=40% hidden,10% Stealth:TIME=40.340000:LEN=5.000000:MODS=25% Hidden:TIME=42.310001:LEN=5.000000:MODS=50% Hidden:TIME=44.270000:LEN=5.000000:MODS=75% hidden:TIME=46.240002:LEN=5.000000:MODS=20% hidden,20% Stealth:TIME=47.220001:LEN=5.000000:MODS=20% Sudden,10% Hidden:TIME=48.209999:LEN=5.000000:MODS=30% Sudden:TIME=49.189999:LEN=5.000000:MODS=40% Sudden;
#DISPLAYBPM:122.000000;
#NOTES:
0000
0000
0000
0000
,
0000
0000
0000
0000
,
0000
0000
0000
0000
,
0000
0000
0000
0000
,
1000
1000
0001
0001
,
0100
0000
0010
0010
0000
1000
1000
0000
,
0100
0100
0001
0001
,
0100
0000
1000
1000
0000
0001
0001
0000
,
1000
0001
0100
0001
,
1000
0000
0100
0000
0010
0000
0100
0200
,
0000
0000
0300
0000
0000
0000
0010
0020
,
0000
0000
0000
0030
,
0001
1000
0010
0100
,
0010
0000
1000
1000
0000
0001
0001
0000
,
0010
1000
0010
0001
,
1000
0000
0010
0010
0000
0100
0100
0000
,
0001
0010
1000
0010
,
0001
0000
0100
0000
1000
0000
0100
0200
,
0000
0000
0300
0000
0000
0000
0010
0020
,
0000
0000
0030
1000
1000
0000
0001
0000
,
2000
0100
0100
0100
,
0200
3300
1000
1000
,
0002
0010
0010
0010
,
0020
0033
0001
0001
,
2000
3002
2003
3002
,
2000
0000
3003
0000
0000
0100
0100
0000
,
0020
0000
0000
0000
,
0000
0000
0000
0030
,
0002
0023
0032
0023
,
0130
1000
0020
0230
,
0302
1003
0200
0320
,
0032
0000
1003
0000
0100
0100
0100
0000
,
2000
3020
2030
3020
,
0130
0001
0200
0320
,
0230
0301
0020
0230
,
0320
0000
0031
0000
1000
1000
1000
0000
,
0001
0000
0100
0100
0100
0000
0001
0000
,
0010
0010
0010
0000
0100
0000
0110
0000
,
1000
0000
0010
0010
0010
0000
1000
0000
,
0100
0100
0100
0000
0010
0000
0110
0000
,
0020
0230
0320
0230
,
1300
0001
0200
0320
,
0230
0301
2000
3002
,
2003
0000
3100
0000
0010
0010
0010
0000
,
0002
1000
0000
1003
,
0020
1000
0000
1030
,
0200
1000
0000
1300
,
0100
0000
0010
0010
0020
0000
0230
0000
,
2300
0001
0000
3001
,
0200
0001
0000
0301
,
0010
1000
0100
0001
,
2000
0000
0001
0001
0002
0000
3003
0000
,
2000
3200
2300
3200
,
0310
0001
0200
0320
,
2030
3001
0020
0230
,
2300
0000
3001
0000
0010
0010
0010
0000
,
0002
0203
0302
0203
,
0310
1000
0200
0320
,
0032
0103
0020
2030
,
3002
0000
0013
0000
0100
0100
0100
0000
,
1000
0000
0001
0001
0001
0000
1000
0000
,
0001
0001
0001
0000
0100
0000
0110
0000
,
0010
0000
1000
1000
1000
0000
0001
0000
,
1000
1000
1000
0000
0100
0000
0110
0000
,
0200
0320
0230
0320
,
0031
1000
0020
0230
,
0320
1030
0002
2003
,
3002
0000
1003
0000
0010
0010
0020
0030
;
