#VERSION:0.83;
#TITLE:HUU YAH YEAH;
#SUBTITLE:;
#ARTIST:Y-ME;
#TITLETRANSLIT:;
#SUBTITLETRANSLIT:;
#ARTISTTRANSLIT:;
#GENRE:K-POP;
#ORIGIN:;
#CREDIT:;
#BANNER:huuyahyeah-bn.png;
#BACKGROUND:huuyahyeah-bg.png;
#PREVIEWVID:;
#JACKET:huuyahyeah-jacket.png;
#CDIMAGE:;
#DISCIMAGE:;
#LYRICSPATH:;
#CDTITLE:cdtitle.png;
#MUSIC:huuyahyeah.ogg;
#OFFSET:-0.687146;
#SAMPLESTART:43.745773;
#SAMPLELENGTH:13.636000;
#SELECTABLE:YES;
#BPMS:0.000=110.011;
#STOPS:;
#DELAYS:;
#WARPS:;
#TIMESIGNATURES:0.000=4=4;
#TICKCOUNTS:0.000=4;
#COMBOS:0.000=1;
#SPEEDS:0.000=1.000=0.000=0;
#SCROLLS:0.000=1.000;
#FAKES:;
#LABELS:0.000=Song Start;
#BGCHANGES:;
#KEYSOUNDS:;
#ATTACKS:
;

//---------------dance-single - ----------------
#NOTEDATA:;
#CHARTNAME:;
#STEPSTYPE:dance-single;
#DESCRIPTION:;
#CHARTSTYLE:;
#DIFFICULTY:Hard;
#METER:9;
#RADARVALUES:0.386408,0.376144,0.089499,0.169053,0.054694,272.000000,263.000000,9.000000,17.000000,4.000000,0.000000,0.000000,0.000000,0.000000,0.386408,0.376144,0.089499,0.169053,0.054694,272.000000,263.000000,9.000000,17.000000,4.000000,0.000000,0.000000,0.000000,0.000000;
#CREDIT:TonyAkita;
#NOTES:
// measure 0
0000
0000
0000
0000
,  // measure 1
0000
0000
0000
0000
,  // measure 2
0000
0000
0000
0000
,  // measure 3
0001
0000
0001
0000
0001
0000
1000
0100
,  // measure 4
0010
0001
0010
1000
0010
0001
1000
0000
,  // measure 5
0010
0001
0010
1000
0010
0100
0001
0000
,  // measure 6
1000
0100
0001
0100
1000
0100
0010
0000
,  // measure 7
0002
0000
0010
0000
0013
0001
1000
0000
,  // measure 8
1000
0000
0010
0000
1000
0000
0000
0010
0100
0000
0100
0000
0001
0000
0000
0000
,  // measure 9
0001
0000
0010
0000
0001
0000
0000
0010
0100
0000
0100
0000
1000
0000
0000
0000
,  // measure 10
1000
0000
0100
0000
0001
0000
0000
0100
1000
0000
0001
0000
0001
0000
0000
0000
,  // measure 11
0001
0000
0100
0000
1000
0000
0000
0100
0001
0000
1000
0000
1000
0000
0000
0000
,  // measure 12
0100
0000
0010
0000
0100
0000
0000
1000
0001
0000
0001
0000
0100
0000
0000
0000
,  // measure 13
0100
0000
0010
0000
0100
0000
0000
0001
1000
0000
1000
0000
0100
0000
0000
0000
,  // measure 14
0010
0000
0001
0000
0010
0000
0000
0100
1000
0000
1000
0000
0010
0000
0000
0000
,  // measure 15
0010
0000
1000
0000
0010
0000
0000
1000
0001
0000
0000
0000
0020
0000
0001
0000
,  // measure 16
0031
0000
0020
1000
1030
0000
0010
0100
,  // measure 17
1000
0100
0001
0100
1000
0000
0020
1000
,  // measure 18
1030
0000
0020
0001
0031
0000
0010
0100
,  // measure 19
0001
0100
1000
0100
0001
0000
1000
1000
,  // measure 20
0010
0000
1000
1000
0001
0000
1000
0010
,  // measure 21
0100
0001
1000
0100
0010
0000
0001
0001
,  // measure 22
0010
0000
0001
0001
1000
0000
0001
0010
,  // measure 23
0100
1000
0001
0100
0010
0000
0000
0000
,  // measure 24
2000
3200
0302
0023
,  // measure 25
1030
0010
0001
0010
1000
0100
0010
0000
,  // measure 26
0002
0203
2300
3020
,  // measure 27
0031
0010
1000
0010
0001
0100
0010
0000
,  // measure 28
1010
0000
1000
0010
1000
0000
1000
0001
,  // measure 29
1000
0000
0000
0000
0010
0000
0010
0000
0100
0000
0001
0000
1000
0000
0000
0100
,  // measure 30
0010
0000
0001
1000
0001
0000
0001
0010
,  // measure 31
0001
0000
0000
0011
0000
1001
0000
1010
,  // measure 32
0000
0000
1000
0010
M100
0000
1000
0010
,  // measure 33
M100
0000
0000
0000
0001
0000
0001
0000
0100
0000
0010
0000
1000
0000
0000
0100
,  // measure 34
0010
0000
0001
0010
010M
0000
0001
0010
,  // measure 35
010M
0000
0000
0000
1000
0000
1000
0000
0001
0000
0100
0000
0010
0000
0000
1000
,  // measure 36
0001
0000
0200
0010
0310
0000
0200
0001
,  // measure 37
0301
0000
1000
0100
0001
0100
0010
0100
,  // measure 38
1000
0000
0200
0010
0310
0000
0200
1000
,  // measure 39
1300
0000
0001
0100
1000
0100
0010
0100
,  // measure 40
0001
0000
1000
1000
1010
0000
1000
1000
,  // measure 41
1001
0000
1000
0001
0010
0100
1000
0100
,  // measure 42
0010
0000
0001
0001
0011
0000
0001
0001
,  // measure 43
1001
0000
0001
1000
0010
0100
0001
0100
,  // measure 44
0010
1000
0001
0000
1001
0000
0000
0000
;

//---------------dance-single - ----------------
#NOTEDATA:;
#CHARTNAME:;
#STEPSTYPE:dance-single;
#DESCRIPTION:;
#CHARTSTYLE:;
#DIFFICULTY:Medium;
#METER:7;
#RADARVALUES:0.316797,0.331891,0.099443,0.049722,0.000000,223.000000,213.000000,10.000000,5.000000,0.000000,0.000000,0.000000,0.000000,0.000000,0.316797,0.331891,0.099443,0.049722,0.000000,223.000000,213.000000,10.000000,5.000000,0.000000,0.000000,0.000000,0.000000,0.000000;
#CREDIT:TonyAkita;
#NOTES:
0000
0000
0000
0000
,
0000
0000
0000
0000
,
0000
0000
0000
0000
,
0001
0001
0001
1000
,
0100
0001
0100
1000
,
0010
0100
0001
0100
,
1000
0100
0001
1000
,
0200
0000
0000
0000
0010
0010
0310
0000
,
0001
0000
1000
0000
0010
0010
0010
0000
,
1000
0000
0001
0000
0100
0100
0100
0000
,
0001
0000
0010
0000
0001
0001
0001
0000
,
1000
0000
0010
0000
1000
1000
1000
0000
,
0100
0000
0010
0000
0001
0010
0001
0000
,
1000
0000
0010
0000
0100
0001
0100
0000
,
0010
0000
1000
0000
0001
1000
0001
0000
,
0010
0000
0100
0000
1000
0000
0100
0010
,
0100
0000
0100
1000
0100
0000
1001
0000
,
0001
0100
0010
1000
0010
0000
0100
0010
,
0100
0000
0100
0001
0100
0000
1001
0000
,
1000
0100
0010
0001
1000
0000
0010
0010
,
0010
0000
0100
0100
0100
0000
0101
0000
,
0001
0100
1000
0100
0001
0000
0100
0100
,
0100
0000
0010
0010
0010
0000
1010
0000
,
1000
0010
0001
0010
1000
0000
0100
0000
,
0020
0001
0100
0031
,
1000
0001
0100
0000
0010
0000
1000
0000
,
0020
1000
0100
1030
,
0001
1000
0100
0000
0010
0000
0001
0000
,
1001
0001
0002
0000
,
0013
0000
0001
0000
1000
0010
0100
0000
,
0001
1000
2000
0000
,
3010
0000
0000
1000
0000
0001
0000
1000
,
0000
0000
0100
0100
0001
0000
0100
0100
,
1000
0000
0001
0000
0100
0010
1000
0000
,
0001
0000
0100
0100
1000
0000
0100
0100
,
0001
0000
1000
0000
0100
0010
0001
0010
,
0100
0000
1000
1000
1000
0000
0001
0001
,
0001
0000
1001
0000
0001
0100
0010
1000
,
0001
0000
0001
0001
0001
0000
1000
1000
,
1000
0000
1001
0000
1000
0100
0010
0001
,
1000
0000
0010
1000
0010
0000
0010
0100
,
0010
0000
0101
0000
0001
0100
1000
0010
,
0001
0000
0010
0001
0010
0000
0010
0100
,
0010
0000
1100
0000
1000
0100
0001
0010
,
1000
0001
1001
0000
;

//---------------dance-single - ----------------
#NOTEDATA:;
#CHARTNAME:;
#STEPSTYPE:dance-single;
#DESCRIPTION:;
#CHARTSTYLE:;
#DIFFICULTY:Easy;
#METER:5;
#RADARVALUES:0.223037,0.265513,0.019889,0.029833,0.000000,157.000000,155.000000,2.000000,3.000000,0.000000,0.000000,0.000000,0.000000,0.000000,0.223037,0.265513,0.019889,0.029833,0.000000,157.000000,155.000000,2.000000,3.000000,0.000000,0.000000,0.000000,0.000000,0.000000;
#CREDIT:TonyAkita;
#NOTES:
0000
0000
0000
0000
,
0000
0000
0000
0000
,
0000
0000
0000
0000
,
0001
0001
0001
0001
,
1000
0000
0010
0000
,
1000
0100
0010
0001
,
0100
0000
0001
0000
,
0020
0000
0000
0130
,
1000
0100
1000
0000
,
0001
0100
0010
0000
,
1000
0010
1000
0000
,
0001
0010
0100
0000
,
1000
0100
0001
0000
,
0100
0100
0010
0000
,
0001
0100
1000
0000
,
0100
0000
0100
0000
0010
0000
1000
1000
,
1000
0000
0001
0001
0001
0000
0000
0000
,
0010
0000
0100
0000
1000
0000
0001
0001
,
0001
0000
1000
1000
1000
0000
0000
0000
,
0010
0000
0100
0000
0001
0000
0100
0100
,
0100
0000
0010
0010
0010
0000
0000
0000
,
1000
0000
0010
0000
0001
0000
0010
0010
,
0010
0000
0100
0100
0100
0000
0000
0000
,
0001
0100
0010
0000
,
1000
0100
0001
0010
,
1000
0000
0001
0001
,
0001
0100
1000
0010
,
0001
0000
1000
1000
,
1001
0000
0002
0000
,
0013
0000
0001
1000
,
0010
0000
2000
0000
,
3010
0000
0010
0100
,
0001
1000
0100
0001
,
0100
0000
1000
0000
0001
0100
0001
0000
,
0100
0010
1000
0010
,
0001
0000
0010
0000
1000
0010
1000
0000
,
0001
0000
0001
0001
0001
0000
1000
1000
,
1000
0000
0100
0010
,
0001
0000
1000
1000
1000
0000
0001
0001
,
0001
0000
0100
0010
,
1000
0000
0010
0010
0010
0000
0100
0100
,
0100
0000
0001
0100
,
1000
0000
0100
0100
0100
0000
0010
0010
,
0010
0000
1000
0100
,
0001
0100
0110
0000
;

//---------------dance-single - ----------------
#NOTEDATA:;
#CHARTNAME:;
#STEPSTYPE:dance-single;
#DESCRIPTION:;
#CHARTSTYLE:;
#DIFFICULTY:Beginner;
#METER:3;
#RADARVALUES:0.129276,0.154883,0.019889,0.039777,0.000000,91.000000,89.000000,2.000000,4.000000,0.000000,0.000000,0.000000,0.000000,0.000000,0.129276,0.154883,0.019889,0.039777,0.000000,91.000000,89.000000,2.000000,4.000000,0.000000,0.000000,0.000000,0.000000,0.000000;
#CREDIT:TonyAkita;
#NOTES:
0000
0000
0000
0000
,
0000
0000
0000
0000
,
0000
0000
0000
0000
,
0001
0001
0001
0001
,
0001
0000
0001
0000
,
1000
0000
1000
0000
,
0010
0000
0100
0000
,
1001
0000
0000
0001
,
0001
0000
0000
1000
,
1000
0000
0000
0010
,
0010
0000
0000
1000
,
1000
0000
0000
0001
,
0001
0000
0000
0010
,
0010
0000
0000
0001
,
0001
0000
0000
0100
,
0100
0000
0010
0000
,
1000
1000
1000
0000
,
0010
0000
0100
0000
,
0001
0001
0001
0000
,
0010
0000
0100
0000
,
0010
0010
0010
0000
,
0001
0000
1000
0000
,
0010
0010
0010
0000
,
0100
0000
0001
0000
,
1000
0000
1000
0000
,
2000
0000
3000
0000
,
0001
0000
0001
0000
,
0002
0000
0003
0000
,
0001
0000
0100
0000
,
0100
0000
0020
0000
,
0030
0000
1000
0000
,
1000
0000
0002
0000
,
0003
0000
0010
0000
,
0001
0000
0100
0000
,
0001
0000
1000
0000
,
0010
0000
1000
0000
,
0000
0000
0001
0001
,
0001
0000
0100
0000
,
0010
0000
1000
1000
,
1000
0000
0100
0000
,
0010
0000
0100
0100
,
0100
0000
1000
0000
,
0001
0000
0100
0100
,
0100
0000
0010
0000
,
1000
0000
1001
0000
;
