#TITLE:Good Time;
#SUBTITLE:;
#ARTIST:Owl City and Carly Rae Jepsen;
#TITLETRANSLIT:;
#SUBTITLETRANSLIT:;
#ARTISTTRANSLIT:;
#GENRE:;
#CREDIT:;
#BANNER:Good Time.png;
#BACKGROUND:Good Time-bg.png;
#LYRICSPATH:;
#CDTITLE:;
#MUSIC:Good Time.ogg;
#OFFSET:0.004500;
#SAMPLESTART:62.858501;
#SAMPLELENGTH:15.284999;
#SELECTABLE:YES;
#BPMS:0.000000=126
;
#STOPS:
;
#BGCHANGES:0.000=Good Time.avi=1.000=0=0=0=StretchNoLoop==CrossFade_Fastest==,
99999=-nosongbg-=1.000=0=0=0 // don't automatically add -songbackground-
;
#KEYSOUNDS:;
#ATTACKS:;

//---------------dance-single - ----------------
#NOTES:
     dance-single:
     :
     Hard:
     10:
     0.347200,0.463526,0.165709,0.138091,0.018412,264.000000,246.000000,18.000000,15.000000,0.000000,0.000000,0.347200,0.463526,0.165709,0.138091,0.018412,264.000000,246.000000,18.000000,15.000000,0.000000,0.000000:
0000
0000
0000
0000
,
0000
0000
0000
0000
,
0000
0000
0000
0000
,
0000
0000
0000
0000
,
0000
0000
0000
0000
,
0000
0000
0000
0000
,
0000
0000
0000
0000
,
0001
1000
0100
0001
0010
1000
0100
0000
,
2000
0000
3000
0101
,
0011
0000
0101
0000
0001
0010
0100
0000
,
0010
0001
1000
0000
0100
0010
0001
0000
,
0100
0100
0010
0000
0010
1000
0100
1000
,
0001
0001
1000
1000
0010
0010
0100
0000
,
0002
0203
0010
0310
,
0200
0310
0200
0310
,
0010
1000
0100
0001
,
0010
1000
0100
0110
,
1100
0000
1010
0000
1000
0100
0010
0000
,
0100
1000
0001
0001
0010
0100
1000
0000
,
0010
0010
0100
0000
0100
0001
0010
0001
,
1000
1000
0001
0001
0100
0010
0100
0000
,
0010
1000
0100
0010
,
0200
0310
0200
0310
,
0001
0100
1000
0010
0001
0100
1000
0000
,
0100
0100
0010
0110
,
2100
0100
0100
3100
,
0002
0100
0100
0103
,
0200
0010
0010
0310
,
0020
1000
0001
0130
,
0010
1000
0100
0000
0010
1000
0100
0000
,
0010
1000
0100
0010
0001
0100
0001
0000
,
0001
0001
0100
0100
1000
1000
0010
0010
,
0001
0000
0001
1000
0000
0000
1000
0000
1000
0001
0000
0000
1002
0000
0000
0000
0000
0000
0103
0000
0000
0000
0000
0000
,
0001
0100
0010
0100
0010
0000
1010
0000
,
1100
0011
2100
3010
,
0001
0100
0010
0100
0010
0100
0001
0000
,
0010
0100
1000
0010
0100
0001
0010
0000
,
0010
0100
1000
0010
0100
0001
0010
0000
,
0001
0001
1000
0000
1010
0000
1100
0000
,
0010
0001
0100
0100
0010
0100
0010
0000
,
0010
1000
0100
1000
0001
0001
1000
0001
,
0100
0010
1000
0100
1000
1000
0001
0000
,
0001
0001
0101
0000
0011
0000
1100
0000
,
0100
0010
0001
0010
0001
0100
0010
0000
,
0010
0010
1000
0000
0100
1000
0010
0000
,
1000
0010
0001
0010
1000
0000
0001
0000
,
0001
0100
1000
0100
0001
0000
1000
0000
,
1000
1000
0100
0100
0001
0001
0010
0010
,
1000
0000
0000
1000
0000
0000
0001
0000
0000
0001
0000
0000
0100
0000
0100
0010
0000
0000
0010
0000
0020
0200
0000
0000
,
0000
0000
0000
0000
,
0000
0000
0000
0000
,
0000
0000
0000
0000
,
0000
0000
0000
0000
,
0330
0000
0000
0000
;

//---------------dance-single - ----------------
#NOTES:
     dance-single:
     :
     Medium:
     7:
     0.228837,0.341545,0.046030,0.165709,0.000000,174.000000,169.000000,5.000000,18.000000,0.000000,0.000000,0.228837,0.341545,0.046030,0.165709,0.000000,174.000000,169.000000,5.000000,18.000000,0.000000,0.000000:
0000
0000
0000
0000
,
0000
0000
0000
0000
,
0000
0000
0000
0000
,
0000
0000
0000
0000
,
0000
0000
0000
0000
,
0000
0000
0000
0000
,
0000
0000
0000
0000
,
0001
1000
0100
0100
,
0020
0000
0030
0001
,
1001
0100
0010
0100
,
0001
0010
0100
0100
,
0010
1010
1000
1100
,
0010
0001
0100
0010
,
0010
1000
0010
1000
,
0100
1000
0100
0010
,
0001
0001
0200
0300
,
0010
1000
0100
1000
,
0001
1000
0001
0001
,
1000
0010
0100
0100
,
0010
1000
0100
0100
,
0010
0001
0100
0001
,
0010
0100
1000
0010
,
0100
0010
0100
0001
,
0010
1000
0100
0001
,
0010
0010
0200
0310
,
0002
0000
1003
0000
,
2000
0000
3010
0000
,
0020
0000
0130
0000
,
0200
0000
0301
0000
,
0001
0010
0100
1000
,
1000
0010
0100
0001
,
1000
1000
0100
0000
0010
0010
0001
0000
,
0001
1000
0001
0000
2002
0000
3003
0000
,
0001
0100
0010
0100
,
0001
0001
0001
0000
2000
0000
3100
0000
,
0010
0100
1000
1000
,
0010
0000
0100
0000
0010
0010
0010
0000
,
0100
0001
0010
0010
,
0100
1000
0002
1003
,
0010
1000
0100
0001
,
0010
1000
0100
0001
,
0010
0010
0100
0100
,
0010
0010
0010
0000
0002
0000
1003
0000
,
1000
0000
0010
0000
0100
0100
0100
0000
,
0010
0000
1000
0000
0100
0100
0100
0000
,
2000
3001
0002
0103
,
0200
0310
0020
1030
,
0100
1000
0100
0000
0010
0100
0010
0000
,
0100
0001
0010
0000
0010
0001
1000
0000
,
2002
0000
0000
0000
,
0000
0000
0000
0000
,
0000
0000
0000
0000
,
0000
0000
0000
0000
,
3003
0000
0000
0000
;

//---------------dance-single - ----------------
#NOTES:
     dance-single:
     :
     Easy:
     4:
     0.184121,0.243961,0.018412,0.119679,0.000000,140.000000,138.000000,2.000000,13.000000,0.000000,0.000000,0.184121,0.243961,0.018412,0.119679,0.000000,140.000000,138.000000,2.000000,13.000000,0.000000,0.000000:
0000
0000
0000
0000
,
0000
0000
0000
0000
,
0000
0000
0000
0000
,
0000
0000
0000
0000
,
0000
0000
0000
0000
,
0000
0000
0000
0000
,
0000
0000
0000
0000
,
0001
1000
0100
0100
,
2000
0000
0000
3001
,
0001
0100
0001
0000
,
0010
0100
1000
0000
,
1000
0010
0100
0000
,
0100
0001
0010
0000
,
0010
0001
0010
0001
,
0100
0001
0100
0001
,
0010
0100
1000
0010
,
0200
0000
0010
0310
,
1000
0010
1000
0000
,
0100
0010
0001
0000
,
0001
0100
0010
0000
,
0010
1000
0100
0000
,
0100
1000
0010
1000
,
0100
1000
0100
1000
,
0100
0010
0001
0100
,
0020
0000
0100
0130
,
0020
0000
0000
0030
,
2000
0000
0000
3000
,
0002
0000
0000
0003
,
0200
0000
0000
0300
,
0002
0000
0023
0000
,
0230
0000
2300
0000
,
3001
0100
0010
0010
,
1000
0100
0011
0000
,
0001
0100
0010
0010
,
0100
0001
1000
0000
,
0100
0010
0001
1000
,
0010
0010
0100
0010
,
0100
0001
0010
0001
,
0001
1000
0100
0100
,
1000
0010
0100
0010
,
0100
0001
0010
0100
,
1000
0010
0100
0100
,
0010
1000
0001
0000
,
0010
0100
1000
0001
,
0100
0100
0010
0100
,
0010
1000
0100
1000
,
1000
0001
0010
0010
,
0001
0100
0010
0100
,
0010
1000
0100
0010
,
0220
0000
0000
0000
,
0000
0000
0000
0000
,
0000
0000
0000
0000
,
0000
0000
0000
0000
,
0330
0000
0000
0000
;

//---------------dance-single - ----------------
#NOTES:
     dance-single:
     :
     Beginner:
     1:
     0.064442,0.121980,0.018412,0.036824,0.000000,49.000000,47.000000,2.000000,4.000000,0.000000,0.000000,0.064442,0.121980,0.018412,0.036824,0.000000,49.000000,47.000000,2.000000,4.000000,0.000000,0.000000:
0000
0000
0000
0000
,
0000
0000
0000
0000
,
0000
0000
0000
0000
,
0000
0000
0000
0000
,
0000
0000
0000
0000
,
0000
0000
0000
0000
,
0000
0000
0000
0000
,
0000
0000
0000
0000
,
0000
0000
0000
0000
,
1000
0000
0000
0000
,
1000
0000
0000
0000
,
0001
0000
0000
0000
,
0001
0000
0000
0000
,
0010
0000
0000
0000
,
0100
0000
0000
0000
,
0010
0000
0000
0000
,
0001
0000
0000
0000
,
0100
0000
0100
0000
,
0100
0000
0000
0000
,
0010
0000
0010
0000
,
0010
0000
0000
0000
,
1000
0000
0001
0000
,
1000
0000
0000
0000
,
2002
0000
0000
3003
,
0000
0000
0000
0000
,
0100
0000
0000
0000
,
0000
0000
0000
0000
,
0010
0000
0000
0000
,
0000
0000
0000
0000
,
1000
0000
0000
0000
,
0000
0000
0000
0000
,
0001
0000
0000
0000
,
1000
0000
1000
0000
,
0001
0000
0000
0000
,
0100
0000
0100
0000
,
0100
0000
0000
0000
,
0010
0000
0010
0000
,
0010
0000
0000
0000
,
1000
0000
1000
0000
,
1000
0000
0000
0000
,
0001
0000
0000
0000
,
1000
0000
1000
0000
,
1000
0000
0000
0000
,
0001
0000
0001
0000
,
0001
0000
0000
0000
,
0010
0000
0010
0000
,
0010
0000
0000
0000
,
0100
0000
0000
0000
,
0100
0000
0000
0000
,
2002
0000
0000
0000
,
0000
0000
0000
0000
,
0000
0000
0000
0000
,
0000
0000
0000
0000
,
3003
0000
0000
0000
;

//---------------dance-double - ----------------
#NOTES:
     dance-double:
     :
     Hard:
     9:
     0.309061,0.439129,0.138091,0.193327,0.000000,235.000000,220.000000,15.000000,21.000000,0.000000,0.000000,0.309061,0.439129,0.138091,0.193327,0.000000,235.000000,220.000000,15.000000,21.000000,0.000000,0.000000:
// measure 0
00000000
00000000
00000000
00000000
,  // measure 1
00000000
00000000
00000000
00000000
,  // measure 2
00000000
00000000
00000000
00000000
,  // measure 3
00000000
00000000
00000000
00000000
,  // measure 4
00000000
00000000
00000000
00000000
,  // measure 5
00000000
00000000
00000000
00000000
,  // measure 6
00000000
00000000
00000000
00000000
,  // measure 7
00100000
00001000
00000010
00000001
00000100
00001000
00000010
00000000
,  // measure 8
00000020
00000000
00000000
00000000
00000000
00000001
00000031
00000000
,  // measure 9
00000100
00001100
00010000
00011000
,  // measure 10
00001000
00100000
00010000
00000000
00010000
01000000
00100000
00000000
,  // measure 11
00100000
10100000
10000000
11000000
,  // measure 12
00100000
00001000
00010000
00000000
00010000
00000010
00000100
00000000
,  // measure 13
00000100
00000001
00000010
00000000
00000010
00000100
00001000
00000000
,  // measure 14
00010000
00100000
01000000
00000000
01000000
01000000
00100000
00000000
,  // measure 15
00020000
00130000
00200000
01300000
,  // measure 16
00200000
00301000
00020000
00030100
,  // measure 17
00100000
00100000
00110000
00000000
00001000
00001000
00011000
00000000
,  // measure 18
00010000
00000100
00001000
00000000
00001000
00000010
00000100
00000000
,  // measure 19
00000100
00000100
00000101
00000000
00000001
00000001
00000011
00000000
,  // measure 20
00000100
00010000
00001000
00000000
01000000
00001000
00100000
00000000
,  // measure 21
00100000
00010000
01000000
00000000
01000000
00100000
00010000
00000000
,  // measure 22
00001000
00000000
00000010
00000000
00000100
00000010
00000100
00000000
,  // measure 23
00000020
00000130
00000200
00000310
,  // measure 24
00020000
00030100
00020000
00031000
,  // measure 25
02000000
00000000
00100000
03100000
,  // measure 26
00200000
00000000
10000000
10300000
,  // measure 27
20000000
00000000
00010000
30010000
,  // measure 28
00200000
00000000
00001000
00301000
,  // measure 29
00020000
00000100
00000100
00030100
,  // measure 30
00000020
00000001
00000001
00000031
,  // measure 31
00000001
00000100
00000010
00010000
00001000
00100000
00001000
00100000
,  // measure 32
00001000
00010000
00001000
00010000
00011000
00000000
00100010
00000000
,  // measure 33
01000100
00000000
00110000
00000000
00100000
00001000
00010000
00000000
,  // measure 34
00010000
00000010
00000100
00000001
00000010
00000010
00000001
00000000
,  // measure 35
00000100
00001000
00010000
01000000
00100000
00010000
10000000
00000000
,  // measure 36
10000000
00010000
00001000
00000001
,  // measure 37
00000010
00000100
00001000
00000010
00010000
00001000
00010000
00000000
,  // measure 38
00002000
00103000
02000000
03010000
,  // measure 39
00001000
01000000
00000100
00000000
00000010
00000001
00001000
00000000
,  // measure 40
00000001
00001000
00010000
10000000
,  // measure 41
01010000
00000000
00001100
00000000
00000100
00010000
00001000
00000000
,  // measure 42
00001000
01000000
00100000
10000000
01000000
01000000
10000000
00000000
,  // measure 43
00100000
00010000
00001000
00000010
00000100
00001000
00000001
00000000
,  // measure 44
00000001
00001000
00010000
10000000
,  // measure 45
01000000
00100000
00010000
01000000
00001000
00010000
00001000
00000000
,  // measure 46
00020000
00030100
00000020
00001030
,  // measure 47
00010000
00000010
00100000
00000000
01000000
10000000
00010000
00000000
,  // measure 48
10000000
10000000
00010000
00010000
00001000
00001000
00000001
00000001
,  // measure 49
00002002
00000000
00000000
00000000
,  // measure 50
00000000
00000000
00000000
00000000
,  // measure 51
00000000
00000000
00000000
00000000
,  // measure 52
00000000
00000000
00000000
00000000
,  // measure 53
00003003
00000000
00000000
00000000
;

//---------------dance-double - ----------------
#NOTES:
     dance-double:
     :
     Medium:
     6:
     0.223576,0.292753,0.092061,0.211740,0.000000,170.000000,160.000000,10.000000,23.000000,0.000000,0.000000,0.223576,0.292753,0.092061,0.211740,0.000000,170.000000,160.000000,10.000000,23.000000,0.000000,0.000000:
00000000
00000000
00000000
00000000
,
00000000
00000000
00000000
00000000
,
00000000
00000000
00000000
00000000
,
00000000
00000000
00000000
00000000
,
00000000
00000000
00000000
00000000
,
00000000
00000000
00000000
00000000
,
00000000
00000000
00000000
00000000
,
00100000
00010000
00001000
00000010
,
00002000
00000000
00000000
00000000
00000000
00010000
00013000
00000000
,
00100000
00110000
01000000
01010000
,
00100000
00100000
00001000
00001000
,
00010000
00011000
00010000
00010100
,
00000100
00000100
00001000
00000010
,
00000100
00000001
00000010
00000010
,
00000100
00010000
00000100
00010000
,
00001000
01000000
00200000
01300000
,
00020000
00000000
00100000
00130000
,
00000100
00001100
00001000
00001010
,
00000100
00000100
00010000
00010000
,
00001000
00011000
00001000
00101000
,
00100000
00100000
00010000
01000000
,
00100000
10000000
01000000
00100000
,
01000000
00001000
01000000
00100000
,
00001000
00010000
00000020
00000130
,
00000002
00000000
00000100
00000103
,
00000020
00000000
00002000
00000030
,
00000200
00003000
00020000
00000300
,
00002000
00030000
02000000
00003000
,
00200000
03000000
20000000
00300000
,
30020000
01030000
02000000
03001000
,
00002000
00003010
00000020
00000031
,
00001000
00001000
00000100
00000100
,
01000000
01000000
00022000
00033000
,
00001000
01000000
00100000
00100000
,
10000000
00010000
20000000
30010000
,
01000000
00010000
00000010
00000100
,
00001000
00000001
00001000
00000010
,
00000100
00000001
00000010
00000100
,
00001000
00000010
00000001
00000010
,
00001000
00010000
01000000
00100000
,
10000000
00010000
00001000
00000001
,
00010000
00000010
00000100
00000100
,
00000001
00001000
00000002
00001003
,
00000010
00001000
01000000
00100000
,
00010000
10000000
00010000
01000000
,
00100000
10000000
01000000
00100000
,
00010000
00010000
01000000
00000000
10000000
00000000
01000000
00000000
,
00010000
00001000
00000010
00000100
,
00000001
00000001
00001000
00000000
00010000
00010000
10000000
00000000
,
00022000
00000000
00000000
00000000
,
00000000
00000000
00000000
00000000
,
00000000
00000000
00000000
00000000
,
00000000
00000000
00000000
00000000
,
00033000
00000000
00000000
00000000
;

//---------------dance-double - ----------------
#NOTES:
     dance-double:
     :
     Easy:
     3:
     0.140721,0.243961,0.009206,0.128885,0.000000,107.000000,106.000000,1.000000,14.000000,0.000000,0.000000,0.140721,0.243961,0.009206,0.128885,0.000000,107.000000,106.000000,1.000000,14.000000,0.000000,0.000000:
00000000
00000000
00000000
00000000
,
00000000
00000000
00000000
00000000
,
00000000
00000000
00000000
00000000
,
00000000
00000000
00000000
00000000
,
00000000
00000000
00000000
00000000
,
00000000
00000000
00000000
00000000
,
00000000
00000000
00000000
00000000
,
00020000
00000000
00000000
00000000
,
00002000
00000000
00000000
00033000
,
01000000
00000000
01000000
00000000
,
01000000
01000000
01000000
00000000
,
00001000
00000000
00010000
00000000
,
00001000
00001000
00001000
00000000
,
00000010
00000000
00000010
00000000
,
00000100
00000000
00000100
00000000
,
00001000
00001000
00001000
00000000
,
00000020
00000000
00000100
00000130
,
00000010
00000010
00000010
00000000
,
00000010
00000010
00000010
00000000
,
00010000
00000000
00001000
00000000
,
00010000
00010000
00010000
00000000
,
01000000
00000000
00100000
00000000
,
01000000
00000000
01000000
00000000
,
00100000
00010000
00010000
00000000
,
02000000
00100000
00200000
03300000
,
02000000
00000000
00000000
03000000
,
00020000
00000000
00000000
00030000
,
00200000
00000000
00000000
00300000
,
00002000
00000000
00000000
00003000
,
00000020
00000000
00000000
00000030
,
00000002
00000000
00000000
00000003
,
00000001
00000000
00001000
00000000
,
00010000
00000000
20000000
30010000
,
10000000
10000000
10000000
00000000
,
00010000
01000000
00010000
00000000
,
00100000
00001000
00010000
00000000
,
00000010
00000010
00000010
00000000
,
00000100
00000001
00000010
00000000
,
00000100
00000100
00000100
00000000
,
00010000
00001000
00010000
00000000
,
00001000
00001000
00010000
00001000
,
01000000
00010000
00100000
00000000
,
00100000
01000000
10000000
00000000
,
10000000
10000000
00010000
00000000
,
01000000
00001000
00010000
00000000
,
00001000
00000010
00000100
00000000
,
00000010
00000001
00000100
00000000
,
00010000
01000000
00001000
01000000
,
00010000
00100000
00001000
00010000
,
00022000
00000000
00000000
00000000
,
00000000
00000000
00000000
00000000
,
00000000
00000000
00000000
00000000
,
00000000
00000000
00000000
00000000
,
00033000
00000000
00000000
00000000
;
